#TITLE:BI-BUN-SEKI-BUn;
#SUBTITLE:;
#ARTIST:中央値算出チーム;
#TITLETRANSLIT:;
#SUBTITLETRANSLIT:;
#ARTISTTRANSLIT:CHUUOUCHI SANSHUTSU TEAM;
#CREDIT:DigiMindAxel;
#BANNER:BI-BUN-SEKI-BUn.png;
#BACKGROUND:BI-BUN-SEKI-BUn-bg.png;
#LYRICSPATH:BI-BUN-SEKI-BUn.lrc;
#CDTITLE:pop'n music.png;
#MUSIC:BI-BUN-SEKI-BUn.ogg;
#METERTYPE:DDR X;
#OFFSET:-10.513;
#SAMPLESTART:91.339;
#SAMPLELENGTH:12.000;
#SELECTABLE:YES;
#BPMS:0.000=190.000,224.000=95.000,240.000=190.000;
#STOPS:;
#BGCHANGES:;

//---------------dance-single - ----------------
#NOTES:
     dance-single:
     :
     Easy:
     7:
     0.323,0.366,0.098,0.015,0.000:
1000
0001
1000
0001
,
1000
0100
1000
0100
,
0010
0001
0010
0001
,
0100
0010
0100
0010
,
1000
1000
1000
0000
,
0001
0010
0100
1000
,
0001
0000
0001
0000
,
0001
0000
0001
1000
,
0000
0001
0100
0001
,
0010
0001
1000
0100
,
1000
0010
0100
0010
,
1000
0001
0100
0010
,
0000
0000
0000
0100
,
0010
0100
0010
1000
,
0100
1000
0001
0010
,
0001
0100
0010
0000
,
0000
0000
0000
1000
,
0100
1000
0001
0100
,
0010
0100
0010
1000
,
0001
0100
0001
1000
,
0000
0000
0000
0001
,
1000
0001
0100
0001
,
0010
0001
0100
0010
,
1000
0000
0000
0000
,
0001
0010
0001
0010
,
0001
1000
0100
1000
,
0010
0100
0010
0100
,
0010
1000
0100
1000
,
0001
0000
0000
0000
1000
0000
0000
1000
,
0000
1000
0100
0010
,
0001
0000
1000
0000
0000
1000
0000
0000
,
1000
0010
0100
0001
,
0000
0000
0000
0100
,
0010
0100
0010
1000
,
0100
1000
0001
0010
,
0001
1000
0001
0000
,
0000
1001
0000
0001
,
0100
0001
0010
0001
,
0100
0010
1000
0100
,
1000
0010
0100
0001
,
0000
0000
0000
1000
,
0010
0100
0010
1000
,
0001
0010
0001
1000
,
0100
1000
0100
0010
,
0000
0000
0000
0001
,
0100
0001
0100
0010
,
1000
0010
1000
0100
,
0010
0000
0000
0000
,
0001
0010
0001
0010
,
0001
0100
0010
0100
,
0010
1000
0100
1000
,
0010
1000
0010
1000
,
0001
0100
0001
0100
,
0010
0100
0010
0100
,
0010
1000
0010
1000
,
0001
0100
0001
0010
,
1001
1000
0001
1000
,
0010
0100
0010
0100
,
1001
0001
1000
0001
,
0010
0100
0110
0000
,
1000
0001
1001
0000
,
1000
0010
1000
0001
,
1000
0001
1001
0000
,
1000
0010
0100
0010
,
1000
0001
1001
0000
,
1000
0010
0100
0001
,
1000
0001
1001
0000
,
1000
0100
0010
0001
,
1000
0001
1001
0000
,
1000
0100
0010
0100
,
1000
0001
1001
0000
,
1000
0010
0100
0001
,
1000
0001
1001
0000
,
1000
0001
0010
0100
,
1000
0001
1001
0000
,
1000
0001
0100
0001
,
1000
0001
0010
0000
,
0000
0001
1000
0100
,
0000
0010
0001
1000
,
0000
0010
1000
0001
,
0000
0100
0001
1000
,
0000
0001
0010
0100
,
0000
1000
0100
0010
,
0000
0001
0100
0010
,
2002
0000
0000
0000
,
0000
0000
0000
0000
,
0000
0000
0000
0000
,
0000
0000
0000
0000
,
3003
0000
0000
0000
;

//---------------dance-single - ----------------
#NOTES:
     dance-single:
     :
     Hard:
     13:
     0.638,1.000,0.234,0.295,0.000: // measure 1
1000
0001
0000
1000
0001
0000
0001
0000
,  // measure 2
0010
0100
0000
0010
0100
0000
0100
1000
,  // measure 3
0001
0100
0000
0001
0100
0000
0100
0000
,  // measure 4
0001
1000
0000
0001
1000
0000
1000
0100
,  // measure 5
0010
0001
0001
0000
0100
0100
0000
0001
,  // measure 6
0001
0000
0010
0010
0100
1000
0010
0100
,  // measure 7
0001
1000
1000
0000
0001
0001
0000
0100
,  // measure 8
0100
0000
0010
0010
1000
0001
0000
1001
,  // measure 9
0000
1000
0010
0001
,  // measure 10
0010
1000
0100
0010
,  // measure 11
0100
1000
0010
0001
,  // measure 12
0010
0000
1000
0000
0001
1000
0000
1001
,  // measure 13
0000
0001
0010
1000
,  // measure 14
0010
0001
1000
0100
,  // measure 15
0010
0100
1000
0001
,  // measure 16
1000
0000
0001
0000
1000
0001
0000
1001
,  // measure 17
0000
1000
0010
1000
0100
0001
0100
1000
,  // measure 18
0001
0010
0100
0010
0001
0000
0100
0000
,  // measure 19
0100
0000
0001
0010
1000
0010
0001
0010
,  // measure 20
1000
0100
0010
0001
0010
0100
0000
1001
,  // measure 21
0000
0001
1000
0100
0001
0100
1000
0010
,  // measure 22
0100
0001
0010
0100
0010
0000
0001
0000
,  // measure 23
0001
0000
1000
0010
0001
0010
1000
0100
,  // measure 24
0010
0001
1000
0100
0010
0000
0001
0001
,  // measure 25
1000
0010
0000
0010
1000
0000
1000
0000
,  // measure 26
0100
0010
0000
0010
0100
0000
0100
1000
,  // measure 27
0001
0010
0000
0010
0001
1000
0010
0000
,  // measure 28
1000
0001
0000
0001
1000
0100
0010
0001
,  // measure 29
1000
0010
0010
0000
0100
0100
0000
0001
,  // measure 30
0001
0000
0010
0010
0100
1000
0001
0100
,  // measure 31
0010
1000
1000
0000
0001
0001
0000
1000
,  // measure 32
1000
0100
0010
0001
1000
0010
0000
1001
,  // measure 33
0000
0001
1000
0010
0001
0010
1000
0100
,  // measure 34
1000
0001
0100
0010
0100
0000
0001
0000
,  // measure 35
0001
0000
1000
0010
0001
0010
1000
0100
,  // measure 36
0010
0100
1000
0010
1000
0001
0000
0001
,  // measure 37
0000
0000
1001
0000
0001
0010
1000
0010
,  // measure 38
0001
1000
0100
0010
0100
0000
1000
0000
,  // measure 39
1000
0000
0100
0001
0100
1000
0010
0100
,  // measure 40
0001
0100
0010
1000
1000
0001
0001
1000
,  // measure 41
0100
0000
1000
0001
0100
1000
0100
0001
,  // measure 42
0010
0100
0010
0001
1000
0000
0001
0000
,  // measure 43
0001
0000
1000
0010
0001
0010
1000
0100
,  // measure 44
0010
0100
1000
0001
0100
0001
0000
0001
,  // measure 45
0000
1000
0010
0100
1000
0100
0010
1000
,  // measure 46
0001
0100
0001
0010
0100
0000
1000
0000
,  // measure 47
1000
0000
0001
0100
0010
0001
0010
0100
,  // measure 48
0001
1000
0010
0000
0010
0000
0100
0100
,  // measure 49
0001
0100
1000
0100
0010
1000
0001
0000
,  // measure 50
1000
0010
0001
0010
0100
0001
1000
0000
,  // measure 51
0001
0100
1000
0100
0010
1000
0001
0000
,  // measure 52
1000
0010
0100
0001
0000
0001
0000
1000
,  // measure 53
0001
0010
1000
0010
0100
1000
0001
0000
,  // measure 54
1000
0100
0001
0100
0010
0001
1000
0000
,  // measure 55
0001
0010
1000
0010
0100
1000
0001
0000
,  // measure 56
1000
0010
0100
0001
0000
0001
0000
1000
,  // measure 57
2002
3003
0022
0033
0220
0330
2200
3300
,  // measure 58
2002
3003
2020
3030
0220
0330
0202
0303
,  // measure 59
2002
3003
2200
3300
0220
0330
0022
0033
,  // measure 60
2002
3003
0220
0330
2002
0003
0002
3003
,  // measure 61
1000
0100
0010
0001
1001
0000
1000
0001
,  // measure 62
0200
0000
0301
0000
1000
1000
1000
0000
,  // measure 63
0001
0010
0100
1000
1001
0000
0001
1000
,  // measure 64
0010
1000
0001
0001
0001
0000
0011
0000
,  // measure 65
0100
1000
0010
0100
1001
0000
0001
0100
,  // measure 66
0010
0100
0001
0000
1000
1000
1000
0000
,  // measure 67
0100
0010
0001
1000
1001
0000
0001
0010
,  // measure 68
1000
0010
0001
0100
0010
1000
0100
0000
,  // measure 69
1000
0100
0010
0001
1001
0000
1000
0001
,  // measure 70
0200
0000
0301
0000
1000
1000
1000
0000
,  // measure 71
0100
0010
0001
1000
1001
0000
0001
1000
,  // measure 72
0100
0001
0100
1000
0001
0001
0001
0000
,  // measure 73
0010
0100
1000
0001
1001
0000
1000
0001
,  // measure 74
0100
0001
1000
0000
0100
0100
0100
0000
,  // measure 75
0010
0001
0100
0010
1001
0000
0001
0010
,  // measure 76
1000
0010
0001
0100
0010
0010
0010
0000
,  // measure 77
0200
0001
0000
0301
1000
0100
0010
0001
,  // measure 78
0200
0010
0000
0310
1000
0100
0010
0100
,  // measure 79
2000
0001
0000
3001
0100
0010
1000
0100
,  // measure 80
0020
0001
0000
0031
1000
0010
0001
0010
,  // measure 81
1000
0100
0000
0100
0010
0001
0100
1000
,  // measure 82
0100
0001
0000
0001
1000
0010
0001
0010
,  // measure 83
1000
0100
0000
0100
0010
0001
0100
1000
,  // measure 84
0100
0001
0000
0001
0100
0010
1000
0001
,  // measure 85
2002
0000
0000
0000
,  // measure 86
0000
0000
0000
0000
,  // measure 87
0000
0000
0000
0000
,  // measure 88
0000
0000
0000
0000
,  // measure 89
3003
0000
0000
0000
;

//---------------dance-single - ----------------
#NOTES:
     dance-single:
     :
     Medium:
     10:
     0.481,0.498,0.234,0.128,0.000:
1000
0001
0000
1000
0001
0000
0010
0000
,
0100
0010
0000
0100
0010
0000
0001
0000
,
1000
0100
0000
1000
0100
0000
0010
0000
,
0001
0100
0000
0001
0100
0000
0010
0000
,
1000
0100
1000
0000
0010
0100
0000
0010
,
0100
0000
0001
0100
0010
0000
0100
0010
,
1000
0000
0000
0000
0001
1000
0000
0000
,
0001
0000
0000
0000
1000
0001
0000
1001
,
0000
0000
0001
0000
0100
0010
0000
1000
,
0000
0100
0000
0001
0000
0100
0000
2001
,
0000
0100
0010
0100
,
0001
0000
3100
0000
1000
0001
0000
1001
,
0000
0000
0001
0000
0100
0010
0000
1000
,
0000
0010
0000
0001
0000
0010
0000
1000
,
0000
0100
0000
0010
0000
0001
0000
0022
,
0000
0000
0000
0033
0000
0001
1000
0001
,
0000
0000
0100
0000
0010
1000
0000
0100
,
0000
0001
0000
0100
0000
1000
0000
1002
,
0000
0010
1000
0010
,
1000
0000
0013
0000
0001
1000
0000
1100
,
0000
0000
0010
0001
0100
0010
0000
1000
,
0000
0010
0000
0001
0000
0010
0000
1000
,
0000
0100
0000
0010
0000
0001
0000
2002
,
0000
0000
0000
3003
,
1000
0100
0000
0100
1000
0000
0001
0000
,
1000
0010
0000
0010
1000
0000
0001
0000
,
1000
0001
0000
0001
1000
0000
0100
0000
,
1000
0100
0000
0010
0001
0000
0100
0000
,
0001
1000
0001
0000
1000
0100
0000
1000
,
0100
0000
0010
0001
1000
0000
1000
0000
,
0001
0100
0001
0000
0010
0100
0000
0010
,
0100
0000
1000
0010
0100
0001
0000
1001
,
0000
0000
1000
0100
0010
0001
0000
0100
,
0000
1000
0000
0100
0000
0001
0000
2001
,
0000
0100
0010
0100
,
0001
0000
3100
0000
0000
1100
0000
1001
,
0000
0000
1001
0000
0000
0001
0000
0100
,
0000
1000
0000
0100
0000
0001
0000
0010
,
0000
1000
0000
0010
0000
0001
0000
2002
,
0000
0000
0000
3003
0000
0011
0000
1001
,
0000
0000
1000
0010
1000
0001
0000
0100
,
0000
1000
0000
0100
0000
0001
0000
2001
,
0000
0100
0010
0100
,
0001
0000
3100
0000
1000
0001
0000
1001
,
0000
0000
0001
0100
0001
1000
0000
0010
,
0000
0001
0000
0010
0000
1000
0000
0100
,
0000
0001
0000
0100
0000
1100
0000
2002
,
0000
0000
3003
0001
,
1000
0100
0010
0000
0100
1000
0001
0000
,
0010
0100
1000
0000
0001
0010
0100
0000
,
0010
0001
1000
0000
0010
0100
0001
0000
,
1000
0000
0001
1000
0000
0010
0000
0100
,
0001
1000
0100
0000
0010
0100
1000
0000
,
0001
1000
0010
0000
0100
0010
1000
0000
,
0001
0010
0100
0000
0010
0001
0100
0000
,
0001
0000
1000
0010
0000
0100
0000
0001
,
1001
0100
1001
0100
,
1001
0010
1001
0010
,
1001
0100
1001
0100
,
1001
0000
0010
0000
2002
0000
0000
3003
,
0001
1000
0100
1000
0001
0000
0000
0100
,
0000
0100
0010
0000
1000
0001
0010
0000
,
0001
0010
0100
0010
0001
0000
0000
0100
,
0000
0100
0010
1000
0100
0000
0010
0000
,
0001
1000
0010
1000
0001
0000
0000
0010
,
0000
0010
0100
0000
1000
0001
0100
0000
,
0001
1000
0100
1000
0001
0000
0010
0100
,
0010
0100
1000
0001
1000
0000
1001
0000
,
0001
0100
0010
0100
0001
0000
0000
0200
,
0000
0301
1000
0100
0010
0000
0110
0000
,
0100
0010
0001
0010
0100
0000
1000
0000
,
0001
1000
1000
0000
0001
1000
1000
0000
,
0001
0100
0010
0100
0001
0000
1000
0100
,
0010
0000
0100
1000
0001
0000
1001
0000
,
0001
0100
0010
0100
0001
0000
1000
0100
,
0010
0000
0100
1000
0001
0100
0001
0000
,
1000
0001
0000
0001
1000
0000
0100
0000
,
0010
0001
0000
0001
1000
0000
0010
0000
,
1000
0010
0000
0010
0100
0000
0001
0000
,
1000
0001
0000
0001
0010
0000
0100
0000
,
1000
0001
0000
0001
0100
0000
0010
0000
,
0100
0001
0000
0001
0010
0000
0001
0000
,
0010
0100
0000
0100
1000
0000
0001
0000
,
0100
0010
0000
0010
1000
0000
0001
0000
,
2002
0000
0000
0000
,
0000
0000
0000
0000
,
0000
0000
0000
0000
,
0000
0000
0000
0000
,
3003
0000
0000
0000
;

//---------------dance-single - ----------------
#NOTES:
     dance-single:
     :
     Beginner:
     5:
     0.229,0.317,0.113,0.000,0.000:
0000
0000
0000
0000
,
0000
0000
0000
0000
,
0000
0000
0000
0000
,
0000
0000
0000
0000
,
0000
0000
0000
0000
,
0000
0000
0000
0000
,
0000
0000
0000
0000
,
0000
0000
0000
0000
,
0001
0100
0001
0100
,
0001
0100
0001
0100
,
0001
1000
0100
1000
,
0100
1000
0100
1000
,
0000
0000
0000
0001
,
0100
0001
0100
0001
,
0100
0001
1000
0001
,
1000
0001
1000
0001
,
0000
0000
0000
1000
,
0100
1000
0100
1000
,
0100
1000
0100
1000
,
0001
0100
0001
1000
,
0000
0000
0000
0001
,
0100
0001
0100
0010
,
0100
0001
1000
0001
,
1000
0000
0000
0000
,
0010
0100
0010
0100
,
0001
0010
0100
1000
,
0001
0100
0001
0100
,
0001
0010
0100
1000
,
1001
0000
0000
0000
,
0000
0000
0000
0000
,
0110
0000
0000
0000
,
0000
0000
0000
1001
,
0000
0000
0000
0010
,
0100
0010
0100
0010
,
1000
0100
1000
0001
,
0010
0001
0100
0000
,
0000
1001
1000
0001
,
1000
0010
0100
0001
,
0010
0001
0100
0010
,
1000
0100
1000
0001
,
0000
0000
0000
0100
,
0010
0100
0010
1000
,
0100
1000
0010
1000
,
0001
0100
0010
1000
,
0000
0000
0001
0010
,
0100
1000
0100
0010
,
0100
1000
0001
1000
,
0001
0000
0000
0000
,
1001
0000
0000
0000
,
0110
0000
0000
0000
,
1001
0000
0000
0000
,
0110
0000
0000
0000
,
1001
0000
0000
0000
,
0110
0000
0000
0000
,
1001
0000
0000
0000
,
0110
0000
0000
0000
,
1001
0000
0000
0000
,
0100
0000
0000
0000
,
0010
0000
0000
0000
,
0100
0000
0000
0000
,
1001
1000
0001
0000
,
0100
0010
0100
0010
,
1000
0001
1000
0000
,
0010
0100
0010
0100
,
0001
1000
0001
0000
,
0010
0100
0010
0100
,
1000
0001
1000
0000
,
0001
0100
0001
0000
,
1000
0010
1000
0000
,
0001
1000
0001
1000
,
0100
0010
0100
0000
,
1000
0001
1000
0001
,
1000
0100
1000
0000
,
0001
0010
0001
0000
,
1000
0010
1000
0000
,
0001
0100
0001
1000
,
0001
0000
0000
0000
,
0010
0000
0000
0000
,
0100
0000
0000
0000
,
1000
0000
0000
0000
,
0001
0000
0000
0000
,
1000
0000
0000
0000
,
0001
0000
0000
0000
,
0100
0000
0000
0000
,
1001
0000
0000
0000
;
