#TITLE:BEAT-NEW-WORLD;
#SUBTITLE:;
#ARTIST:ビートまりお(COOL&CREATE);
#TITLETRANSLIT:;
#SUBTITLETRANSLIT:;
#ARTISTTRANSLIT:beatMARIO(COOL&CREATE);
#CREDIT:DigiMindAxel;
#BANNER:BEAT-NEW-WORLD.png;
#BACKGROUND:BEAT-NEW-WORLD-bg.png;
#LYRICSPATH:;
#CDTITLE:Konami original REMIX.png;
#MUSIC:BEAT-NEW-WORLD.ogg;
#METERTYPE:DDR X;
#OFFSET:-7.635;
#SAMPLESTART:53.771;
#SAMPLELENGTH:12.000;
#SELECTABLE:YES;
#BPMS:0.000=190.000;
#STOPS:;
#BGCHANGES:;

//---------------dance-single - ----------------
#NOTES:
     dance-single:
     :
     Easy:
     6:
     0.264,0.286,0.008,0.109,0.000:
1000
0000
0001
0000
,
1000
0000
0001
0000
,
0010
0000
0000
0000
0100
0000
0000
0020
,
0000
0000
0000
0000
,
0031
0100
0001
0000
,
1000
0100
1000
0000
,
0001
1000
0001
0000
,
1000
0100
1000
0000
,
0010
0100
0010
0000
,
0100
0001
0100
0000
,
0001
0000
1000
0000
,
0001
0010
0100
1000
,
0010
0100
0010
0000
,
1000
0010
1000
0000
,
0001
1000
0001
0000
,
0010
0001
0010
0000
,
0001
1000
0001
0000
,
1000
0100
1000
0000
,
0010
0000
0100
0000
,
0002
0000
0000
0000
,
1003
0000
0100
0000
,
1000
0000
0001
0000
,
1000
0000
0000
0000
,
0000
0000
0000
0000
,
0001
0000
0100
0000
,
0001
0000
1000
0000
,
0001
0000
0000
0000
,
0000
0000
0000
0000
,
0010
0000
0100
0000
,
0010
0000
0100
0000
,
1000
0000
0010
0000
,
1000
0000
1000
0000
,
0001
0000
0100
0000
,
0001
0000
0100
0000
,
0010
0000
0010
0000
,
0020
0000
0000
0000
,
0030
0000
0000
0000
,
1000
0000
0001
1000
,
0001
0000
1000
0100
,
1000
0000
0001
0000
,
0100
0000
0000
0000
,
0010
0000
0100
0010
,
0100
0000
0001
0000
,
0010
0000
0100
1000
,
0100
0000
0010
0000
,
0001
0000
0100
0010
,
0100
0000
0001
0100
,
0001
0000
1000
0000
,
0100
0000
0000
0000
,
0010
0000
0100
1000
,
0100
0000
0010
0000
,
0001
0000
0100
0010
,
0200
0000
0000
0000
,
0301
1000
0001
0000
,
1000
0100
1000
0000
,
0001
1000
0001
0000
,
1000
0100
1000
0000
,
0020
0000
0230
0000
,
0302
0000
1003
0100
,
0010
0000
0001
0000
,
0010
0000
0001
0000
,
0100
0010
0100
0000
,
0001
0100
0001
0000
,
1000
0100
1000
0000
,
0001
1000
0001
0000
,
2000
0000
3020
0000
,
0230
0000
0302
0000
,
1003
0000
0001
0100
,
0001
0000
0000
0000
,
1000
0001
1000
0000
,
0100
1000
0010
0010
,
0100
0010
0100
0000
,
0001
0100
0001
0001
,
1000
0100
1000
0000
,
0010
0100
0010
0010
,
1000
0000
0001
0100
,
0001
0010
0100
0000
,
1000
0010
1000
0000
,
0010
0100
0010
0100
,
0001
0100
0001
0000
,
1000
0100
1000
0000
,
0001
1000
0001
0100
,
0010
0100
0010
1000
,
0100
0000
0000
0010
0000
0000
0000
2002
,
0000
0000
0000
0000
,
3003
0000
0000
0000
;

//---------------dance-single - ----------------
#NOTES:
     dance-single:
     :
     Medium:
     10:
     0.545,0.536,0.336,0.126,0.013: // measure 1
1100
0100
0010
0001
,  // measure 2
1010
0010
1000
0001
,  // measure 3
0010
0000
0100
0000
1000
0000
0000
1001
,  // measure 4
0000
0000
0001
1000
0001
1000
0001
0000
,  // measure 5
0010
0001
0010
0000
0100
0010
0100
0000
,  // measure 6
1000
0100
1000
0000
0010
0100
0001
0000
,  // measure 7
1000
0100
1000
0000
0100
0010
0100
0000
,  // measure 8
0010
0001
0010
0000
0001
0100
0010
0000
,  // measure 9
1000
0001
1000
0000
0001
0100
0001
0000
,  // measure 10
1000
0010
1000
0000
0001
0010
0100
0000
,  // measure 11
1000
0100
1000
0000
0001
0100
0001
0000
,  // measure 12
1001
0000
0000
1001
0000
0000
1001
0000
,  // measure 13
0010
0100
0010
0000
1000
0010
1000
0000
,  // measure 14
0001
0010
0001
0000
0100
0010
1000
0000
,  // measure 15
0010
0100
0010
0000
1000
0010
1000
0000
,  // measure 16
0001
0010
0001
0000
1000
0100
0010
0000
,  // measure 17
0100
1000
0100
0000
0010
0100
0010
0000
,  // measure 18
0001
0010
0001
0000
0100
0010
1000
0000
,  // measure 19
1001
0000
0110
0100
,  // measure 20
2002
0000
0000
3003
,  // measure 21
0002
0000
0000
0000
0013
0000
0100
1000
,  // measure 22
0200
0000
0000
1300
0000
0010
0100
0000
,  // measure 23
0002
1000
1000
1000
,  // measure 24
1000
0000
0000
0000
1003
0000
0001
0100
,  // measure 25
0002
0000
0000
0000
1003
0000
0100
1000
,  // measure 26
0200
0000
0000
0310
0000
0001
0100
0000
,  // measure 27
0020
0100
0100
0100
,  // measure 28
0130
0000
0000
0000
,  // measure 29
1001
0000
0000
0001
0001
0000
0010
0000
,  // measure 30
0100
0000
0000
1100
0000
0000
0010
0000
,  // measure 31
0100
0000
0000
1000
1000
0000
0010
0000
,  // measure 32
0100
0001
0100
0000
0001
1000
0001
0000
,  // measure 33
1001
0000
0000
1000
1000
0000
0100
0000
,  // measure 34
0010
0000
0000
0011
0000
0000
0100
0000
,  // measure 35
2000
0000
0000
3020
0000
0000
0130
0000
,  // measure 36
2002
0000
0000
0000
,  // measure 37
3003
0000
0001
0010
,  // measure 38
0200
0000
0000
0310
0000
0001
0100
0000
,  // measure 39
0010
0000
1000
0100
0000
1000
0010
0100
,  // measure 40
0010
0000
0100
0000
0001
0010
0000
0200
,  // measure 41
0000
0010
0010
0310
,  // measure 42
1001
0000
0100
1000
0100
0000
0010
0100
,  // measure 43
0010
0001
0100
0010
,  // measure 44
1010
0000
0000
0000
1000
0000
0000
0000
0001
0000
0000
1000
0000
0000
0100
0000
,  // measure 45
0010
0000
0001
1000
0000
1000
0010
0000
,  // measure 46
1010
0000
0100
0000
0001
0010
0100
0000
,  // measure 47
1100
0000
0010
0000
0001
0100
0010
0000
,  // measure 48
0110
0000
1010
0000
0010
0100
0000
0001
,  // measure 49
0000
0100
0010
0100
0010
0100
0001
0000
,  // measure 50
1001
0000
0000
1000
1000
0000
0100
0000
,  // measure 51
0010
0011
0100
1000
,  // measure 52
1010
0000
0000
0000
0000
0000
0000
0000
0010
0000
0000
0010
0000
0000
0100
0000
,  // measure 53
0001
0000
0000
1001
0000
0000
1000
0000
,  // measure 54
0100
1000
0100
1000
0010
0000
0100
0000
,  // measure 55
0001
0100
0001
0100
0010
0000
1000
0000
,  // measure 56
0100
0000
0010
0100
0000
1000
0010
1000
,  // measure 57
0000
0010
0100
0000
0001
0000
0000
0000
,  // measure 58
1001
0000
0000
0001
0001
0000
0010
0000
,  // measure 59
0100
1100
0010
0001
,  // measure 60
0101
0100
0010
1000
,  // measure 61
1001
1001
0110
0110
,  // measure 62
0100
0001
0100
0000
0010
0100
0010
0000
,  // measure 63
1000
0010
1000
0000
0010
0100
0001
0000
,  // measure 64
1000
0100
1000
0000
0100
0010
0100
0000
,  // measure 65
0010
0001
0010
0100
1000
0000
0000
0000
,  // measure 66
1010
0000
0000
0010
0010
0000
0100
0000
,  // measure 67
0101
1010
0010
1000
,  // measure 68
1100
0000
0000
0000
0000
0000
0000
0000
0010
0000
0000
0010
0000
0000
0001
0000
,  // measure 69
1000
0000
0000
0000
,  // measure 70
0100
1000
0010
0000
0100
0010
0100
0000
,  // measure 71
0010
0100
0001
0000
1000
0001
1000
0001
,  // measure 72
1000
0100
0010
0000
0100
0010
0100
0000
,  // measure 73
0010
0001
0100
0000
0010
0100
0010
0000
,  // measure 74
0100
0001
0100
0001
0100
0001
1000
0000
,  // measure 75
0100
1000
0100
1000
0100
1000
0010
0000
,  // measure 76
0100
0001
0010
0000
0100
1000
0010
0000
,  // measure 77
1001
0000
0000
1001
0000
0000
1001
0000
,  // measure 78
0001
0100
0001
0100
0010
0000
1000
0000
,  // measure 79
0100
0010
0100
0010
0001
0010
0001
0000
,  // measure 80
0010
0100
1000
0000
0001
0100
0010
0000
,  // measure 81
0100
0010
1000
0000
0100
0000
0011
0000
,  // measure 82
0001
1000
0100
0000
0010
0001
1000
0000
,  // measure 83
0010
0100
0001
0100
0010
0100
0001
0000
,  // measure 84
0101
0000
0001
1000
0000
0100
1000
0020
,  // measure 85
0000
0000
0000
0000
,  // measure 86
0030
0000
0000
0000
;

//---------------dance-single - ----------------
#NOTES:
     dance-single:
     :
     Hard:
     14:
     0.714,0.715,0.177,0.269,0.198: // measure 1
0100
1000
0010
0000
0010
0100
0001
0000
,  // measure 2
0001
1000
0100
0000
0010
0001
0010
0001
,  // measure 3
1000
0010
0100
0000
0100
0001
0010
0200
,  // measure 4
0000
0000
1300
0001
0100
0001
1000
0001
,  // measure 5
1000
0100
0010
0000
0010
0001
1000
0000
,  // measure 6
1000
0100
0010
0000
0010
0001
0100
0010
,  // measure 7
1000
0100
0010
0000
0010
0001
1000
0010
,  // measure 8
1000
0100
0010
0000
0001
0001
1001
0000
,  // measure 9
1000
0010
0100
0000
0100
0001
1000
0000
,  // measure 10
1000
0010
0100
0000
0100
0001
1000
0100
,  // measure 11
1000
0010
0100
0000
0100
0001
0010
0000
,  // measure 12
0001
0000
0000
0100
0000
0000
0010
0000
1000
0000
0001
0000
0010
0000
0000
0000
,  // measure 13
0100
0000
1000
0001
1000
0000
0100
0000
0010
0000
0001
1000
0001
0000
0010
0000
,  // measure 14
0100
0000
1000
0001
1000
0000
0010
0000
0100
0000
0001
0000
0010
0000
0100
0000
,  // measure 15
1000
0000
0010
0100
0010
0000
1000
0000
0100
0000
0010
0100
0010
0000
0001
0000
,  // measure 16
0100
0000
0010
0100
0010
0000
0000
0000
1000
0000
1000
0000
1001
0000
0000
0000
,  // measure 17
0001
0000
0100
0010
0100
0000
0001
0000
0010
0000
0100
0010
0100
0000
1000
0000
,  // measure 18
0010
0000
0100
0010
0100
0000
0001
0000
1000
0000
0100
0000
0001
0000
0100
0000
,  // measure 19
1000
0000
0000
1000
0000
0000
0001
0000
0010
0000
0100
0000
1000
0000
0001
0000
,  // measure 20
0020
0100
0100
0130
,  // measure 21
1002
0000
0000
0000
1003
0000
0001
0010
,  // measure 22
0200
0000
0000
0310
0000
0001
1000
0100
,  // measure 23
2000
0001
0100
0001
,  // measure 24
3100
0000
0010
0001
0000
0100
0010
1000
,  // measure 25
0200
0000
0000
0000
1300
0000
0010
0001
,  // measure 26
0200
0000
0000
0310
0000
1000
0100
0010
,  // measure 27
0002
1000
0100
1000
,  // measure 28
0103
0000
0000
0100
0000
0000
0001
0000
0010
0000
0100
0000
0010
0000
0000
0000
,  // measure 29
1001
0000
0000
0001
0000
0000
0001
0000
0100
0000
0000
0010
0000
0000
1000
0000
,  // measure 30
0100
0000
0000
0100
0000
0000
0010
0000
0001
0000
0100
0000
0010
0000
0000
0000
,  // measure 31
0100
0000
0000
0100
0000
0000
0010
0000
1000
0000
0001
0000
0010
0000
0000
0000
,  // measure 32
0001
0010
1000
0010
0001
0100
1000
0100
,  // measure 33
0001
0000
0000
0001
0000
0000
0010
0000
0100
0000
0000
1000
0000
0000
0001
0000
,  // measure 34
0100
0000
0000
0100
0000
0000
0010
0000
1000
0000
0000
0000
0100
0000
0010
0000
,  // measure 35
0002
0000
0000
2003
0000
0000
3010
0000
,  // measure 36
2001
0000
0000
0001
0000
0000
0001
0000
,  // measure 37
3001
0000
0100
0010
,  // measure 38
1001
0000
1000
0100
0000
0001
0100
1000
,  // measure 39
0001
0000
1000
0010
0000
0001
0010
1000
,  // measure 40
0001
0010
0001
1000
0100
0010
0000
0002
,  // measure 41
0000
0100
0100
0000
0100
0000
0103
0001
,  // measure 42
1000
0000
0001
1000
0100
0001
1000
0100
,  // measure 43
0010
2000
3002
0023
,  // measure 44
0230
0000
0000
0000
0000
0000
0000
0000
1300
0000
0000
0001
0000
0000
0010
0000
,  // measure 45
0200
0000
0000
0310
0000
0001
0100
0001
,  // measure 46
1000
0000
0001
1000
0100
0001
0100
1000
,  // measure 47
0001
0000
1000
0001
0010
1000
0010
0001
,  // measure 48
2000
0000
3200
0000
0310
0100
0000
2000
,  // measure 49
0000
0010
0010
0000
0010
0000
3010
0000
,  // measure 50
0200
0000
0000
0000
0000
0000
0301
1000
0001
0000
0000
0100
0000
0000
0010
0000
,  // measure 51
1000
0000
0100
0010
0001
0010
0100
0000
,  // measure 52
2200
0000
0000
0000
3300
0000
0000
0000
1001
0000
0000
0001
0000
0000
0010
0000
,  // measure 53
0100
0000
0000
1001
0000
0000
0001
0100
,  // measure 54
0001
0010
1000
0010
0000
0001
0100
0010
,  // measure 55
1000
0100
0001
0100
0000
1000
0100
0010
,  // measure 56
0001
0100
1000
0100
0000
0001
0010
0100
,  // measure 57
0000
1000
0100
0001
0100
1000
0001
0000
,  // measure 58
1002
0000
0000
0000
0000
0000
0013
0100
0010
0000
0000
0001
0000
0000
0010
0000
,  // measure 59
0100
0020
0032
0203
,  // measure 60
0301
1000
0001
1000
0100
0010
0100
0010
,  // measure 61
0011
1100
0011
1100
,  // measure 62
0100
0000
1000
0001
1000
0000
0100
0000
0010
0000
0001
1000
0001
0000
0100
0000
,  // measure 63
0010
0000
1000
0001
1000
0000
0010
0000
1000
0000
0100
0000
0001
0000
0100
0000
,  // measure 64
1000
0000
0010
0100
0010
0000
1000
0000
0100
0000
0010
0100
0010
0000
0001
0000
,  // measure 65
1000
0010
0001
0010
1000
0000
0010
0000
,  // measure 66
0210
0000
0000
0000
0000
0000
0310
1000
0010
0000
0000
0100
0000
0000
0001
0000
,  // measure 67
1000
0000
0100
1000
0100
0010
0100
1000
,  // measure 68
0200
0000
0000
0000
0000
0000
0000
0000
0310
0000
0000
0001
0000
0000
1000
0000
,  // measure 69
0020
0100
0100
0130
,  // measure 70
0001
0100
1000
0100
0001
0010
1000
0010
,  // measure 71
0001
0000
0100
0000
0010
0000
0100
0000
0001
1000
0001
0000
1000
0001
1000
0000
,  // measure 72
0100
0010
0001
0001
1000
0010
0100
0100
,  // measure 73
0001
1000
0000
0001
1000
0000
0001
0000
0010
0000
0010
0000
0110
0000
0000
0000
,  // measure 74
1000
0100
0001
0100
1000
0010
0001
0010
,  // measure 75
1000
0000
0001
0000
0100
0000
0001
0000
1000
0100
1000
0000
0001
0010
0001
0000
,  // measure 76
1000
0000
0100
0000
0001
0000
0100
0000
1000
0010
0000
0100
0000
0000
0000
0000
,  // measure 77
1001
0000
0000
0001
0000
0000
0001
0000
0100
0000
0000
0000
1001
0000
0000
0000
,  // measure 78
1000
0010
0001
0010
0100
0001
1000
0100
,  // measure 79
0010
0001
0010
0000
0100
0010
0100
0000
1000
0100
1000
0000
0010
0000
0100
0000
,  // measure 80
0001
0100
1000
0100
0001
0010
0100
1000
,  // measure 81
0001
0100
1000
0100
0001
0001
1001
0000
,  // measure 82
0010
0100
1000
0010
0001
0010
1000
0100
,  // measure 83
0010
0000
0001
1000
0000
0001
1000
0000
0010
0000
0010
0000
0110
0000
0000
0000
,  // measure 84
0100
0001
0010
0100
0000
0010
0100
2002
,  // measure 85
0000
0000
0000
0000
,  // measure 86
3003
0000
0000
0000
;

//---------------dance-single - ----------------
#NOTES:
     dance-single:
     :
     Challenge:
     17:
     0.973,1.000,0.866,0.135,0.576:
1000
0100
0001
0100
1000
0010
0001
0010
,
1000
0100
0001
0100
1000
0001
0010
0100
,
1000
0010
0001
0010
1000
0100
0001
0200
,
0000
0000
1300
1000
0010
0010
0100
0100
,
0001
0000
0010
0100
1000
0000
1000
0000
0001
0000
0100
0010
1000
0000
1000
0000
,
0001
0000
0010
0100
1000
0000
1000
0000
0010
0000
0001
0000
0010
0000
1000
0000
,
0001
0000
0100
0010
1000
0000
1000
0000
0001
0000
0010
0100
1000
0000
1000
0000
,
0001
0000
0100
0010
1000
0000
1000
0000
1010
0000
0010
0000
0110
0000
0000
0000
,
1000
0000
0100
0010
0001
0000
0001
0000
1000
0000
0010
0100
0001
0000
0001
0000
,
1000
0000
0100
0010
0001
0000
0001
0000
0100
0000
1000
0000
0100
0000
0001
0000
,
1000
0000
0010
0100
0001
0000
0001
0000
1000
0000
0100
0010
0001
0000
0001
0000
,
0101
0000
0000
0110
0000
0000
1010
0000
1001
0000
0001
0000
0011
0000
0000
0000
,
0001
0000
0010
0100
0010
0100
0000
1000
0000
0010
0100
0010
0100
0000
0001
0000
,
0100
0000
0010
1000
0001
0000
0001
0000
1100
0000
0001
0000
1100
0000
0001
0000
,
1000
0000
0100
0010
0100
0010
0000
0001
0000
0100
0010
0100
0010
0000
1000
0000
,
0001
0000
1000
0100
0010
0000
0010
0000
1001
0000
1000
0000
1001
0000
0000
0000
,
1000
0000
0010
0100
0010
0100
0000
0001
0000
0010
0100
0010
0100
0000
1000
0000
,
0010
0000
0100
0001
1000
0000
1000
0000
0101
0000
1000
0000
0101
0000
1000
0000
,
1100
0000
0000
1100
0000
0000
1001
0000
0001
0000
0010
0000
0100
0000
1000
0000
,
0001
0100
0010
0100
0001
0100
0010
0100
,
1001
0000
0100
0000
0101
0000
0001
1000
,
1100
0000
0010
0011
0000
0001
0100
0010
,
1001
0000
0000
0000
1000
0000
0000
1000
0010
0000
0000
0010
0100
0000
0000
0100
,
0002
0000
0013
0110
0000
1100
0100
0010
,
1001
0000
1000
0000
1100
0000
0010
0001
,
0101
0000
0010
1010
0000
0100
0010
0001
,
1001
0000
0000
0000
0001
0000
0010
0000
0100
0000
1000
0000
0001
0000
0100
0001
,
1000
0000
0000
1000
0000
0000
1000
0000
0100
0000
0010
0000
0100
0000
0000
0000
,
1001
0000
0000
1000
0000
0000
0100
1000
0010
0000
0000
0010
0000
0000
0100
0000
,
0101
0000
0000
0001
0000
0000
0010
0100
1000
0000
0010
0000
0100
0000
0000
0000
,
0110
0000
0000
0010
0000
0000
0100
0001
1000
0000
0100
0000
0011
0000
0000
0000
,
0001
0001
0100
0100
0010
0010
1000
1000
,
1001
0000
0000
0001
0000
0000
0010
0100
1000
0000
0000
1000
0000
0000
0010
0000
,
0110
0000
0000
0100
0000
0000
0100
0001
1000
0000
0100
0000
0010
0000
0100
0000
,
2020
0000
0030
0002
0000
3000
0203
0000
,
0320
0000
0000
1000
0000
0000
1000
0000
,
1030
0000
0000
0000
0000
0000
0000
0000
0010
0000
0000
0010
0100
0000
0001
0000
,
1000
0100
1000
1002
0000
0013
0100
1000
,
0001
0000
0100
0000
0001
0000
2001
0000
0000
0000
3010
0100
0010
0000
1000
0000
,
0101
1000
0101
1000
0010
0110
0000
0101
,
0000
0000
0001
1000
0100
0000
1000
0000
0001
0000
0010
0100
0010
0000
0001
0000
,
1000
0000
0010
0000
1000
0000
0001
0010
0100
0000
1000
0000
0010
0000
0001
0000
,
0010
0000
1000
0000
0101
0000
1000
0000
0101
0000
1000
0010
1000
0000
0100
0000
,
0010
0000
0100
0000
1000
0000
0000
0000
1100
0000
0000
0110
0000
0000
0011
0000
,
1001
0000
1000
0000
0000
0000
0110
0000
0000
0000
0010
0100
0010
0000
0100
0000
,
0001
0010
0001
1001
0000
1000
0100
0001
,
0100
0000
1000
0000
0010
0000
0110
0000
0000
0000
0100
0010
0100
0000
0001
0000
,
1100
0001
1100
0001
0010
0110
0000
1100
,
0000
0000
1000
0001
0100
0000
0010
0000
1000
0000
0100
0010
0100
0000
1000
0000
,
0001
0000
0010
0000
0100
0000
1000
0010
0100
0000
0000
0110
0000
0000
0101
0000
,
1001
0000
0100
0010
0001
1000
0010
1000
,
0001
0000
0010
0000
0001
0000
0000
0000
0011
0000
0000
0110
0000
0000
1100
0000
,
2002
0000
3003
0220
0000
0330
0010
0100
,
1001
0010
0100
1000
0100
0001
0100
1000
,
1001
0000
0010
0000
0100
0000
1000
0000
0001
0000
0100
0010
0100
0000
0001
0000
,
1001
0010
0100
1100
0000
0010
0001
1001
,
0000
0000
1010
0000
0010
0000
0100
0000
0001
0000
1000
0100
1000
0000
0001
0000
,
0100
0000
0001
0000
1000
0000
0100
0010
0001
0000
0000
0101
0000
0000
0110
0000
,
1010
0000
0000
0000
1000
0000
0100
0000
0010
0000
0001
0100
0001
0000
1000
0000
,
1010
0010
0100
0001
1001
1000
0100
0010
,
0011
0001
1001
1000
1100
0100
0110
0010
,
0001
0000
0100
0001
1000
0000
1000
0000
0100
0000
0010
0001
1000
0000
1000
0000
,
0010
0000
0100
0001
1000
0000
1000
0000
0110
0000
0001
0000
0110
0000
1000
0000
,
0001
0000
0010
0100
1000
0000
1000
0000
0001
0000
0100
0010
1000
0000
0100
0010
,
0100
0000
0010
0000
0101
0000
0010
0000
1100
0000
0010
0100
0010
0000
0001
0000
,
1001
0000
1000
0000
0010
0000
1000
0100
0010
0000
0000
0011
0000
0000
0110
0000
,
1100
0000
0100
0010
0001
1000
0010
1000
,
1001
0000
0001
0000
0100
0000
0000
0000
1010
0000
0000
0110
0000
0000
0101
0000
,
1002
0000
0000
0000
1000
0000
0000
0000
1000
0000
0000
0000
1003
0100
1000
0100
,
1000
0000
0001
0100
0010
0000
0100
0000
0001
0100
0010
0000
1000
0000
0100
0010
,
0001
0000
1000
0000
0100
0010
0001
1000
0001
1000
0100
1000
0100
1000
0001
1000
,
0001
0000
0100
0010
1000
0000
0001
0000
0100
0010
1000
0000
0001
0000
0010
0100
,
0010
0100
0000
1000
0010
0000
0100
0000
0101
0000
0001
0000
1001
0000
0000
0000
,
1000
0000
0010
1000
0000
0010
0100
0000
0010
1000
0000
0010
0100
0000
0001
0010
,
0000
0100
0010
0000
0001
0010
0000
0100
0010
0001
0010
0001
0100
0010
1000
0000
,
0001
0100
0001
0000
1000
0100
1000
0000
0001
0010
0000
0100
0000
1000
0010
0000
,
0101
0000
0000
0101
0000
0000
0101
0000
1001
0000
0000
0000
1001
0000
0000
0000
,
1000
0000
0100
1000
0010
0100
0010
1000
0100
0000
0010
0001
0100
0010
0100
0000
,
0010
1000
0010
1000
0100
0010
0100
0010
0001
0100
0001
0100
0010
1000
0100
1000
,
0100
0000
0010
0001
1000
0000
0010
1000
0000
0001
0100
0010
0100
0000
0001
0000
,
1000
0000
0100
0010
0001
0000
0001
0000
0100
0000
0010
1000
0100
0000
0100
0000
,
0010
0000
0001
0100
0001
0010
0100
0010
0001
0000
1000
0010
0100
0010
1000
0100
,
1000
0000
0100
0010
0000
0100
0010
0000
1001
0000
1000
0000
1100
0000
0000
0000
,
1001
0001
0100
0110
0000
1010
0010
2002
,
0000
0000
0000
0000
,
3003
0000
0000
0000
;

//---------------dance-single - ----------------
#NOTES:
     dance-single:
     :
     Beginner:
     3:
     0.145,0.212,0.050,0.000,0.000:
1000
0000
0000
0000
,
0001
0000
0000
0000
,
1000
0000
0001
0000
,
0000
0000
0000
0000
,
0010
0000
0010
0000
,
0010
0000
0000
0000
,
0100
0000
0100
0000
,
0100
0000
0000
0000
,
0010
0000
0010
0000
,
0010
0000
0000
0000
,
0100
0000
0100
0000
,
0100
0000
0000
0000
,
1000
0000
1000
0000
,
1000
0000
0000
0000
,
0001
0000
0001
0000
,
0001
0000
0000
0000
,
0010
0000
0100
0000
,
0010
0000
0000
0000
,
0100
0000
1000
0000
,
0100
0000
0000
0000
,
1001
0000
0000
0000
,
1000
0000
0000
0000
,
0001
0000
0000
0000
,
0000
0000
0000
0000
,
0010
0000
0000
0000
,
0100
0000
0000
0000
,
1000
0000
0000
0000
,
0000
0000
0000
0000
,
0001
0000
0100
0000
,
0010
0000
0000
0000
,
0100
0000
0010
0000
,
1000
0000
0000
0000
,
0001
0000
0100
0000
,
0010
0000
0000
0000
,
0010
0000
0000
0000
,
1001
0000
0000
0000
,
0000
0000
0000
0000
,
1000
0000
0100
0000
,
1000
0000
0100
0000
,
1000
0000
0000
0000
,
0000
0000
0000
0000
,
0001
0000
0010
0000
,
0001
0000
0010
0000
,
0001
0000
0000
0000
,
1001
0000
0000
0000
,
1000
0000
0010
0000
,
1000
0000
0010
0000
,
1000
0000
0000
0000
,
0000
0000
0000
0000
,
0001
0000
0100
0000
,
0001
0000
0100
0000
,
0001
0000
0000
0000
,
1001
0000
0000
0000
,
1000
0000
0000
0000
,
0100
0000
0000
0000
,
0010
0000
0000
0000
,
0001
0000
0000
0000
,
1000
0000
0000
0000
,
0010
0000
0000
0000
,
0100
0000
0000
0000
,
0001
0000
0000
0000
,
1000
0000
1000
0000
,
1000
0000
0000
0000
,
0001
0000
0001
0000
,
0001
0000
0000
0000
,
0010
0000
0100
0000
,
0010
0000
0000
0000
,
0100
0000
1000
0000
,
0100
0000
0000
0000
,
1000
0000
0010
0000
,
0100
0000
0001
0000
,
1000
0000
0010
0000
,
0100
0000
0000
0000
,
0001
0000
0010
0000
,
0100
0000
1000
0000
,
0001
0000
0010
0000
,
0100
0000
0000
0000
,
1000
0000
0010
0000
,
0100
0000
0100
0000
,
0001
0000
0010
0000
,
0100
0000
0100
0000
,
1000
0000
0001
0000
,
0010
0000
0100
0000
,
1001
0000
0000
0000
0000
0000
0000
1001
;
