#TITLE:Axeria;
#SUBTITLE:;
#ARTIST:AcuticNotes;
#TITLETRANSLIT:;
#SUBTITLETRANSLIT:;
#ARTISTTRANSLIT:;
#CREDIT:DigiMindAxel;
#BANNER:Axeria.png;
#BACKGROUND:Axeria-bg.png;
#LYRICSPATH:;
#CDTITLE:maimai.png;
#MUSIC:Axeria.ogg;
#METERTYPE:DDR X;
#OFFSET:-0.240;
#SAMPLESTART:70.528;
#SAMPLELENGTH:12.000;
#SELECTABLE:YES;
#BPMS:0.000=193.000,220.000=96.500,224.000=193.000;
#DISPLAYBPM:193;
#STOPS:256.500=0.155440
,257.000=0.155440
,257.500=0.155440
,258.000=0.155440
,258.500=0.155440
;
#BGCHANGES:-2.000=Axeria.avi=1.000=1=1=0,
99999=-nosongbg-=1.000=0=0=0 // don't automatically add -songbackground-
;

//---------------dance-single - ----------------
#NOTES:
     dance-single:
     :
     Easy:
     5:
     0.234,0.299,0.103,0.094,0.000:
0000
0000
0000
0000
,
0000
0000
0000
0000
,
0000
0000
0000
0000
,
0000
0000
0000
0000
,
0000
0000
0000
0000
,
0000
0000
0000
0000
,
0000
0000
0000
0000
,
0000
0000
0000
0000
,
1001
0000
1000
0000
,
0001
0000
0010
0000
,
0001
0000
1000
0000
,
0010
0000
0100
0000
,
0001
0000
1000
0000
,
0100
0000
0010
0000
,
0002
0000
0000
0000
,
0000
0000
0003
0000
,
1000
0001
1000
0000
,
1001
0000
0001
0000
,
1000
0100
0010
0001
,
1000
0000
1000
0000
,
0001
0100
0001
0000
,
1000
0000
1000
0000
,
0001
0010
0100
1000
,
0010
0000
0010
0000
,
0100
0000
0100
0000
,
0001
1000
0001
0000
,
1000
0010
0100
0001
,
1000
0000
1000
0000
,
0100
0000
0010
0000
,
0001
0100
0001
0000
,
0100
0010
1000
0100
,
0010
0000
0010
0000
,
0001
0000
0000
0000
,
1001
0000
1000
0000
,
0000
1000
0000
0000
,
1001
0000
0001
0000
,
0001
0000
0000
0000
,
0110
0000
0100
0000
,
0100
0000
0000
0000
,
0110
0000
0010
0000
,
0010
0000
0000
0000
,
1001
0000
1000
0000
,
0001
0010
0001
0000
,
1001
0000
1000
0000
,
0100
1000
0100
0000
,
1001
0000
0001
0000
,
0100
0001
0100
0000
,
1001
0000
1000
0000
,
0010
1000
0010
0000
,
0200
0000
0000
0000
,
0320
0000
0000
0000
,
2030
0000
0000
0000
,
3002
0000
0000
0000
,
0023
0000
0000
0000
,
0230
0000
0000
0000
,
0300
0000
0000
0000
,
1001
0000
1000
0000
,
0001
0010
0100
1000
,
0001
0000
0100
0000
,
0010
0100
0001
0010
,
0100
0000
0010
0000
,
0001
1000
0010
0100
,
0001
0000
1000
0000
,
0100
1000
0010
0100
,
0002
0000
0000
1003
,
0000
0000
0000
0100
0000
1000
0000
0100
,
0000
1000
0000
0010
0000
0100
0000
0001
,
0000
0000
0000
0010
0000
0000
0000
0100
,
0000
0000
0000
1000
0000
0010
0000
0100
,
0000
0001
0000
2000
0000
0000
0000
0000
,
0000
0000
0000
0000
,
0000
3000
0000
0001
0000
0000
0000
1000
,
0000
0000
0000
0100
0000
0000
0000
1000
,
0000
0000
0000
0010
0000
0000
0000
0100
,
0000
0000
0000
0010
0000
0000
0000
0100
,
0000
0000
0000
0001
0000
0000
0000
1000
,
0000
0000
0000
0001
0000
0000
0000
1000
,
0000
0000
0000
0010
0000
0000
0000
0100
,
0000
0000
0000
0001
0000
0000
0000
0000
,
0000
0000
0000
1000
0000
0000
0000
0100
,
0000
0000
0000
0010
0000
0100
0000
1000
,
0000
0000
0000
0001
0000
0000
0000
0100
,
0000
0000
0000
0010
0000
0100
0000
0001
,
0000
0000
0000
1000
0000
0100
0000
0010
,
0000
0000
0000
0001
0000
0010
0000
0100
,
0000
0000
0000
2002
0000
0000
0000
0000
,
0000
0000
0000
0000
,
0000
3003
0000
0000
0000
0000
0000
0000
;

//---------------dance-single - ----------------
#NOTES:
     dance-single:
     :
     Medium:
     9:
     0.485,0.560,0.497,0.137,0.000: // measure 1
0000
0000
0000
0000
,  // measure 2
0000
0000
0000
0000
,  // measure 3
0000
0000
0000
0000
,  // measure 4
0000
0000
0000
0000
,  // measure 5
0000
0000
0000
0000
,  // measure 6
0000
0000
0000
0000
,  // measure 7
0000
0000
0000
0000
,  // measure 8
0000
0000
0000
0000
,  // measure 9
1001
1001
0100
0000
,  // measure 10
0000
1100
0000
1100
0000
0000
0000
0000
,  // measure 11
1001
1001
0010
0000
,  // measure 12
0000
0011
0000
0011
0000
0000
0000
0000
,  // measure 13
1001
1001
0010
0000
,  // measure 14
0000
1010
0000
1010
0000
0000
0000
0000
,  // measure 15
1001
0000
1000
0000
0001
0100
0000
0000
,  // measure 16
0101
0000
0000
1001
0000
0000
0000
0000
,  // measure 17
1200
0000
0000
0000
1000
1300
0000
0000
,  // measure 18
0010
0000
0100
0001
0000
0100
0010
0000
,  // measure 19
1000
0001
1000
0000
0001
0100
0010
0000
,  // measure 20
1000
0001
0010
0100
,  // measure 21
1000
0000
0010
0100
0001
0000
0100
0001
,  // measure 22
1000
0100
0000
0010
0000
0000
0001
0000
,  // measure 23
0100
0010
0100
0001
1000
0000
0100
0000
,  // measure 24
0010
0100
1000
0001
,  // measure 25
0010
0001
1000
0100
0000
0010
0000
0000
,  // measure 26
1001
0000
0001
0010
0000
0100
0010
0000
,  // measure 27
0001
0100
0001
0000
1000
0100
0010
0000
,  // measure 28
0100
1000
0001
0100
,  // measure 29
0001
0000
1000
0000
0100
1000
0010
0100
,  // measure 30
0001
1000
0000
0010
0000
0000
1000
0000
,  // measure 31
0001
0100
0010
0000
0100
0000
0001
0000
,  // measure 32
1000
0100
0010
0100
,  // measure 33
2000
0000
0000
0002
0000
0000
3003
0000
,  // measure 34
0101
0101
1001
0000
,  // measure 35
0000
1100
0000
0100
1000
0000
0000
0000
,  // measure 36
1001
1001
0011
0000
,  // measure 37
0000
0110
0000
0010
0100
0000
0000
0000
,  // measure 38
1010
1010
1001
0000
,  // measure 39
0000
0101
0000
0100
0001
0000
0000
0000
,  // measure 40
1001
1001
1100
0000
,  // measure 41
0000
0011
0000
0001
0010
0000
0000
0000
,  // measure 42
0001
1000
0001
0000
1001
0000
0000
0000
,  // measure 43
0000
1000
0100
1000
0001
0000
0000
0000
,  // measure 44
0101
0101
0110
0000
,  // measure 45
0000
0010
1000
0010
0100
0000
0000
0000
,  // measure 46
1001
1001
1100
0000
,  // measure 47
0000
0010
0001
0010
0100
0000
0000
0000
,  // measure 48
1010
1010
0110
0000
,  // measure 49
0000
0100
0001
0100
0020
0000
0000
0000
,  // measure 50
1030
1000
0010
0100
,  // measure 51
0001
1000
0100
0010
,  // measure 52
0002
0000
1000
1000
1003
0000
0001
0000
,  // measure 53
0100
0000
0010
0000
2000
0000
0001
0001
,  // measure 54
3001
1000
0010
0100
,  // measure 55
0002
2003
3002
2003
,  // measure 56
3002
0000
0000
0003
,  // measure 57
1001
0000
1000
0100
0010
0000
0001
0100
,  // measure 58
0000
0001
1000
0000
1001
0000
1001
0000
,  // measure 59
1000
0010
0100
0000
0001
1000
0100
0010
,  // measure 60
0000
0101
1001
1100
,  // measure 61
1000
0001
0100
0000
0001
0000
0010
0100
,  // measure 62
1000
1100
1001
0011
,  // measure 63
0100
0000
1000
0010
1000
0001
0010
0100
,  // measure 64
0000
1000
0000
0001
0000
0010
0000
0100
,  // measure 65
1000
0001
0100
1000
0100
0001
2000
0001
,  // measure 66
0001
3001
0000
1000
0100
0010
0001
0000
,  // measure 67
0000
0100
0001
0010
0000
0100
0000
2000
,  // measure 68
0000
0010
0000
3010
0100
0001
0000
1000
,  // measure 69
0000
0001
0010
0100
0000
0010
0000
0001
,  // measure 70
0100
0010
1000
0200
0000
0000
0000
0000
,  // measure 71
0000
0000
0000
0000
,  // measure 72
0000
0300
0000
1100
0000
0010
0001
0000
,  // measure 73
0100
0010
1000
0100
0000
0010
0000
0001
,  // measure 74
0000
0010
0000
0100
1000
0010
0000
0110
,  // measure 75
0000
0000
0101
0000
0000
0000
0001
1000
,  // measure 76
0100
0010
0000
0001
1000
0000
0010
0000
,  // measure 77
0100
0001
0000
1000
0000
0000
0000
1100
,  // measure 78
0000
0000
0000
1001
0000
0000
0000
0001
,  // measure 79
0100
0001
0000
0100
0010
0000
1000
0000
,  // measure 80
0100
0000
0010
0001
0010
0000
0100
0000
,  // measure 81
0100
0000
1000
0000
1000
0000
0001
0010
,  // measure 82
0100
1000
0000
0100
1000
0010
0100
0001
,  // measure 83
0010
0000
0000
0001
0000
1000
0000
0100
,  // measure 84
0010
0001
0000
0100
0001
1000
0100
0010
,  // measure 85
0000
0100
1000
0001
0000
0010
0000
1000
,  // measure 86
0000
0010
0000
0202
0000
0000
0000
0000
,  // measure 87
0000
0000
0000
0000
,  // measure 88
0000
0303
0000
0000
0000
0000
0000
0000
;

//---------------dance-single - ----------------
#NOTES:
     dance-single:
     :
     Hard:
     12:
     0.626,0.635,0.454,0.291,0.017: // measure 1
0000
0000
0000
0000
,  // measure 2
0000
0000
0000
0000
,  // measure 3
0000
0000
0000
0000
,  // measure 4
0000
0000
0000
0000
,  // measure 5
0000
0000
0000
0000
,  // measure 6
0000
0000
0000
0000
,  // measure 7
0000
0000
0000
0000
,  // measure 8
0000
0000
0000
0000
,  // measure 9
1010
0000
1010
0010
1000
0000
0100
0010
,  // measure 10
0000
0101
0000
0001
1000
0100
0010
0000
,  // measure 11
0011
0000
0011
0010
0100
0000
1000
0001
,  // measure 12
0000
0011
0000
0010
0001
0010
0100
0000
,  // measure 13
0110
0000
0110
0100
1000
0000
0010
0100
,  // measure 14
0000
0101
0000
0001
0100
0010
0100
0000
,  // measure 15
1002
0000
1000
0000
0000
1003
0001
0010
,  // measure 16
0200
0000
0000
0320
0000
0001
0031
0000
,  // measure 17
2001
0000
0000
0100
0100
3100
0000
0000
,  // measure 18
0020
0000
0001
0032
0000
0100
0103
0000
,  // measure 19
0001
1000
0100
0010
0100
1000
0001
0000
,  // measure 20
0200
0010
1000
0310
,  // measure 21
1000
0001
0100
0000
0001
1000
0100
0010
,  // measure 22
0002
0100
0000
0203
0000
0000
0310
0000
,  // measure 23
1000
0001
0100
1000
0100
0001
1000
0000
,  // measure 24
0200
0010
1000
0310
,  // measure 25
0001
0010
0100
1000
0000
1001
0000
0000
,  // measure 26
2000
0000
0010
3020
0000
0100
0130
0000
,  // measure 27
0001
1000
0010
0001
0010
1000
0001
0000
,  // measure 28
0020
0100
1000
0130
,  // measure 29
0001
0100
0010
0000
1000
0100
0001
0100
,  // measure 30
2000
0010
0000
3020
0000
0000
0130
0000
,  // measure 31
0001
0010
0100
0000
1000
0010
1000
0001
,  // measure 32
0020
0000
0100
0000
0130
1000
0001
0000
,  // measure 33
0100
0100
0010
0010
0100
0001
0000
0000
,  // measure 34
1001
0000
1001
0000
0110
0010
1000
0000
,  // measure 35
0000
1010
0010
1000
0001
0000
0000
0000
,  // measure 36
1001
0000
1001
0000
0110
0100
0001
0000
,  // measure 37
0000
0011
0010
0001
1000
0000
0000
0000
,  // measure 38
1001
0000
1001
0000
0110
0100
1000
0000
,  // measure 39
0000
1001
0001
1000
0010
0000
0000
0000
,  // measure 40
1001
0000
1001
0000
0110
0010
0001
0000
,  // measure 41
0000
1001
1000
0001
0010
0100
0000
1000
,  // measure 42
0002
0100
0203
0000
0010
0310
0000
0000
,  // measure 43
0000
1000
0100
0010
1001
0000
0000
0000
,  // measure 44
0110
0000
0110
0000
1001
1000
0001
0000
,  // measure 45
0000
0010
0100
1000
1001
0000
0000
0000
,  // measure 46
0110
0000
0110
0000
1001
0001
1000
0000
,  // measure 47
0000
0100
0010
0001
1001
0000
0000
0000
,  // measure 48
0110
0000
0110
0000
1001
0001
1000
0000
,  // measure 49
0000
0010
0100
0001
2000
0000
0000
3000
,  // measure 50
1001
0000
0001
0100
0001
0100
0010
1000
,  // measure 51
0010
1000
0100
0010
0100
0010
0001
1000
,  // measure 52
0020
0000
0100
0100
0130
0000
0001
0010
,  // measure 53
0100
1000
0100
1000
0020
0000
0100
0100
,  // measure 54
0130
0000
0001
1000
0100
1000
0001
1000
,  // measure 55
0200
0320
0032
2003
,  // measure 56
3020
0100
0100
0130
,  // measure 57
1001
0001
1000
0010
0001
0010
1000
0001
,  // measure 58
0000
0100
0101
0000
0110
0000
1010
0000
,  // measure 59
1000
0001
1000
0010
0001
0010
1000
0001
,  // measure 60
0000
0010
0001
0000
0010
0000
0100
0000
,  // measure 61
1000
0001
0100
1000
0100
0000
0001
0010
,  // measure 62
1000
0010
0011
0000
1001
0000
1100
0000
,  // measure 63
1000
0001
0100
1000
0100
0010
1000
0001
,  // measure 64
0000
0100
0000
0100
0000
0100
0000
0100
,  // measure 65
0010
2000
0001
0001
0001
3001
1000
1000
,  // measure 66
0001
0001
0000
1000
0010
0001
0010
0100
,  // measure 67
0001
1000
0100
0010
0000
0100
1000
0001
,  // measure 68
0100
0010
0100
0001
0100
1000
0100
0001
,  // measure 69
0000
1000
0100
0001
0100
1000
0000
0000
,  // measure 70
1000
0001
0010
0200
0000
0000
0000
0000
,  // measure 71
0000
0000
0000
0000
,  // measure 72
0000
0300
0000
1001
0001
1000
0100
0000
,  // measure 73
0100
0000
1000
0000
0001
0000
0100
0001
0100
0000
0000
0000
0101
0000
0000
0000
,  // measure 74
1001
0000
0000
0000
0000
0000
1000
0000
0100
1000
0100
0000
0010
0000
0001
0000
,  // measure 75
0000
0000
1001
0000
0000
0100
0010
1000
,  // measure 76
0000
0000
0100
0000
0010
0000
0001
0000
1000
0010
1000
0000
0001
0000
0000
0000
,  // measure 77
0001
1000
0100
0020
0000
0000
0000
0032
,  // measure 78
0000
0000
0000
0103
0000
0100
0000
0010
,  // measure 79
0100
0010
0000
1000
0020
0000
0100
0000
,  // measure 80
0130
0000
0010
0100
0001
0010
0200
0000
,  // measure 81
1000
0000
0000
0000
1000
0000
0000
0000
1300
0000
0000
0000
0100
1000
0100
0000
,  // measure 82
0010
0001
0000
1000
0001
0100
1000
0100
,  // measure 83
0001
0000
0000
0010
0100
0010
0001
1000
,  // measure 84
0100
0010
0000
0001
0010
1000
0010
0001
,  // measure 85
1000
0100
0001
0100
1000
0001
0010
0100
,  // measure 86
1000
0001
0100
0202
0000
0000
0000
0000
,  // measure 87
0000
0000
0000
0000
,  // measure 88
0000
0303
0000
0000
0000
0000
0000
0000
;

//---------------dance-single - ----------------
#NOTES:
     dance-single:
     :
     Challenge:
     15:
     0.882,0.934,0.540,0.600,0.219: // measure 1
0000
0000
0000
0000
,  // measure 2
0000
0000
0000
0000
,  // measure 3
0000
0000
0000
0000
,  // measure 4
0000
0000
0000
0000
,  // measure 5
0000
0000
0000
0000
,  // measure 6
0000
0000
0000
0000
,  // measure 7
0000
0000
0000
0000
,  // measure 8
0000
0000
0000
0000
,  // measure 9
2000
3001
0200
0301
1000
0100
0001
0100
,  // measure 10
0000
2100
3001
0010
0100
0010
0001
1000
,  // measure 11
0020
0130
0002
1003
0001
0010
1000
0010
,  // measure 12
0000
0102
1003
0100
0010
0100
1000
0001
,  // measure 13
0201
0310
2000
3100
0010
0100
1000
0001
,  // measure 14
0000
0201
0310
1000
0100
0001
0100
1000
,  // measure 15
1001
0000
0001
0000
0010
0000
0100
0000
0000
0000
1000
0010
1000
0000
0100
0000
,  // measure 16
0020
0000
0000
0032
0000
0103
0110
0000
,  // measure 17
1001
0000
1000
0001
0010
0100
1100
0000
,  // measure 18
1001
0001
0100
0010
0100
0001
0010
0100
,  // measure 19
0000
0000
0100
1000
0010
0000
0200
0000
0001
0000
0301
0000
1000
0000
0100
0000
,  // measure 20
0010
0001
0010
0001
0100
0010
1000
0100
,  // measure 21
0000
0000
0010
0100
0010
0000
0001
0000
1000
0000
0001
0000
0100
0000
0001
0000
,  // measure 22
1001
1000
0100
0010
0100
1000
0001
0100
,  // measure 23
0000
0000
0100
0010
1000
0000
0001
0000
0010
0000
0100
0000
0010
0000
0001
0000
,  // measure 24
0100
0010
0100
0010
1000
0100
0010
0001
,  // measure 25
0000
0000
1000
0010
1000
0000
0020
0000
0000
0000
0100
0000
0100
0000
0130
0000
,  // measure 26
1001
0001
0010
0100
0010
0001
1000
0010
,  // measure 27
0000
0000
0010
0100
0001
0000
2000
0000
0100
0000
0100
0000
3100
0000
0010
0000
,  // measure 28
0001
0100
0001
0100
0010
1000
0100
0010
,  // measure 29
0000
0000
0001
1000
0001
0000
1000
0000
0100
0000
0010
0000
0100
0000
1000
0000
,  // measure 30
1001
0001
0100
0010
0100
0001
0010
0100
,  // measure 31
0000
0000
0100
1000
0001
0000
0100
0000
0010
0000
1000
0000
0001
0000
0010
0000
,  // measure 32
0100
1000
0010
0100
0001
0010
0000
0100
,  // measure 33
0010
0000
0001
0100
0001
0100
0010
1000
0010
1000
0002
0000
0000
0000
1003
0000
,  // measure 34
0200
1300
0020
0130
1001
0001
0100
0010
,  // measure 35
0000
2001
3100
0010
0001
0100
0010
0000
,  // measure 36
0200
0301
2000
3100
1001
0001
0100
0010
,  // measure 37
0000
1002
0013
0100
1000
0001
0100
0000
,  // measure 38
0020
0130
0002
0013
1001
1000
0100
0010
,  // measure 39
0000
0102
1003
0100
0010
0100
1000
0000
,  // measure 40
0200
1300
0020
0130
1001
1000
0010
0100
,  // measure 41
0000
1002
0013
0100
1000
1010
0000
0101
,  // measure 42
0001
0000
1000
0100
1000
0000
0100
0000
0110
0000
1001
0000
0000
0000
1000
0000
,  // measure 43
0001
0000
0201
0000
0310
0000
1000
0000
0100
0010
0100
0000
0010
0000
0000
0000
,  // measure 44
0002
1003
0200
1300
1001
0001
0100
0010
,  // measure 45
0000
0000
2001
0000
3010
0000
0100
0000
0001
0010
0001
0000
0010
0000
0000
0000
,  // measure 46
0002
1003
0200
1300
1001
0001
0010
0100
,  // measure 47
0000
2001
3100
0010
0001
1000
0000
0000
,  // measure 48
0200
0000
1300
0000
0020
0000
0130
0000
1001
0000
0001
0000
0100
0010
0100
0000
,  // measure 49
0010
0000
0000
1000
0000
0000
0100
0000
0000
0010
0000
0000
0001
0000
0100
0000
1000
0000
0100
0000
0001
0000
0010
0000
,  // measure 50
0200
0000
1000
0000
1300
0000
0001
0010
0100
0000
0010
0000
0001
0000
0100
0010
,  // measure 51
0100
0000
0001
0000
0100
0000
1000
0000
0100
0000
0010
0000
1000
0001
1000
0000
,  // measure 52
0100
0020
0031
0200
0310
2000
3100
0010
,  // measure 53
0001
0100
0001
0000
1000
0000
0010
0000
0200
0000
0301
0000
1000
0100
1000
0000
,  // measure 54
0001
0000
0010
0000
0100
0000
0010
0000
0001
1000
0002
0000
1000
0000
1003
0000
,  // measure 55
0002
0023
2030
3020
0032
0023
0230
2300
,  // measure 56
3002
0203
0320
2030
,  // measure 57
3001
1000
0010
0001
0010
1000
1001
0011
,  // measure 58
0000
0011
0002
1003
0200
1300
0020
0130
,  // measure 59
0001
1000
0100
0001
0100
1000
1100
0110
,  // measure 60
0000
0011
0002
1003
0020
0130
0002
0103
,  // measure 61
0001
1000
0010
0000
0100
0001
1000
1010
,  // measure 62
0110
0000
0200
0301
2000
3100
0020
0130
,  // measure 63
1000
0001
0010
1000
0010
0001
0100
0110
,  // measure 64
0000
1100
0000
1100
0000
0011
0000
0011
,  // measure 65
0001
0000
1001
0000
1001
0000
1001
0000
1001
0000
1001
0000
1000
0001
1000
0000
,  // measure 66
0001
0001
1000
0010
0001
0010
0100
0001
,  // measure 67
1000
0000
0100
0000
0010
0100
1000
0000
0000
0000
0001
0000
0100
0010
0100
0000
,  // measure 68
0001
0000
1000
0000
0100
0010
0001
0000
1000
0000
1010
0000
0010
0000
0100
0000
,  // measure 69
0001
0010
0100
1100
0000
1000
0010
0001
,  // measure 70
0010
1000
0001
2002
0000
0000
0000
0000
,  // measure 71
0000
0000
0000
3003
,  // measure 72
0001
1000
0001
0000
1000
0000
1001
0000
0001
0000
0100
0000
0010
0000
0000
0000
,  // measure 73
0010
0000
0100
0001
0010
0000
0100
0010
0100
0000
1000
0000
1001
0000
0000
0000
,  // measure 74
0101
0000
0000
0000
0100
0000
0001
0000
0010
0100
1000
0000
0001
0000
0200
0000
,  // measure 75
0000
0001
0301
0000
1001
1000
0010
0100
,  // measure 76
0001
0000
1000
0000
0000
0000
0001
0000
0100
0010
1000
0000
0100
0000
0000
0000
,  // measure 77
0100
1000
0001
0201
0000
0000
0010
0310
,  // measure 78
0000
0000
0000
1001
1000
0001
0010
0001
,  // measure 79
1000
0010
1000
0000
1010
0000
1010
0000
,  // measure 80
0101
0000
0000
0000
0101
0000
0001
0000
1000
0100
1000
0000
0001
0100
0000
0000
,  // measure 81
0100
0010
0000
0000
1000
0100
0000
0000
0100
0010
0000
0000
0001
1000
0200
0000
,  // measure 82
1000
1300
0000
0010
0100
0001
0010
1000
,  // measure 83
0010
0000
0001
1000
0001
0000
1000
0000
1010
0000
0010
0100
0010
0000
0100
0001
,  // measure 84
0100
0000
0001
1000
0001
0000
1000
0100
0010
0000
0001
0000
1000
0100
0010
0000
,  // measure 85
0001
0000
1000
0000
0001
0000
1000
0010
1000
0000
0010
0100
0010
0000
0100
0001
,  // measure 86
0100
0000
0001
1000
0001
0000
2002
0000
0000
0000
0000
0000
0000
0000
0000
0000
,  // measure 87
0000
0000
0000
0000
,  // measure 88
0000
3003
0000
0000
0000
0000
0000
0000
;

//---------------dance-single - ----------------
#NOTES:
     dance-single:
     :
     Beginner:
     3:
     0.114,0.146,0.069,0.000,0.000:
0000
0000
0000
0000
,
0000
0000
0000
0000
,
0000
0000
0000
0000
,
0000
0000
0000
0000
,
0000
0000
0000
0000
,
0000
0000
0000
0000
,
0000
0000
0000
0000
,
0000
0000
0000
0000
,
1000
0000
0000
0000
,
0001
0000
0000
0000
,
0100
0000
0000
0000
,
0001
0000
0000
0000
,
1000
0000
0000
0000
,
0100
0000
0000
0000
,
0010
0000
0000
0000
,
0000
0000
0000
0000
,
0000
0000
0000
0000
,
0001
0000
0100
0000
,
0001
0000
0000
0000
,
1000
0000
0001
0000
,
1000
0000
0000
0000
,
0100
0000
1000
0000
,
0100
0000
0000
0000
,
0010
0000
0100
0000
,
0010
0000
0000
0000
,
0001
0000
0100
0000
,
0001
0000
0000
0000
,
1000
0000
0001
0000
,
1000
0000
0000
0000
,
0010
0000
1000
0000
,
0010
0000
0000
0000
,
0100
0000
0010
0000
,
0100
0000
0000
0000
,
1001
0000
0000
0000
,
0001
0000
0000
0000
,
1001
0000
0000
0000
,
1000
0000
0000
0000
,
1001
0000
0000
0000
,
0001
0000
0000
0000
,
1001
0000
0000
0000
,
1000
0000
0000
0000
,
0001
0000
0100
0000
,
0010
0000
0000
0000
,
0100
0000
0010
0000
,
1000
0000
0000
0000
,
0001
0000
1000
0000
,
0001
0000
0000
0000
,
1000
0000
0001
0000
,
1000
0000
0000
0000
,
1001
0000
0000
0000
,
0000
0000
0000
0000
,
0001
0000
0000
0000
,
0000
0000
0000
0000
,
0100
0000
0000
0000
,
0000
0000
0000
0000
,
0010
0000
0000
0000
,
1001
0000
0000
0000
,
1000
0000
0000
0000
,
0001
0000
0000
0000
,
1000
0000
0000
0000
,
0100
0000
0000
0000
,
0010
0000
0000
0000
,
0100
0000
0000
0000
,
1000
0000
0000
0000
,
0001
0000
0000
0000
,
0000
0000
0000
1000
0000
0000
0000
0000
,
0000
0000
0000
0000
,
0000
0000
0000
0100
0000
0000
0000
0000
,
0000
0000
0000
0000
,
0000
0000
0000
0010
0000
0000
0000
0000
,
0000
0000
0000
0000
,
0000
0000
0000
1001
0000
0000
0000
0000
,
0000
0000
0000
1000
0000
0000
0000
0000
,
0000
0000
0000
0001
0000
0000
0000
0000
,
0000
0000
0000
0100
0000
0000
0000
0000
,
0000
0000
0000
0001
0000
0000
0000
0000
,
0000
0000
0000
1000
0000
0000
0000
0000
,
0000
0000
0000
0100
0000
0000
0000
0000
,
0000
0000
0000
0010
0000
0000
0000
0000
,
0000
0000
0000
0100
0000
0000
0000
1000
,
0000
0000
0000
0100
0000
0000
0000
0000
,
0000
0000
0000
0010
0000
0000
0000
0100
,
0000
0000
0000
0010
0000
0000
0000
0000
,
0000
0000
0000
0001
0000
0000
0000
1000
,
0000
0000
0000
0001
0000
0000
0000
0000
,
0000
0000
0000
1001
0000
0000
0000
0000
;
