#TITLE:Astra walkthrough;
#SUBTITLE:;
#ARTIST:paraoka;
#TITLETRANSLIT:;
#SUBTITLETRANSLIT:;
#ARTISTTRANSLIT:;
#CREDIT:DigiMindAxel;
#BANNER:Astra walkthrough.png;
#BACKGROUND:Astra walkthrough-bg.png;
#LYRICSPATH:;
#CDTITLE:DigiMindAxel original simfile.png;
#MUSIC:Astra walkthrough.ogg;
#METERTYPE:DDR X;
#OFFSET:-7.695;
#SAMPLESTART:66.899;
#SAMPLELENGTH:12.000;
#SELECTABLE:YES;
#BPMS:0.000=450.000,6.000=225.000,12.000=450.000,18.000=112.500,36.000=225.000,156.000=112.500,180.000=225.000,321.000=211.200,322.000=194.330,323.000=171.200,324.000=150.000,400.000=450.000,406.000=225.000;
#DISPLAYBPM:113:225;
#STOPS:0.000=0.133333
,1.000=0.133333
,2.000=0.133333
,3.000=0.133333
,4.000=0.133333
,5.000=0.133333
,12.000=0.133333
,13.000=0.133333
,14.000=0.133333
,15.000=0.133333
,16.000=0.133333
,17.000=0.133333
,400.000=0.133333
,401.000=0.133333
,402.000=0.133333
,403.000=0.133333
,404.000=0.133333
,405.000=0.133333
;
#BGCHANGES:;

//---------------dance-single - ----------------
#NOTES:
     dance-single:
     :
     Easy:
     7:
     0.353,0.404,0.142,0.241,0.000:
1000
1000
0001
0001
,
1000
1000
0020
0000
,
0000
0000
0000
0000
,
1030
1000
0001
0001
,
1000
1000
0200
0000
,
0000
0320
0000
0000
,
0032
0000
0000
2003
0000
0000
3200
0000
,
0000
2300
0000
0000
3002
0000
0000
0203
,
0000
0000
0320
0000
0000
0000
0000
0030
,
1000
0000
0000
0100
,
0000
0000
0010
0000
,
0000
0001
0000
0000
,
0100
0000
0000
0010
,
0000
0000
0100
0000
,
0000
0001
0000
0000
,
1001
0000
0000
1000
0000
0000
1000
0000
,
0000
0000
0000
0000
0010
0000
0000
0010
,
0000
0010
0000
0000
,
0100
0000
0000
0100
0000
0000
0100
0000
,
0000
0000
0000
0000
0001
0000
0000
0001
,
0000
0001
0000
0000
,
0010
0000
0000
0010
0000
0000
0010
0000
,
0000
0000
0000
0000
0100
0000
0000
0100
,
0000
0100
0000
0000
,
1000
0000
0000
1000
0000
0000
1000
0000
,
0000
0000
0000
0000
0001
0000
0000
0001
,
0000
0001
0000
0000
,
0100
0000
0000
0010
0000
0000
1000
0000
,
0001
0000
1000
0000
0100
0000
0000
1000
,
0000
0010
0100
0010
,
0100
0000
0000
0001
0000
0000
0010
0000
,
0001
0000
0010
0000
0100
0000
0000
1000
,
0000
0010
0100
0010
,
1000
0000
0000
0100
0000
0000
0020
0000
,
0000
0000
0000
0000
0031
0000
0000
0010
,
0000
0200
0000
0000
,
1300
0000
0000
0010
0000
0000
0200
0000
,
0000
0000
0000
0000
0301
0000
0000
0010
,
0000
0200
0000
0000
,
2300
0000
0000
0000
3001
0010
0200
0000
,
0000
0000
0310
0001
0200
0000
0000
0320
,
0000
0000
2030
0000
0000
0000
0000
3000
,
0002
0000
0000
0000
0013
0100
2000
0000
,
0000
3020
0230
0000
,
0000
0002
0000
0303
,
1001
0001
0100
0001
,
1000
0100
1000
0010
,
0100
0001
1000
0100
,
1000
0001
1000
0001
,
0010
0001
0100
0100
,
0100
0010
0010
0010
,
1000
0100
1000
0001
,
1000
0001
0100
0010
,
1000
0100
0010
0100
,
0010
0001
0010
0001
,
1000
0010
0100
0000
,
0001
1000
0100
0010
,
0002
0000
0000
0103
,
0010
1000
0200
0000
,
0000
2300
0000
0000
,
3020
0000
0000
0130
,
0001
0010
0200
0000
,
0000
2300
0000
0000
,
3002
0000
0000
0103
,
0010
1000
0100
0010
,
0001
0010
0000
0000
,
1001
0000
0000
0110
,
0000
0000
1001
0000
,
0000
0001
0010
0100
,
1000
0010
1000
0001
,
0010
0001
1000
0010
,
0100
0001
0000
0000
,
0010
0100
0010
0100
,
1000
0010
0100
0100
,
0100
0001
0001
0001
,
1000
0100
1000
0001
,
0010
0001
1000
0010
,
0100
0001
0000
0000
,
1000
0100
1000
0010
,
0100
0010
1000
0100
,
0010
0002
0000
0000
,
1003
1000
0010
0010
,
0100
0100
0001
0001
,
0010
0010
0100
0100
,
1000
1000
0010
0100
,
1001
0001
0010
0010
,
0001
0001
1000
1000
,
0010
0100
0001
0001
,
0010
0100
1000
1000
,
1001
0001
0100
0010
,
1001
1000
0100
0010
,
1001
0001
0010
0100
,
1000
0010
0100
0001
,
1001
1000
0100
1000
,
0010
0100
0001
0010
,
1001
1000
1001
0001
,
0010
0100
1000
0010
,
1001
0000
1001
0000
,
0110
0000
0110
0000
,
1001
0000
1001
0000
,
0110
0010
0010
0100
,
0100
0100
2002
0000
,
0000
0000
0000
0000
,
0000
0000
3003
0000
;

//---------------dance-single - ----------------
#NOTES:
     dance-single:
     :
     Medium:
     12:
     0.668,1.000,0.674,0.291,0.241: // measure 1
1001
1001
1001
1001
,  // measure 2
1001
1001
1000
0010
,  // measure 3
1000
0000
0001
1000
0010
0000
0100
0000
,  // measure 4
1001
1001
1001
1001
,  // measure 5
1001
0000
0000
0000
1001
0000
0000
0000
0001
0000
0010
0100
1000
0000
0010
0000
,  // measure 6
0100
0001
0010
0000
0100
0000
1000
0010
0100
0000
0001
0000
0010
0100
1000
0000
,  // measure 7
0001
0100
0001
0100
0001
0000
1000
0100
1000
0100
1000
0000
0001
1000
0001
1000
,  // measure 8
0001
0000
0010
0100
0010
0100
0010
0000
0001
0010
0001
0010
0001
0000
0010
0100
,  // measure 9
0010
0100
0010
0000
0100
1000
0100
1000
0200
0000
0000
0000
0000
0000
1300
0000
,  // measure 10
1001
0000
0000
0001
0000
0000
0100
0010
,  // measure 11
0100
0000
0010
0000
1000
0000
0000
0100
,  // measure 12
0000
0000
0010
0100
0010
0000
0001
0000
,  // measure 13
0100
0000
0000
0010
0000
0000
1000
0000
,  // measure 14
0100
0010
0100
0000
1000
0000
0000
0001
,  // measure 15
0000
0010
0100
1000
,  // measure 16
0001
0100
0001
0000
1000
0100
0000
1000
,  // measure 17
0100
0000
0010
0000
0001
0000
0100
0010
,  // measure 18
0000
0010
0100
0000
0010
0000
1000
0000
,  // measure 19
0100
0010
0100
0000
1000
0010
0000
1000
,  // measure 20
0001
0000
0010
0000
0100
0000
0010
0001
,  // measure 21
0000
0001
0010
0000
0100
0000
1000
0010
,  // measure 22
1000
0000
0001
0010
0000
0001
2000
0000
,  // measure 23
0010
0000
3010
0000
0100
0000
0001
1000
,  // measure 24
0000
0100
0020
0000
0001
0000
0031
0000
,  // measure 25
0100
0000
0010
1000
0000
0100
0020
0000
,  // measure 26
0001
0000
0031
0000
0100
0000
0010
1000
,  // measure 27
0000
0001
0020
0000
0100
0000
0130
0000
,  // measure 28
1000
0010
1000
0000
0001
0010
0000
0010
,  // measure 29
0100
0000
1000
0000
0100
0000
0010
0100
,  // measure 30
0000
0100
1000
0000
0001
0100
0001
0000
,  // measure 31
1000
0100
1000
0000
0010
0100
0000
0100
,  // measure 32
0001
0000
1000
0000
0100
0000
0010
0001
,  // measure 33
0000
0001
1000
0000
0010
0100
0010
0000
,  // measure 34
0100
0000
0001
0010
0000
0010
0200
0000
,  // measure 35
1000
0000
1300
0000
0010
0000
0100
0001
,  // measure 36
0000
0001
0020
0000
0100
0000
0130
0000
,  // measure 37
1000
0000
0010
1000
0000
1000
0002
0000
,  // measure 38
0010
0000
0013
0000
0100
0000
0010
0001
,  // measure 39
0000
0001
0200
0000
0010
0000
0310
0000
,  // measure 40
2001
0000
0000
3100
0010
0001
0020
0000
,  // measure 41
0000
0000
0130
0000
1000
0000
0010
0000
0200
0000
0000
0000
0301
1000
0001
0000
,  // measure 42
0010
0100
2000
0000
0000
3010
0100
0001
,  // measure 43
2001
0000
0000
3100
0010
0100
1000
0010
,  // measure 44
0200
0000
0301
1000
0002
0000
0000
0000
,  // measure 45
0000
0000
2000
0000
0000
0000
0000
3003
,  // measure 46
1001
0000
1000
0000
0001
0000
0010
0100
,  // measure 47
1000
0000
1000
0000
0001
0100
0010
1000
,  // measure 48
0000
0001
0010
0000
1000
0000
0010
0000
,  // measure 49
0001
1000
0001
0010
,  // measure 50
1000
0010
1001
1001
,  // measure 51
1001
0110
0110
0110
,  // measure 52
1001
0000
0001
0000
0100
0000
0001
1000
,  // measure 53
0100
0000
0010
0000
0001
1000
0100
0010
,  // measure 54
0000
0001
0100
0000
1000
0000
0100
0000
,  // measure 55
0001
1000
0001
0010
,  // measure 56
1000
0010
1002
0000
,  // measure 57
0013
0100
1000
0000
0001
0100
0001
0100
,  // measure 58
0020
0000
0000
1030
0010
0000
0100
0000
,  // measure 59
0001
0010
1100
1000
,  // measure 60
1100
0011
1001
0000
,  // measure 61
2000
0000
0000
3100
1000
0000
0001
0000
,  // measure 62
0010
0100
1010
1010
,  // measure 63
0101
1002
0000
1003
,  // measure 64
0020
0000
0000
0130
0001
0000
0010
0000
,  // measure 65
0100
1000
1100
1100
,  // measure 66
0011
0000
1002
0000
0000
0000
1003
0100
,  // measure 67
0010
0011
1001
1100
,  // measure 68
1001
0011
1001
1100
,  // measure 69
1001
0110
0110
0110
,  // measure 70
2001
0000
0001
0000
3001
0000
1000
0010
,  // measure 71
0100
0000
0100
0000
0001
1000
0100
0010
,  // measure 72
0000
0001
0100
0000
1000
0000
0100
0000
,  // measure 73
0001
0000
0010
0000
0001
0000
1000
0100
,  // measure 74
0010
0010
0101
0101
,  // measure 75
0101
1010
1010
1010
,  // measure 76
1001
0000
0001
0000
0100
0000
0001
0010
,  // measure 77
0100
0000
0100
0000
1000
0001
0100
0010
,  // measure 78
0000
1000
0010
0000
0001
0000
0010
0000
,  // measure 79
1000
0000
0100
0000
1000
0000
0001
0100
,  // measure 80
0010
0010
1010
1001
,  // measure 81
0101
1001
1010
0101
,  // measure 82
1002
0000
0000
0013
0000
0000
0100
1000
0100
1000
0000
0010
,  // measure 83
0100
0000
0001
0200
0000
0000
0010
0000
0000
0310
0000
0000
,  // measure 84
1100
0000
0000
1001
0000
0000
0001
0010
0001
0010
0000
0100
,  // measure 85
0010
0000
0001
0200
0000
0000
0010
0000
0000
0310
0000
0000
,  // measure 86
0110
0000
0000
1001
0000
0000
1000
0010
1000
0010
0000
0100
,  // measure 87
0001
0000
1000
0200
0000
0000
0010
0000
0000
0310
0000
0000
,  // measure 88
0011
0000
0000
0110
0000
0000
0100
1000
0100
1000
0000
0010
,  // measure 89
0100
0000
0001
0200
0000
0000
0010
0000
0000
0310
0000
0000
,  // measure 90
1100
0000
1100
0000
0010
0000
2002
0000
0000
0000
3003
0000
,  // measure 91
0101
0000
0101
0000
0010
0000
2002
0000
0000
0000
3003
0000
,  // measure 92
0011
0000
0001
1000
0000
0000
0100
0010
0100
0010
0000
0001
,  // measure 93
0200
0000
0000
0000
0310
1000
0020
0000
0000
0130
0000
0000
,  // measure 94
1010
0000
1010
0000
0100
0000
2002
0000
0000
0000
3003
0000
,  // measure 95
0011
0000
0011
0000
0100
0000
2002
0000
0000
0000
3003
0000
,  // measure 96
1100
0000
1000
0001
0000
0000
0100
0001
0100
0001
0000
1000
,  // measure 97
0100
0000
0010
0100
0000
1000
0100
0000
0010
0100
0000
0000
,  // measure 98
1010
0000
1000
0010
0100
0000
0101
0000
0001
0100
0010
0000
,  // measure 99
1100
0000
1000
0100
0010
0000
0011
0000
0001
0010
0100
0000
,  // measure 100
1010
0000
1000
0010
0100
0000
0101
0000
0001
0100
0010
0000
,  // measure 101
1001
1001
1001
1001
,  // measure 102
1001
1001
0220
0000
,  // measure 103
0000
0000
0000
0000
,  // measure 104
0000
0000
0330
0000
;

//---------------dance-single - ----------------
#NOTES:
     dance-single:
     :
     Hard:
     15:
     0.898,1.000,0.795,0.660,0.490: // measure 1
2002
3003
2002
3003
0220
0330
0220
0330
,  // measure 2
2002
3003
2002
3003
1000
0100
0010
0001
,  // measure 3
1000
0010
0000
0010
1000
0001
0010
0100
,  // measure 4
2002
3003
2002
3003
0220
0330
0220
0330
,  // measure 5
2002
0000
3003
0000
2002
0000
3003
0000
0001
0100
1000
0100
0001
0010
0100
0000
,  // measure 6
1000
0001
0100
0001
1000
0100
0001
0100
1000
0000
0001
0010
0100
1000
0001
0000
,  // measure 7
0100
1000
0100
0001
0010
0000
0001
0100
1000
0100
0010
0000
1000
0010
0001
0010
,  // measure 8
1000
0000
0100
0001
0100
1000
0010
0000
0100
0001
0010
1000
0010
0000
0001
0100
,  // measure 9
1000
0100
0001
0000
0010
0100
1000
0010
0200
0000
0000
0000
0000
0000
0301
0000
,  // measure 10
1001
0000
1000
0100
0000
0100
0002
0000
,  // measure 11
0203
0000
2300
0000
3001
0000
1000
0010
,  // measure 12
0000
0010
0002
0000
0023
0000
2030
0000
,  // measure 13
3001
0000
0100
0010
0000
0010
2000
0000
,  // measure 14
3020
0000
0230
0000
0301
0000
1000
0100
,  // measure 15
0000
0100
0020
0000
0032
0000
1003
0000
,  // measure 16
0001
0010
0100
0000
1000
0010
0200
0301
,  // measure 17
0200
0301
0200
0301
1000
0000
1000
0100
,  // measure 18
0000
0100
0020
0031
0020
0031
0020
0031
,  // measure 19
0100
0010
1000
0000
1000
0010
0200
0310
,  // measure 20
0200
0310
0200
0310
1000
0000
1000
0001
,  // measure 21
0000
0001
0010
0000
0010
0100
1000
0010
,  // measure 22
0200
0000
0000
0001
0000
0000
0301
0000
,  // measure 23
1001
0000
0110
0000
0200
0000
0000
1000
,  // measure 24
0000
1300
1001
0110
,  // measure 25
0200
0000
0000
0001
0000
0000
0301
0000
,  // measure 26
1001
0000
0110
0000
0020
0000
0000
1000
,  // measure 27
0000
0000
1030
0001
0010
0100
1000
0001
,  // measure 28
0100
0010
0100
0000
0001
1000
0020
0130
,  // measure 29
0020
0130
0020
0130
0001
0000
0001
1000
,  // measure 30
0000
1000
0020
0130
0020
0130
0020
0130
,  // measure 31
0001
0010
0100
0000
0100
1000
0002
0103
,  // measure 32
0002
0103
0002
0103
0010
1000
0100
0010
,  // measure 33
0000
0010
0001
1000
0010
0100
0010
1000
,  // measure 34
0100
0000
0010
0100
0000
0100
2000
0000
,  // measure 35
0020
0030
0020
3030
0100
0001
1000
0100
,  // measure 36
0000
0100
0020
0000
0002
0003
0002
0033
,  // measure 37
0100
1000
0010
0100
0000
0100
0002
0000
,  // measure 38
0200
0300
0200
0303
0010
1000
0100
0010
,  // measure 39
0000
0010
0002
0000
0010
0000
0013
0000
,  // measure 40
2001
0000
0000
0001
0000
0000
3010
0000
0110
0000
0101
0000
1002
0000
0000
1000
,  // measure 41
0000
1003
0001
0100
0001
1000
0100
0010
0201
0000
0000
0000
0301
0010
0200
0000
,  // measure 42
1000
0000
1300
0000
1002
0000
0000
1000
0000
0000
0103
0010
1000
0100
0010
0100
,  // measure 43
2001
0000
0000
0001
0000
0000
3010
0000
0100
0001
0010
0100
2000
0000
0010
0000
,  // measure 44
3010
0000
1002
0000
0010
0000
0013
0000
1002
0000
0000
1000
0000
0000
0010
0000
,  // measure 45
0010
0013
2001
0000
0000
0000
0000
3001
,  // measure 46
1010
0000
1010
0000
1001
0000
0001
0010
,  // measure 47
1000
0010
0001
0000
0010
0100
1000
0010
,  // measure 48
0000
1000
0010
0100
0010
1000
0010
0000
,  // measure 49
1001
0000
1001
0000
0011
0000
0001
0100
,  // measure 50
1000
0100
0001
0000
0101
0000
0110
0000
,  // measure 51
1010
0110
0101
0110
,  // measure 52
1010
0000
1010
0000
1001
0000
0001
0100
,  // measure 53
1000
0100
0001
0000
0010
0100
1000
0010
,  // measure 54
0000
1000
0010
0100
0010
1000
0010
0000
,  // measure 55
1001
0000
1001
0000
0011
0000
0001
0100
,  // measure 56
1000
0100
0001
0010
0200
0000
1000
0000
,  // measure 57
1300
0010
0100
0001
0010
0100
0010
0001
,  // measure 58
1000
0010
1000
0001
0010
0000
0110
0000
,  // measure 59
1100
0000
0110
0000
0010
0001
0100
1000
,  // measure 60
0100
0001
0010
0100
1000
0001
0100
0000
,  // measure 61
0010
1000
0001
0010
0001
0000
1001
0000
,  // measure 62
1001
0000
1100
0000
0011
0000
0010
0100
,  // measure 63
1000
0100
0010
0000
0001
0100
0010
0100
,  // measure 64
0001
0000
0010
0100
1000
0000
1010
0000
,  // measure 65
0110
0000
0101
0000
0001
0100
1000
0100
,  // measure 66
0001
0010
0100
0010
0001
0000
0100
0010
,  // measure 67
1000
1010
1001
0101
,  // measure 68
1001
1100
1001
0011
,  // measure 69
1001
0110
0110
0110
,  // measure 70
1001
0000
0001
0100
0001
1000
0010
0001
,  // measure 71
0010
0100
0001
0000
1000
0001
0010
0100
,  // measure 72
0000
1000
0001
0100
0001
1000
0001
0100
,  // measure 73
0001
0000
1000
0010
0100
0001
0100
1000
,  // measure 74
0100
0010
1000
0000
1010
0000
1001
0000
,  // measure 75
0101
1001
0110
1001
,  // measure 76
0110
0000
0100
0010
1000
0010
0001
0010
,  // measure 77
0100
0001
1000
0000
0100
0010
0001
0100
,  // measure 78
0000
0001
1000
0100
1000
0001
1000
0100
,  // measure 79
1000
0000
0100
0010
0001
0000
0100
0010
,  // measure 80
1000
0010
0100
0000
0101
0000
1001
0000
,  // measure 81
1010
1001
0011
1100
,  // measure 82
1001
0000
0001
1000
0000
1000
0100
0001
0100
1000
0000
0010
,  // measure 83
0100
0000
0100
0001
0000
0001
1000
0000
1000
0010
0000
0000
,  // measure 84
1001
0000
1000
0001
0000
0001
0010
1000
0010
0001
0000
0010
,  // measure 85
0100
0000
0100
1000
0000
1000
0001
0010
0100
1000
0001
0000
,  // measure 86
1001
0000
1000
0001
0000
0001
0100
1000
0100
0001
0000
0100
,  // measure 87
0010
0000
0010
1000
0000
1000
0001
0000
0001
0010
0000
0000
,  // measure 88
1001
0000
1000
0001
0000
0001
0010
1000
0010
0001
0000
0100
,  // measure 89
0010
0000
0010
1000
0000
0001
1000
0100
0010
0001
0100
0010
,  // measure 90
1010
0000
1001
0000
0011
0000
0100
1000
0010
1000
0100
0000
,  // measure 91
0011
0000
1001
0000
1010
0000
0100
0001
0010
0001
0100
0000
,  // measure 92
0101
0000
0100
0010
0000
0010
1000
0100
0001
0100
1000
0010
,  // measure 93
0100
0000
0100
0000
0010
0100
0001
0000
0001
1000
0100
0010
,  // measure 94
0011
0000
1001
0000
1010
0000
0100
0001
1000
0001
0100
0001
,  // measure 95
1001
0000
1100
0000
0011
0000
0100
1000
0001
1000
0100
1000
,  // measure 96
1001
0000
0001
0100
0000
0100
0010
1000
0100
0010
0001
0100
,  // measure 97
0101
0000
0001
1001
0000
1000
1100
0000
0100
0110
0000
0010
,  // measure 98
0011
0000
0001
0100
1000
0100
0001
0000
1000
0100
0001
0100
,  // measure 99
1000
0000
0001
0010
1000
0010
0001
0000
1000
0010
0001
0010
,  // measure 100
1000
0000
0100
0010
0001
0100
0010
1000
0100
0010
0001
0100
,  // measure 101
0220
0330
0022
0033
2200
3300
0220
0330
,  // measure 102
2002
3003
0220
0330
2002
0000
0000
0000
,  // measure 103
0000
0000
0000
0000
,  // measure 104
0000
0000
3003
0000
;

//---------------dance-single - ----------------
#NOTES:
     dance-single:
     :
     Beginner:
     2:
     0.131,0.252,0.121,0.000,0.000:
0001
0000
0000
0000
,
0000
0000
1000
0000
,
0000
0000
0000
0000
,
0001
0000
0000
0000
,
0000
0000
1001
0000
,
0000
0000
0000
0000
,
0100
0000
0000
0010
,
0000
0000
0100
0000
,
0000
0010
0000
0000
,
0001
0000
0000
0000
,
0000
0000
0100
0000
,
0000
0000
0000
0000
,
0001
0000
0000
0000
,
0000
0000
1000
0000
,
0000
0000
0000
0000
,
0100
0000
0000
0000
,
0000
0000
0010
0000
,
0000
0000
0000
0000
,
0100
0000
0000
0000
,
0000
0000
0010
0000
,
0000
0000
0000
0000
,
0001
0000
0000
0000
,
0000
0000
0100
0000
,
0000
0000
0000
0000
,
0001
0000
0000
0000
,
0000
0000
1000
0000
,
0000
0000
0000
0000
,
0100
0000
0000
0000
,
0000
0000
0010
0000
,
0000
0000
0000
0000
,
0100
0000
0000
0000
,
0000
0000
0010
0000
,
0000
0000
0000
0000
,
0001
0000
0000
0000
,
0000
0000
0100
0000
,
0000
0000
0000
0000
,
0010
0000
0000
0000
,
0000
0000
0100
0000
,
0000
0000
0000
0000
,
1001
0000
0000
0001
,
0000
0000
1000
0000
,
0000
0001
0000
0000
,
0010
0000
0000
0100
,
0000
0000
1000
0000
,
0000
1001
0000
0000
,
0001
0000
0000
0100
,
0000
0000
0001
0000
,
0000
0001
0000
0000
,
0010
0000
0000
0100
,
0000
0000
1001
0000
,
0000
1001
0000
0000
,
1000
0000
0000
0100
,
0000
0000
1000
0000
,
0000
1000
0000
0000
,
0010
0000
0000
0100
,
0000
0000
1001
0000
,
0000
1001
0000
0000
,
0001
0000
0000
0010
,
0000
0000
0001
0000
,
0000
0000
0000
0000
,
0100
0000
0000
0010
,
0000
0000
1000
0000
,
0000
0000
0000
0000
,
0100
0000
0000
1000
,
0000
0000
0100
0000
,
0000
0000
0000
0000
,
0010
0000
0000
0010
,
0000
0000
0001
0000
,
0000
0001
0000
0000
,
1000
0000
0000
0010
,
0000
0000
0100
0000
,
0000
0010
0000
0000
,
1000
0000
0000
0001
,
0000
0000
1001
0000
,
0000
1001
0000
0000
,
1000
0000
0000
0100
,
0000
0000
0010
0000
,
0000
0010
0000
0000
,
0100
0000
0000
0010
,
0000
0000
0001
0000
,
0000
1000
0000
0000
,
1001
0000
0000
0000
,
0001
0000
0000
0000
,
1000
0000
0000
0000
,
0010
0000
0000
0000
,
0100
0000
0000
0000
,
0010
0000
0000
0000
,
0100
0000
0000
0000
,
0001
0000
0000
0000
,
1001
0000
1000
0000
,
1001
0000
0001
0000
,
1001
0000
1000
0000
,
0010
0000
0100
0000
,
1001
0000
0001
0000
,
1001
0000
1000
0000
,
0001
0000
0010
0000
,
0100
0100
0100
0100
,
0100
0000
0000
0000
,
0100
0000
0000
0000
,
0100
0000
0000
0000
,
1001
0000
0000
0000
,
0000
0000
1001
0000
;
