#TITLE:Arx Tyranni;
#SUBTITLE:;
#ARTIST:Akhuta;
#TITLETRANSLIT:;
#SUBTITLETRANSLIT:;
#ARTISTTRANSLIT:;
#CREDIT:DigiMindAxel;
#BANNER:Arx Tyranni.png;
#BACKGROUND:Arx Tyranni-bg.png;
#LYRICSPATH:;
#CDTITLE:GITADORA.png;
#MUSIC:Arx Tyranni.ogg;
#METERTYPE:DDR X;
#OFFSET:-9.541;
#SAMPLESTART:70.770;
#SAMPLELENGTH:12.000;
#SELECTABLE:YES;
#BPMS:0.000=210.000;
#STOPS:;
#BGCHANGES:;

//---------------dance-single - ----------------
#NOTES:
     dance-single:
     :
     Easy:
     5:
     0.275,0.307,0.162,0.209,0.000: // measure 1
2000
0000
3001
0000
,  // measure 2
1000
0000
0100
0000
,  // measure 3
0020
0000
0031
0000
,  // measure 4
0100
0000
0010
0000
,  // measure 5
2000
0000
3001
0000
,  // measure 6
1000
0100
1000
0000
,  // measure 7
0002
0000
1003
0000
,  // measure 8
0001
0010
0001
0000
,  // measure 9
0100
0000
0110
0000
,  // measure 10
0100
0000
0110
0000
,  // measure 11
1000
0000
1001
0000
,  // measure 12
1000
0000
1001
0000
,  // measure 13
0010
0000
0100
0000
,  // measure 14
1000
0000
0100
0000
,  // measure 15
1000
0000
0001
0000
,  // measure 16
0010
0000
0001
0000
,  // measure 17
0100
0000
0010
0000
,  // measure 18
1000
0000
0100
0000
,  // measure 19
1000
0000
0001
0000
,  // measure 20
0010
0000
0100
0000
,  // measure 21
1000
0000
0010
0000
,  // measure 22
1000
0000
0001
0000
,  // measure 23
0100
0000
0001
0000
,  // measure 24
0010
0000
0100
0000
,  // measure 25
0010
0000
0100
0000
,  // measure 26
1000
0000
0100
0000
,  // measure 27
2002
0000
0000
3003
,  // measure 28
0002
0000
0000
0000
,  // measure 29
1003
0100
1000
0000
,  // measure 30
0020
0000
0130
0000
,  // measure 31
0001
0010
0001
0000
,  // measure 32
0200
0000
0310
0000
,  // measure 33
1000
0001
1000
0000
,  // measure 34
0200
0000
1300
0000
,  // measure 35
0001
1000
0001
0000
,  // measure 36
0200
0000
0301
0000
,  // measure 37
0100
0010
0100
0000
,  // measure 38
0002
0000
1003
0000
,  // measure 39
0100
1000
0100
0000
,  // measure 40
0020
0000
0130
0000
,  // measure 41
0001
0010
0001
0000
,  // measure 42
1000
0001
1000
0000
,  // measure 43
0001
0000
1000
0000
,  // measure 44
0200
0000
0000
0300
,  // measure 45
0110
0000
0000
0000
,  // measure 46
0000
0000
0000
0000
,  // measure 47
1001
0000
0000
0000
,  // measure 48
0000
0000
0000
0000
,  // measure 49
1001
0000
0000
0000
,  // measure 50
0000
0000
0000
0000
,  // measure 51
0110
0000
0000
0000
,  // measure 52
0000
0000
0000
0000
,  // measure 53
0020
0000
0000
0000
,  // measure 54
0000
0000
0000
0000
,  // measure 55
0130
0000
0001
0000
,  // measure 56
1000
0100
0010
0000
,  // measure 57
0001
0000
1000
0000
,  // measure 58
0010
0100
0001
0000
,  // measure 59
0010
0000
0100
0000
,  // measure 60
1000
0100
0010
0000
,  // measure 61
0001
0000
1000
0000
,  // measure 62
0010
0100
0001
0000
,  // measure 63
1000
0000
0001
0000
,  // measure 64
0010
0100
1000
0000
,  // measure 65
0001
0000
1000
0000
,  // measure 66
0100
0010
0001
0000
,  // measure 67
0010
0000
0100
0000
,  // measure 68
1000
0010
0100
0001
,  // measure 69
1000
0000
1001
0000
,  // measure 70
1000
0000
1001
0000
,  // measure 71
0010
0000
0110
0000
,  // measure 72
0010
0000
0110
0000
,  // measure 73
0001
0000
1001
0000
,  // measure 74
0001
0000
1001
0000
,  // measure 75
0100
0000
0110
0000
,  // measure 76
0000
1000
0000
0000
0000
0001
0000
0000
,  // measure 77
1001
0000
0000
0110
,  // measure 78
0000
0000
0000
0100
0000
0000
0000
0000
,  // measure 79
1002
0000
0013
0000
,  // measure 80
0100
0010
0100
0000
,  // measure 81
2000
0000
3100
0000
,  // measure 82
0010
0100
0010
0000
,  // measure 83
0002
0000
0103
0000
,  // measure 84
0010
0100
0010
0000
,  // measure 85
2000
0000
3010
0000
,  // measure 86
0100
0010
0100
0000
,  // measure 87
0002
0000
1003
0000
,  // measure 88
0100
1000
0100
0000
,  // measure 89
0020
0000
0130
0000
,  // measure 90
0001
0100
0001
0000
,  // measure 91
0200
0000
0310
0000
,  // measure 92
1000
0010
1000
0000
,  // measure 93
0002
0000
0000
0000
,  // measure 94
0000
0000
0000
0000
,  // measure 95
2003
0000
0000
0000
,  // measure 96
3200
0000
0000
0000
,  // measure 97
0310
0000
0000
0010
0000
0000
0010
0000
,  // measure 98
0000
0010
0000
0000
0110
0000
0000
0000
,  // measure 99
0001
0000
0000
0001
0000
0000
2002
0000
,  // measure 100
0000
3003
0000
0000
;

//---------------dance-single - ----------------
#NOTES:
     dance-single:
     :
     Medium:
     10:
     0.505,0.537,0.356,0.255,0.000:
1000
0000
0001
0000
1000
0100
0010
0000
,
0100
0000
1000
0000
0010
0000
0100
0001
,
0010
0000
0100
0000
1000
0000
0010
0100
,
0001
1000
0100
0010
,
1001
0000
0010
0100
0010
0000
1000
0000
,
0100
0000
0001
0000
0100
0000
1000
0001
,
0020
0000
0000
0230
0000
0000
1300
0000
,
0002
0000
0000
1003
0000
0000
0000
0000
,
0001
1000
0000
0000
1100
0000
1100
0000
,
0010
0010
1001
0000
,
0010
0001
0000
0000
1001
0000
1001
0000
,
0100
0100
0110
0000
,
1001
0000
0000
1000
0000
0000
1000
0000
,
0001
0010
1000
0010
,
0001
0000
0000
0001
0000
0000
0001
0000
,
1000
0100
0001
0100
,
1000
0000
0000
1000
0000
0000
1000
0000
,
0001
0100
1000
0100
,
0001
0000
0000
0001
0000
0000
0001
0000
,
1000
0010
0001
0010
,
1000
0000
0000
1000
0000
0000
1000
0000
,
0001
0010
1000
0010
,
0001
0000
0000
0001
0000
0000
0001
0000
,
1000
0100
0001
0100
,
1000
0000
0000
1000
0000
0000
1000
0000
,
0001
0010
1000
0010
,
0011
0000
0000
0001
0000
0000
0001
0000
,
0100
0000
0010
0000
1000
0010
0000
0000
,
1001
0000
0001
0000
0100
0001
0000
1000
,
0000
0100
0000
0010
0000
0001
1000
0000
,
0001
0000
1000
0000
0100
1000
0000
0010
,
0000
0100
0000
0001
0000
1000
0001
0000
,
0201
0000
0320
0000
,
1030
0000
0001
0100
0000
0001
1000
0000
,
0010
0000
0100
0010
0000
1000
0000
0200
,
0000
0010
0310
0110
,
0100
0000
0001
0000
1000
0100
0000
0010
,
0000
0001
0000
0100
0000
0010
0100
0000
,
0001
0000
1000
0000
0100
1000
0000
0001
,
0000
0100
0000
0010
0000
0100
0001
0000
,
2001
0000
3002
0000
,
1003
0000
0100
1000
0000
0010
0100
0000
,
0010
0000
0000
0100
0000
0000
0010
0000
,
2002
0000
0000
3003
,
1100
0000
0000
0100
0000
0000
1100
0000
,
0000
0100
0000
0000
1100
0000
1000
0000
,
1001
0000
0000
0001
0000
0000
0101
0000
,
0000
0001
0000
0000
0101
0000
0100
0000
,
0110
0000
0000
0010
0000
0000
0011
0000
,
0000
0010
0000
0000
0011
0000
0001
0000
,
1001
0000
0000
1000
0000
0000
1010
0000
,
0000
1000
0000
0000
1010
0000
0010
0000
,
0220
0000
0000
0000
,
0000
0000
0000
0330
,
1001
0000
1000
0200
0000
0000
1300
0000
,
0010
0000
0100
0002
0000
0000
1003
0000
,
0001
0000
0010
0200
0000
0000
1300
0000
,
0001
0000
0100
0001
0000
0100
0001
0000
,
1001
0000
0001
0020
0000
0000
0130
0000
,
1000
0000
0001
0200
0000
0000
0310
0000
,
1000
0000
0100
2000
0000
0000
3010
0000
,
1000
0000
0100
0010
0000
0001
0010
0000
,
0110
0000
0100
1000
0000
0010
0100
0000
,
0001
0000
0010
0001
0000
0010
0100
0000
,
1000
0000
0001
0100
0000
0010
0100
0000
,
0001
0000
1000
0100
0000
0010
0100
0000
,
1001
0000
0001
0100
0000
0001
1000
0000
,
1100
0100
0110
0010
,
0010
0001
0000
0100
0010
0000
0110
0000
,
0100
1000
0000
0010
0100
0000
0000
0000
,
0001
1000
0000
0100
1000
0000
1100
0000
,
0010
0100
0000
0001
0010
0000
0000
0000
,
0100
0001
0000
0010
0100
0000
0110
0000
,
0100
1000
0100
1000
0010
0000
0000
0000
,
1000
0001
0000
0010
0100
0000
0110
0000
,
0000
0100
1000
0100
0000
0010
0001
0010
,
0100
0000
0000
0100
0000
0000
1001
0000
,
0000
1000
0000
0001
0000
0000
0100
0000
,
0120
0000
0000
1030
0000
0100
0010
0000
,
0002
0000
0000
0103
0000
0010
1000
0000
,
0200
0000
0000
0310
0000
0001
1000
0000
,
0200
0000
0000
1300
0000
0010
0100
0000
,
0002
0000
0000
1003
0000
0010
0100
0000
,
0002
0000
0000
0013
0000
0100
1000
0000
,
0002
0000
0000
0103
0000
0010
1000
0000
,
0200
0000
0000
0310
0000
0001
1000
0000
,
0020
0000
0000
0130
0000
0001
0010
0000
,
0100
0010
0100
1000
0000
0100
1000
0000
,
0020
0000
0000
0130
0000
0001
0010
0000
,
0100
1000
0100
0010
0000
0100
0010
0000
,
0002
0000
0000
0103
0000
0010
1000
0000
,
0100
0010
0100
0010
0100
0010
0100
0000
,
0220
0000
0000
0000
,
0000
0000
0000
0330
,
0100
0000
0000
0001
0000
0000
0010
0000
,
0100
0000
0000
1000
0000
0000
0010
0000
,
0110
0000
0000
0100
0000
0000
0101
0000
,
0000
0001
0000
0000
1001
0000
1001
0000
,
1100
0000
0000
0100
0000
0000
0220
0000
,
0000
0330
0000
0000
;

//---------------dance-single - ----------------
#NOTES:
     dance-single:
     :
     Hard:
     13:
     0.651,0.652,0.611,0.425,0.000:
2001
0000
0000
3001
0100
0001
1000
0100
,
0010
0100
0010
0100
0000
1000
0010
1000
,
0001
0100
0001
1000
0001
1000
0100
0010
,
0100
0010
0001
1000
0100
0010
0001
1000
,
0001
1001
1001
0101
,
1010
0000
1100
0000
0010
0001
0010
0100
,
2000
0000
0000
3002
0000
0000
0103
0000
,
0110
0000
0000
0110
0000
0000
0000
0000
,
0010
0100
0000
0001
1000
0000
1001
0000
,
0001
1000
0100
1000
0100
0000
0000
0000
,
0010
0001
0000
0100
0010
0000
0110
0000
,
0001
0100
0001
0100
0010
0000
0000
0000
,
2001
0000
0000
3002
0000
0000
1003
0010
,
1000
0000
0100
0010
0100
0000
0010
0000
,
0210
0000
0000
0320
0000
0000
0032
0000
,
0000
1003
0001
0100
0001
0100
0001
0000
,
1002
0000
0000
2003
0000
0000
3100
1000
,
0100
0000
0010
0100
0010
0000
0100
0000
,
0210
0000
0000
0320
0000
0000
0230
0000
,
0000
0301
1000
0100
1000
0100
0010
0000
,
0101
0000
0000
1001
0000
0000
0010
1000
,
0010
0000
0100
0001
0010
0000
0100
0000
,
1001
0000
0000
1100
0000
0000
0010
0100
,
0010
0000
1000
0100
0010
0000
0001
0000
,
0101
0000
0000
0110
0000
0000
0100
0001
,
0100
0000
0001
0010
0100
0000
1000
0000
,
1010
0000
0000
1010
0000
0000
0010
1000
,
0001
0010
0100
1000
0001
0100
0000
0000
,
0110
0000
0020
0000
1030
0002
0000
0203
,
0000
2300
0000
3200
0000
0301
1000
0000
,
0000
0000
0210
0000
0301
2000
0000
3020
,
0000
0032
0000
0023
0000
1030
0001
0010
,
0200
1000
2300
0001
,
3002
0000
0103
0001
0000
0010
0100
0000
,
1000
0001
0010
0100
0000
1100
0000
1002
,
0000
1000
1000
1003
,
0110
0000
0020
0000
1030
0002
0000
0203
,
0000
2300
0000
3200
0000
0301
1000
0000
,
0000
0000
0120
0000
0031
2000
0000
3020
,
0000
0032
0000
0023
0000
1030
0001
0010
,
0200
1000
0320
0001
,
0130
0000
1000
0010
0000
1000
0001
0000
,
0011
0000
0000
0110
0000
0000
1100
0000
,
0220
0000
0000
0330
,
1001
0000
0000
1001
0000
0000
0110
0000
,
0000
0110
0000
0000
0011
0000
0011
0000
,
1001
0000
0000
1001
0000
0000
0110
0000
,
0000
0110
0000
0000
1010
0000
1010
0000
,
1001
0000
0000
1001
0000
0000
0101
0000
,
0000
0101
0000
0000
0110
0000
0110
0000
,
1100
0000
0000
1100
0000
0000
1001
0000
,
0000
1001
0000
0000
0101
0000
0101
0000
,
2002
0000
0000
0000
,
0000
0000
0000
3003
0000
0001
0010
0100
,
1000
0000
0001
0100
0000
0001
1000
0100
,
0010
0001
1000
0000
1000
0001
0010
0000
,
0001
0010
0100
0000
0100
0010
0001
0000
,
2001
0000
0000
3010
0000
0000
0100
0001
,
1000
0000
0010
0100
0000
0001
1000
0100
,
0010
0000
0001
1000
0010
0000
0010
1000
,
0001
0000
1000
0100
0010
0000
0010
0100
,
2000
0000
0000
3001
0000
0000
0100
0000
,
0110
0000
0100
1000
0000
0001
1000
0100
,
0010
0001
0100
0000
0100
0001
0010
0000
,
0001
1000
0010
0000
0010
1000
0001
0000
,
0200
0000
0000
0301
0000
1000
0100
0010
,
0001
0000
0100
0001
0000
1000
0001
0000
,
1000
1100
0100
1001
,
1000
0010
0000
0100
0010
0000
0110
0000
,
0100
0010
0001
0010
0100
0000
0000
0000
,
1000
0001
0000
0010
0100
0000
0110
0000
,
0010
0100
1000
0100
0010
0000
0000
0000
,
0001
0010
0000
0100
0010
0000
0110
0000
,
0010
1000
0100
1000
0010
0000
0000
0000
,
0100
0010
0000
1000
0001
0000
1001
0000
,
0000
0001
0100
1000
0000
0001
0010
1000
,
0001
0010
0100
1000
0000
0000
1000
0100
,
0010
0001
0000
0011
0000
0000
0110
0000
,
1010
0000
0020
0100
0000
0130
0001
0000
,
0010
0000
0200
1000
0000
1300
0010
0000
,
0100
0000
0002
1000
0000
1003
0010
0000
,
0100
0010
0100
0001
0000
0001
1000
0100
,
0010
0000
0200
1000
0000
1300
0001
0000
,
0100
0000
0002
1000
0000
1003
0100
0000
,
0010
0000
0002
0100
0000
0103
0010
0000
,
1000
0100
1000
0001
0000
0001
1000
0000
,
0001
1000
0100
0010
0000
0010
0100
0000
,
1000
0001
0100
0010
0000
0010
1000
0000
,
0001
0100
1000
0100
0000
0001
1000
0000
,
0001
0010
1000
0010
0000
0001
1000
0000
,
0100
0001
0100
1000
0000
0010
0100
0000
,
0001
0010
1000
0010
0001
0010
1000
0010
,
0002
0000
0000
0000
,
0000
0000
0000
0003
,
1001
0000
0000
1000
0000
0000
1000
0000
,
0001
0000
0000
0001
0000
0000
0101
0000
,
1001
0000
0000
1001
0000
0000
1100
0000
,
0000
1100
0000
0000
0110
0000
0110
0000
,
0101
0000
0000
0110
0000
0000
2002
0000
,
0000
3003
0000
0000
;

//---------------dance-single - ----------------
#NOTES:
     dance-single:
     :
     Challenge:
     16:
     0.815,0.959,0.402,0.224,0.247:
1002
0000
0000
0000
0000
0000
1003
0001
1000
0000
0010
0000
0100
0000
0010
0000
,
1000
0100
0001
0100
0000
0100
1000
0001
,
0100
0001
0010
1000
0010
0001
1000
0100
,
1000
0000
0001
0100
0001
0000
1000
0000
0010
0000
0001
0000
0010
0000
1000
0000
,
1001
0000
0001
0010
0000
0010
0100
0000
,
0100
1000
0001
0100
0001
1000
0100
0010
,
0100
0000
1000
0010
0000
0010
0100
0000
,
1001
0000
0000
0000
0000
0000
1001
0000
0000
0000
1000
0001
1000
0000
0000
0000
,
0100
0010
0000
0001
0101
0000
0110
0000
,
1000
0100
0010
0001
1001
0000
0000
0000
,
0001
0010
0000
0100
0110
0000
0110
0000
,
1000
0010
0100
0001
1000
0100
1000
0100
,
1000
0001
0100
2000
0000
3100
0001
1000
,
0100
1000
0100
0000
0010
0000
0100
0000
1000
0000
0001
0000
0100
0000
0001
0000
,
1000
0000
0200
1000
0000
1300
0010
0000
,
0100
0010
1000
0100
0010
0001
1000
0010
,
0100
0001
0100
2000
0000
3100
0001
1000
,
0010
0100
0010
0000
1000
0000
0001
0000
0010
0000
0100
0010
0001
0000
0100
0000
,
0001
0000
0200
0010
0000
0310
1000
0000
,
0001
0000
0010
0000
0100
0000
1000
0000
0001
0100
0001
0000
1000
0000
0001
0000
,
1000
0010
0001
0020
0000
1030
0001
0010
,
0001
0000
1000
0000
0010
0000
1000
0000
0001
0000
0010
0100
1000
0000
0010
0000
,
1000
0000
0200
0010
0000
0310
0001
0000
,
0100
0010
0100
0010
1000
0100
0010
0001
,
1000
0100
0001
0200
0000
1300
0010
0100
,
0010
0000
1000
0000
0100
0000
1000
0000
0010
0000
0100
0001
0010
0000
0100
0000
,
1001
0000
0000
1010
0000
0000
1001
0010
,
0100
1000
0001
0010
0100
0110
0000
0000
,
1001
0000
0002
0000
0100
0203
0000
0010
,
0000
1000
0000
0010
0000
1300
0001
0000
,
0010
0000
0200
0000
1000
2300
0000
0010
,
0000
0100
0000
0010
0000
3100
0010
0001
,
1000
0010
0001
0000
0010
1000
0001
0000
,
0010
0100
2000
0010
0000
3010
1000
0000
,
0100
0010
0001
1001
0000
1010
0000
0110
,
0000
1001
1001
1001
,
0110
0000
0020
0000
0001
0032
0000
1000
,
0000
0010
0000
1000
0000
0013
0100
0000
,
1000
0000
0020
0000
0100
0230
0000
0001
,
0000
0010
0000
0001
0000
0310
1000
0100
,
0010
0001
0100
0000
0100
0010
0100
0000
,
0010
1000
0100
0010
0000
0001
0100
0000
,
0001
0000
1000
0001
1000
0000
0001
0000
0100
0010
0100
0000
0010
0000
1000
0001
,
1000
0000
0001
1000
0001
0000
0010
0000
0100
0000
1000
0000
0010
0000
0100
0000
,
0110
0000
0000
0011
0000
0000
1100
0000
,
0000
1001
0000
0000
0110
0000
0110
0000
,
1001
0010
0100
1000
0001
0010
0100
1000
,
0001
0010
0100
1000
1001
0000
1001
0000
,
0100
0010
0100
0000
0001
0000
0010
0000
0100
0000
1000
0000
0010
0100
0010
0000
,
1000
0100
0010
0001
1001
0000
1001
0000
,
1000
0001
1000
0000
0100
0000
0010
0000
0001
0000
1000
0000
0010
0100
0010
0000
,
1000
0100
0010
0001
1001
0000
1001
0000
,
0110
0000
0100
0010
0001
1000
0000
1000
,
0000
0000
1000
0000
0000
0000
0010
0100
0010
0000
0100
0000
0010
0000
0100
0000
,
0001
0100
1000
0100
0000
0001
1000
0100
,
0010
0001
1000
0000
0001
0100
1000
0000
,
0100
0001
1000
0000
0100
0010
0001
0000
,
0100
0001
1000
0100
0000
0010
0100
1000
,
0001
0000
0200
0001
0000
0301
1000
0100
,
0010
0000
0001
0010
1000
0000
0010
0001
,
1000
0000
0100
0010
0001
0000
0100
0001
,
1000
0100
0020
0001
0000
0031
1000
0000
,
1001
0000
0001
0100
0000
0001
1000
0100
,
0001
0100
1000
0000
0010
1000
0100
0000
,
0001
0100
1000
0000
0100
0010
0001
0010
,
0100
0000
2000
0001
0000
3001
1000
0100
,
0010
0000
0002
0100
0000
0103
0010
0000
,
1000
0100
0010
0100
1000
0100
0010
0100
,
1000
0000
0010
0000
0000
0000
0100
0010
0100
0000
0000
0000
0110
0000
0000
0000
,
1000
0100
0010
0001
1001
0000
0000
0000
,
0010
0000
0100
0000
0000
0000
0001
1000
0001
0000
0000
0000
1001
0000
0000
0000
,
0001
0000
0000
0100
0000
0000
0010
0000
0000
1000
0000
0000
0010
0000
0100
0000
0010
0000
0100
0000
0001
0000
0010
0000
,
0100
0000
1000
0000
0000
0000
0010
0100
0010
0000
0000
0000
0110
0000
0000
0000
,
0001
1000
0010
0100
0101
0000
0000
0000
,
1000
0000
0001
0000
0000
0000
0010
0100
0010
0000
0000
0000
0110
0000
0000
0000
,
0000
1010
1000
0001
0000
1001
0001
0010
,
0100
0100
1000
0010
0000
0000
0100
0100
,
0001
0010
0000
0110
0000
0000
1100
0000
,
1001
0000
0001
0100
0000
0001
1000
0000
,
0010
0100
0010
0000
0100
0000
0001
0000
0010
0000
0100
0000
0010
0000
0001
0000
,
0100
0000
0002
1000
0000
1003
0100
0010
,
0001
1000
0100
0020
0000
0000
0130
0000
,
1000
0001
0010
0100
1000
0100
1000
0010
,
0100
0001
0010
0100
1000
0002
0000
0000
,
1003
0001
1000
0000
0010
0000
0001
0000
0010
0000
1000
0000
0001
0000
0010
0000
,
0100
1000
0002
0100
0000
0103
0010
0000
,
0100
0001
0100
0001
0100
0001
1000
0100
1000
0100
1000
0100
,
0010
0100
0010
0100
0010
0100
0010
0001
0010
0001
0010
0001
,
0100
0010
0100
0010
0100
0010
1000
0100
1000
0100
1000
0100
,
1000
0001
0010
0100
1000
0001
0010
0100
1000
0001
1000
0001
,
2000
0000
3001
0010
0100
1000
0001
0100
,
0001
0010
1000
0010
0001
0010
1000
0010
,
0002
0000
1000
0000
,
1000
0000
1000
0000
,
1003
0100
1000
0100
0010
0100
0010
0100
,
1000
0010
1000
0010
0100
0001
0100
0001
,
1000
0001
1000
0000
0010
0000
0100
0010
0100
0000
0001
0000
0010
0001
0010
0000
,
0100
0000
1000
0010
1000
0000
0000
0000
1001
0000
0000
0000
1001
0000
0000
0000
,
0110
0100
0010
1001
1000
0001
0220
0000
,
0000
0330
0000
0000
;

//---------------dance-double - ----------------
#NOTES:
     dance-double:
     :
     Easy:
     6:
     0.314,0.345,0.232,0.255,0.000:
20000000
00000000
30010000
10000000
,
00010000
00000000
01000000
00000000
,
00002000
00000000
00013000
00000000
,
00000010
00000100
00000010
00000100
,
00000002
00000000
00001003
00000000
,
00000001
00000010
00000001
00000000
,
00020000
00000000
00031000
00000000
,
01100000
00000000
01100000
00000000
,
10000000
00000000
10010000
00000000
,
10000000
00000000
10010000
00000000
,
00100000
00000000
01100000
00000000
,
00100000
00000000
01100000
00000000
,
00200000
00000000
01300000
10000000
,
01000000
10000000
00001000
00000000
,
00020000
00000000
00031000
00000000
,
00010000
00000000
00000100
00000000
,
00000020
00000000
00000031
00000000
,
00000100
00000010
00000100
00000010
,
00010000
00000000
00001000
00000000
,
00100000
00000000
00000000
00000000
,
00010000
10000000
00010000
00000000
,
00100000
00010000
00100000
00010000
,
01000000
00000000
00100000
00000000
,
01000000
00000000
00010000
00000000
,
00001000
00000010
00001000
00000000
,
00000100
00000010
00000100
00000010
,
00000002
00000000
00000000
00000000
,
00002000
00000000
00000000
00003003
,
00000001
00001000
00000001
00000000
,
00000200
00000000
00000320
00000000
,
00010030
00010000
00010000
00000000
,
00002000
00000000
00203000
00000000
,
01300000
10000000
01000000
00000000
,
20000000
00000000
30200000
00000000
,
01300000
00000000
01100000
00000000
,
10020000
00000000
10030000
00000000
,
00100000
01000000
00100000
00000000
,
20000000
00000000
30200000
00000000
,
01300000
00010000
01000000
00000000
,
00020000
00000000
00032000
00000000
,
00003100
00000010
00000100
00000000
,
00001000
00000001
00001000
00000000
,
00001001
00000000
00000001
00000000
,
00000220
00000000
00000000
00000330
,
00000110
00000000
00000000
00000000
,
00000000
00000000
00000000
00000000
,
00011000
00000000
00000000
00000000
,
00000000
00000000
00000000
00000000
,
01100000
00000000
00000000
00000000
,
00000000
00000000
00000000
00000000
,
10010000
00000000
00000000
00000000
,
00000000
00000000
00000000
00000000
,
00200000
00000000
00000000
00000000
,
00000000
00000000
00000000
00000000
,
01300000
00000000
00010000
00000000
,
10000000
01000000
00100000
00000000
,
00010000
00000000
00001000
00000000
,
00000010
00000100
00000001
00000000
,
00001001
00000000
00000001
00000000
,
00000010
00000100
00001000
00000000
,
00010000
00000000
01000000
00000000
,
00100000
10000000
00010000
00000000
,
10010000
00000000
10000000
00000000
,
00100000
01000000
00001000
00000000
,
00010000
00000000
00000100
00000000
,
00000010
00000001
00001000
00000000
,
00000110
00000000
00000010
00000000
,
00001000
00000100
00000010
00000001
,
00010000
00000000
00011000
00000000
,
00010000
00000000
00011000
00000000
,
00100000
00000000
01100000
00000000
,
00100000
00000000
01100000
00000000
,
10000000
00000000
10010000
00000000
,
10000000
00000000
10010000
00000000
,
01000000
00000000
01100000
00000000
,
00000000
01000000
00000000
00000000
00000000
00001000
00000000
00000000
,
00011000
00000000
00000000
00010001
,
00000000
00000000
00000000
00000001
00000000
00000000
00000000
00000000
,
00000210
00000000
00000310
00000000
,
00010000
00000100
00010000
00000100
,
00002000
00000000
00013000
00000000
,
00100000
01000000
00100000
01000000
,
20000000
00000000
31000000
00000000
,
00100000
00010000
00100000
00010000
,
02000000
00000000
03100000
00000000
,
01000000
00100000
01000000
00000000
,
00001000
00010000
00001000
00010000
,
00000010
00000100
00000010
00000100
,
00000001
00000010
00000001
00000010
,
00000100
00010000
00000100
00010000
,
00002000
00000000
00013000
00000000
,
01000000
00100000
01000000
00100000
,
20000000
00000000
00000000
00000000
,
00000000
00000000
00000000
30000000
,
10020000
00000000
00000000
00000000
,
20030000
00000000
00000000
00000000
,
30100000
00000000
00000000
00100000
00000000
00000000
00100000
00000000
,
00000000
00100000
00000000
00000000
01100000
00000000
00000000
00000000
,
00001000
00000000
00000000
00001000
00000000
00000000
00022000
00000000
,
00000000
00033000
00000000
00000000
;

//---------------dance-double - ----------------
#NOTES:
     dance-double:
     :
     Medium:
     10:
     0.515,0.614,0.449,0.193,0.000:
10020000
00000000
00000000
00000000
10030000
01000000
00100000
00000000
,
00001000
00000000
01000000
00001000
00000000
00000000
00010000
00001000
,
00010000
00000000
00000100
00000000
00000010
00000000
00000001
00000100
,
00000010
00000100
00000001
00000010
,
00000110
00000000
00000000
00000100
00000000
00000000
00010000
00000000
,
00001000
00000000
00100000
00000000
01000000
00000000
10000000
00010000
,
00200000
00000000
00000000
00302000
00000000
00000000
00013000
00000000
,
00010010
00000000
00000000
00000110
00000000
00000000
00000000
00000000
,
00000010
00000001
00000000
00000000
00000110
00000000
00000110
00000000
,
00010000
00001000
01001000
00000000
,
00100000
10000000
00000000
00000000
10010000
00000000
10010000
00000000
,
01000000
00001000
00011000
00000000
,
00010100
00000000
00000000
00000100
00000000
00000000
00000100
00000000
,
00001000
00000010
00000001
00000010
,
00010000
00000000
00000000
00010000
00000000
00000000
00001000
00000000
,
10000000
01000000
00010000
01000000
,
10000000
00000000
00000000
10000000
00000000
00000000
10000000
00000000
,
00010000
01000000
10000000
01000000
,
00001000
00000000
00000000
00001000
00000000
00000000
00001000
00000000
,
00010000
00000010
00000001
00000010
,
00010000
00000000
00000000
00010000
00000000
00000000
00010000
00000000
,
00001000
00100000
10000000
00100000
,
00010000
00000000
00000000
00010000
00000000
00000000
00010000
00000000
,
10000000
01000000
00010000
01000000
,
10000000
00000000
00000000
10000000
00000000
00000000
10000000
00000000
,
00010000
00100000
10000000
00100000
,
00101000
00000000
00000000
00011000
00000000
00000000
00010010
00000000
,
00000010
00000100
00000010
00000100
00000010
00000100
00000000
00000000
,
00001001
00000000
00000001
00000000
00000100
00000001
00000000
00000100
,
00000000
00000100
00000000
00000100
00000000
00000010
00000100
00000000
,
00000010
00000000
00010000
00000000
00001000
01000000
00000000
00100000
,
00000000
00100000
00000000
00100000
00000000
01000000
00100000
00000000
,
02010000
00000000
03200000
00000000
,
10300000
00000000
00010000
01000000
00000000
00001000
00100000
00000000
,
00001000
00010000
00000000
00000010
00000000
00000010
00000000
00000110
,
00000000
00000100
00000100
00000100
,
00001001
00000000
00001000
00000000
00000010
00010000
00000000
00001000
,
00000000
00001000
00000000
00001000
00000000
00100000
01000000
00000000
,
10000000
00000000
00010000
00000000
01000000
00010000
00000000
10000000
,
00000000
10000000
00000000
10000000
00000000
00100000
01000000
00000000
,
01002000
00000000
00023000
00000000
,
00030100
00000000
00000010
00000001
00000000
00000010
00000100
00000000
,
00011000
00000000
00000000
01001000
00000000
00000000
01100000
00000000
,
20020000
00000000
00000000
30030000
,
11000000
00000000
00000000
01000000
00000000
00000000
11000000
00000000
,
00000000
01000000
00000000
00000000
11000000
00000000
01000000
00000000
,
01001000
00000000
00000000
00001000
00000000
00000000
01001000
00000000
,
00000000
00001000
00000000
00000000
00011000
00000000
00010000
00000000
,
00010010
00000000
00000000
00000010
00000000
00000000
00000110
00000000
,
00000000
00000010
00000000
00000000
00000110
00000000
00000100
00000000
,
00001100
00000000
00000000
00001000
00000000
00000000
00001100
00000000
,
00000000
00001000
00000000
00000000
00001100
00000000
00000100
00000000
,
00000220
00000000
00000000
00000000
,
00000000
00000000
00000000
00000330
,
00001001
00000000
00000001
00002000
00000000
00000000
00003100
00000000
,
00001000
00010000
01000000
00100000
,
10000000
00001000
01000000
00001000
,
00010000
00000000
00000100
00000010
00000000
00000001
00000100
00000000
,
00000110
00000000
00000010
00020000
00000000
00000000
00031000
00000000
,
01000000
00100000
01000000
00001000
,
00100000
01000000
10000000
00100000
,
10000000
00000000
01000000
00100000
00000000
00010000
00100000
00000000
,
00011000
00000000
00010000
00000010
00000000
00000100
00000010
00000000
,
00001000
00000001
00001000
00000000
00000100
00000000
00000010
00000000
,
00000001
00000100
00000010
00001000
,
00010000
00000000
01000000
00100000
00000000
10000000
01000000
00000000
,
10010000
00000000
00010000
01000000
00000000
00010000
10000000
00000000
,
11000000
01000000
01100000
00100000
,
00001000
00010000
00000000
00001000
00010000
00000000
00010010
00000000
,
00000010
00000100
00000010
00000100
00000010
00000000
00000000
00000000
,
00000100
00000001
00000000
00000100
00000001
00000000
00001001
00000000
,
00001000
00000100
00001000
00000100
00001000
00000000
00000000
00000000
,
00000100
00010000
00000000
00000100
00010000
00000000
00011000
00000000
,
00001000
01000000
00001000
01000000
00001000
00000000
00000000
00000000
,
00100000
01000000
00000000
10000000
01000000
00000000
11000000
00000000
,
00000000
10000000
01000000
10000000
00000000
00100000
01000000
00100000
,
01000000
00000000
00000000
01000000
00000000
00000000
10010000
00000000
,
00000000
10000000
00000000
00001000
00000000
00000000
00010000
00000000
,
00012000
00000000
00000000
00013000
00000000
00000010
00000100
00000000
,
00000002
00000000
00000000
00000013
00000000
00000100
00000010
00000000
,
00000200
00000000
00000000
00010300
00000000
00001000
00100000
00000000
,
02000000
00000000
00000000
13000000
00000000
00100000
01000000
00000000
,
00020000
00000000
00000000
10030000
00000000
00001000
01000000
00000000
,
00002000
00000000
00000000
00013000
00000000
00000100
00000010
00000000
,
00000002
00000000
00000000
00000103
00000000
00000001
00001000
00000000
,
00000200
00000000
00000000
00010300
00000000
00001000
01000000
00000000
,
00100000
01000000
00100000
00000000
10000000
01000000
00100000
00000000
,
00001000
01000000
00001000
00000000
00010000
00000010
00000100
00000000
,
00000001
00001000
00000001
00000000
00000010
00000100
00001000
00000000
,
00010000
00000100
00010000
00000000
00001000
01000000
00100000
00000000
,
20010000
00000000
00000000
30010000
00000000
10000000
01000000
00100000
,
00001000
00010000
00001000
00010000
00001000
00010000
00001000
00000000
,
00010002
00000000
00000000
00000000
,
00000000
00000000
00000000
00000003
,
00000110
00000000
00000000
00000010
00000000
00000000
00000100
00000000
,
00010000
00000000
00000000
00001000
00000000
00000000
00100000
00000000
,
01100000
00000000
00000000
01000000
00000000
00000000
01010000
00000000
,
00000000
00010000
00000000
00000000
10010000
00000000
10010000
00000000
,
01001000
00000000
00000000
00011000
00000000
00000000
00020020
00000000
,
00000000
00030030
00000000
00000000
;

//---------------dance-double - ----------------
#NOTES:
     dance-double:
     :
     Hard:
     13:
     0.649,0.652,0.495,0.495,0.000:
10010000
00000000
00000000
10000000
00100000
10000000
01000000
00100000
,
00001000
00010000
00001000
00010000
00000000
00000010
00000100
00000010
,
00000100
00000001
00000010
00001000
00000010
00000001
00001000
00000010
,
00000100
00000010
00000100
00000001
00000100
00001000
00000100
00000001
,
00000010
00000200
00020300
00032000
,
02003000
00000000
03100000
00000000
10000000
01000000
00010000
01000000
,
20000000
00000000
00000000
30200000
00000000
00000000
01300000
00000000
,
01001000
00000000
00000000
00011000
00000000
00000000
00000000
00000000
,
00000010
00000100
00000000
00000001
00000010
00000000
00000011
00000000
,
00000100
00010000
00001000
01000000
00100000
00000000
00000000
00000000
,
10000000
00100000
00000000
10000000
00010000
00000000
10010000
00000000
,
00100000
01000000
00010000
00001000
00000100
00000000
00000000
00000000
,
00000210
00000000
00000000
00000320
00000000
00000000
00000130
00000001
,
00000010
00000000
00000100
00000010
00000100
00000000
00010000
00001000
,
02000000
00000000
00000000
03200000
00000000
00000000
02300000
00000000
,
00000000
03010000
10000000
01000000
10000000
01000000
00100000
00000000
,
00012000
00000000
00000000
00023000
00000000
00000000
00030100
00000010
,
00000001
00000000
00000100
00000010
00000100
00000000
00000010
00010000
,
00002000
00000000
00000000
02003000
00000000
00000000
03200000
00000000
,
00000000
10300000
01000000
00100000
01000000
00100000
00001000
00000000
,
00010020
00000000
00000000
00000230
00000000
00000000
00000301
00000010
,
00000100
00000000
00010000
00000010
00010000
00000000
00001000
00100000
,
02000000
00000000
00000000
23000000
00000000
00000000
30010000
00000000
,
10000000
00100000
01000000
00100000
10000000
01000000
00100000
00000000
,
01002000
00000000
00000000
00023000
00000000
00000000
00030100
00000010
,
00000100
00000000
00001000
00000010
00000100
00000000
00000001
00000000
,
00001001
00000000
00000000
00001001
00000000
00000000
00000010
00000100
,
00010000
00001000
00100000
01000000
00100000
00010000
00000000
00000000
,
10010000
00000000
20000000
00000000
31000000
00200000
00000000
00320000
,
00000000
00032000
00000000
00003020
00000000
00000130
00000001
00000000
,
00000000
00000000
00002001
00000000
00003010
00000200
00000000
00000302
,
00000000
00020003
00000000
00032000
00000000
00103000
01000000
10000000
,
00200000
01000000
02300000
00100000
,
03002000
00000000
00013000
00001000
00000000
00010000
00000010
00000000
,
00000100
00000001
00000000
00000010
00000000
00000100
00000000
00020000
,
00000000
00031000
01001000
01001000
,
10001000
00000000
20000000
00000000
31000000
00200000
00000000
00320000
,
00000000
02030000
00000000
03002000
00000000
00013000
00000100
00000000
,
00000000
00000000
00012001
00000000
00003010
00020000
00000000
00032000
,
00000000
00203000
00000000
02300000
00000000
13000000
00100000
10000000
,
00020000
01000000
02030000
00100000
,
03100000
00000000
10000000
01000000
00000000
10000000
00010000
00000000
,
01010000
00000000
00000000
10001000
00000000
00000000
00011000
00000000
,
00020020
00000000
00000000
00030030
,
00000110
00000000
00000000
00000110
00000000
00000000
00000011
00000000
,
00000000
00000011
00000000
00000000
00010010
00000000
00010010
00000000
,
00011000
00000000
00000000
00011000
00000000
00000000
01001000
00000000
,
00000000
01001000
00000000
00000000
01100000
00000000
01100000
00000000
,
11000000
00000000
00000000
11000000
00000000
00000000
01100000
00000000
,
00000000
01100000
00000000
00000000
01001000
00000000
01001000
00000000
,
00011000
00000000
00000000
00011000
00000000
00000000
00010100
00000000
,
00000000
00010100
00000000
00000000
00000110
00000000
00000110
00000000
,
00000022
00000000
00000000
00000000
,
00000000
00000000
00000000
00000033
00000000
00000001
00000010
00000100
,
00001000
00000000
00010000
00000100
00000000
00010000
00000100
00100000
,
01000000
10000000
00100000
00000000
01000000
00100000
01000000
00000000
,
00100000
10000000
00010000
00000000
00010000
10000000
00001000
00000000
,
00011000
00000000
00000000
00010010
00000000
00000000
00000010
00000100
,
00000001
00000000
00000100
00000001
00000000
00000010
00000100
00001000
,
00010000
00000000
00100000
01000000
10000000
00000000
10000000
01000000
,
00100000
00000000
01000000
10000000
00001000
00000000
00001000
00010000
,
00000020
00000000
00000000
00000230
00000000
00000000
00000310
00000000
,
00001001
00000000
00001000
00000010
00000000
00010000
00001000
00100000
,
01000000
10000000
00010000
00000000
00010000
00100000
00001000
00000000
,
00010000
00000100
00000010
00000000
00000010
00000100
00010000
00000000
,
00000002
00000000
00000000
00000103
00000000
00000010
00010000
00000100
,
00000010
00000000
00000001
00000100
00000000
00000001
00001000
00000000
,
00000100
00000001
00000100
00010000
,
00001000
10000000
00000000
01000000
10000000
00000000
10010000
00000000
,
00010000
10000000
00100000
01000000
00001000
00000000
00000000
00000000
,
00010000
00000010
00000000
00010000
00000001
00000000
00001001
00000000
,
00001000
00000100
00000010
00000100
00010000
00000000
00000000
00000000
,
00001000
01000000
00000000
00100000
01000000
00000000
01100000
00000000
,
10000000
01000000
00100000
00010000
00001000
00000000
00000000
00000000
,
00000010
00000100
00000000
00000001
00000100
00000000
00000110
00000000
,
00000000
00000100
00000010
00001000
00000000
00010000
01000000
00100000
,
10000000
01000000
00100000
01000000
00000000
00000000
10000000
00100000
,
01000000
00010000
00000000
00001000
00000000
00000000
00000100
00000000
,
00001001
00000000
00000010
00000200
00000000
00000310
00000100
00000000
,
00000001
00000000
00000010
00000002
00000000
00000013
00000100
00000000
,
00010000
00000000
00001000
02000000
00000000
03001000
10000000
00000000
,
01000000
00100000
00010000
00001000
00000000
00000010
00000100
00000001
,
00000010
00000000
00000001
00002000
00000000
00003001
00010000
00000000
,
00001000
00000000
00100000
02000000
00000000
03100000
00010000
00000000
,
10000000
00000000
00100000
02000000
00000000
03100000
10000000
00000000
,
01000000
00100000
00010000
00001000
00000000
00000010
00001000
00000000
,
00000100
00000010
00000001
00000100
00000000
00000001
00001000
00000000
,
00000100
00010000
00001000
00100000
00000000
01000000
00100000
00000000
,
00010000
00100000
01000000
10000000
00000000
00001000
01000000
00000000
,
00001000
00010000
00000100
00000010
00000000
00000001
00000100
00000000
,
00000010
00010000
00001000
00100000
00000000
01000000
00100000
00000000
,
00010000
10000000
01000000
10000000
00010000
10000000
01000000
10000000
,
00002000
00000000
00000000
00000000
,
00000000
00000000
00000000
00003000
,
00011000
00000000
00000000
00010000
00000000
00000000
00000010
00000000
,
00000100
00000000
00000000
00000001
00000000
00000000
00000100
00000000
,
00000110
00000000
00000000
00010010
00000000
00000000
00011000
00000000
,
00000000
01001000
00000000
00000000
01100000
00000000
01100000
00000000
,
11000000
00000000
00000000
00101000
00000000
00000000
00022000
00000000
,
00000000
00033000
00000000
00000000
;

//---------------dance-double - ----------------
#NOTES:
     dance-double:
     :
     Challenge:
     16:
     0.805,0.959,0.441,0.155,0.251:
20010000
00000000
00000000
00000000
00000000
00000000
31000000
00100000
01000000
00000000
10000000
00000000
01000000
00000000
10000000
00000000
,
00100000
01000000
00001000
00010000
00000000
00010000
00000010
00000001
,
00000010
00010000
00000100
00000010
00000001
00000010
00000100
00010000
,
00000001
00000000
00000100
00000001
00000100
00000000
00000001
00000000
00000010
00000000
00000100
00000000
00001000
00000000
00010000
00000000
,
00011000
10001000
11000000
00011000
,
00010000
01000000
00100000
00010000
00100000
01000000
00010000
10000000
,
01000000
00000000
10000000
00100000
00000000
00100000
01000000
00000000
,
01100000
00000000
00000000
00000000
00000000
00000000
10010000
00000000
00000000
00000000
01000000
00100000
01000000
00000000
00000000
00000000
,
00001000
00000000
00010000
00000000
00000000
00000000
00000010
00000100
00000010
00000000
00000000
00000000
00000110
00000000
00000000
00000000
,
00000100
00000010
00000001
00000100
00000110
00000000
00000000
00000000
,
00001000
00000000
00010000
00000000
00000000
00000000
01000000
00100000
01000000
00000000
00000000
00000000
01100000
00000000
00000000
00000000
,
01000000
10000000
00010000
00100000
01000000
10000000
01000000
10000000
,
00100000
01000000
00001000
00020000
00000000
00031000
00000100
00000010
,
00000001
00000100
00000001
00000000
00001000
00000000
00000010
00000000
00000100
00000000
00000010
00000000
00010000
00000000
00001000
00000000
,
01001000
00000000
01000000
00100000
00000000
00100000
10000000
00000000
,
00010000
10000000
01000000
00100000
10000000
00100000
01000000
10000000
,
00001000
00100000
00001000
00020000
00000000
00030100
00000010
00000001
,
00000100
00000010
00000100
00000000
00000001
00000000
00000010
00000000
00000100
00000000
00010000
00001000
01000000
00000000
00100000
00000000
,
01000000
00000000
00100000
10000000
00000000
10000000
01000000
00000000
,
00100000
00001000
00001000
00010000
00000010
00000010
00000100
00000001
,
00001000
00000100
00000010
00000002
00000000
00001003
00000100
00000001
,
00000100
00000000
00001000
00000000
00000010
00000000
00010000
00000000
00001000
00000000
01000000
00100000
01000000
00000000
00100000
00000000
,
10000000
00000000
00100000
10000000
00000000
10000000
00010000
00000000
,
00100000
01000000
10000000
01000000
00100000
00001000
00010000
00000010
,
00000100
00000010
00010000
00000002
00000000
00010003
00000100
00010000
,
00001000
00000000
01000000
00000000
00100000
00000000
01000000
00000000
00010000
00000000
10000000
01000000
10000000
00000000
00100000
00000000
,
01100000
00000000
00000000
01001000
00000000
00000000
00011000
00010000
,
00000010
00000100
00000001
00000100
00000010
00010010
00000000
00000000
,
00011000
00000000
00002000
00000000
01003000
00200000
00000000
10000000
,
00000000
10000000
00000000
01000000
00000000
01300000
00010000
00000000
,
01000000
00000000
00002000
00000000
00013000
00000020
00000000
00000100
,
00000000
00000100
00000000
00001000
00000000
00001030
00000001
00000010
,
00000100
00010000
00001000
00000000
00100000
01000000
10000000
00000000
,
00100000
01000000
00010000
00100000
00000000
00100000
00001000
00000000
,
00010000
00000100
00000010
00000011
00000000
00000110
00000000
00011000
,
00000000
01100000
01100000
01100000
,
10010000
00000000
20000000
00000000
30100000
02000000
00000000
00010000
,
00000000
00010000
00000000
00100000
00000000
03100000
10000000
00000000
,
00001000
00000000
00020000
00000000
00030010
00000200
00000000
00000001
,
00000000
00000001
00000000
00000010
00000000
00000310
00001000
00000100
,
00000010
00000001
00000100
00000000
00000001
00000010
00000100
00000000
,
00010000
00001000
00100000
01000000
00000000
00100000
00010000
00000000
,
00001000
00000000
00010000
00001000
00010000
00000000
00000010
00000000
00001000
00000010
00001000
00000000
00000001
00000000
00000010
00000001
,
00000010
00000000
00000100
00000010
00000100
00000000
00010000
00000000
00001000
00000000
00100000
00000000
01000000
00000000
10000000
00000000
,
10010000
00000000
00000000
10100000
00000000
00000000
01001000
00000000
,
00000000
00011000
00000000
00000000
00000110
00000000
00000110
00000000
,
00001001
00000010
00000100
00001000
00010000
01000000
00100000
10000000
,
01000000
00100000
00010000
00001000
00011000
00000000
00011000
00000000
,
00010000
00000010
00010000
00000000
00000010
00000000
00000100
00000000
00000001
00000000
00000100
00000000
00000010
00000100
00000010
00000000
,
00001000
00010000
01000000
00100000
01100000
00000000
01100000
00000000
,
01000000
10000000
01000000
00000000
10000000
00000000
01000000
00000000
00100000
00000000
00001000
00000000
00010000
00001000
00010000
00000000
,
00000010
00000100
00000001
00000010
00000110
00000000
00000110
00000000
,
00001001
00000000
00001000
00001000
00000010
00010000
00000000
00010000
,
00000000
00000000
00010000
00000000
00000000
00000000
00001000
00010000
00001000
00000000
00010000
00000000
00001000
00000000
00010000
00000000
,
00100000
01000000
10000000
00010000
00000000
10000000
01000000
10000000
,
00100000
01000000
00100000
00000000
10000000
01000000
00100000
00000000
,
00001000
00010000
00000010
00000000
00000100
00000001
00000010
00000000
,
00000001
00000010
00000100
00010000
00000000
00001000
01000000
00100000
,
01100000
00000000
01000000
10000000
00000000
10000000
00010000
00100000
,
01000000
00000000
00100000
00010000
00001000
00000000
00000010
00000100
,
00000001
00000000
00000100
00000010
00010000
00000000
00001000
00100000
,
01000000
10000000
00010000
00100000
00000000
00100000
01000000
00000000
,
10010000
00000000
00010000
10000000
00000000
00010000
10000000
01000000
,
00100000
00010000
01000000
00000000
00010000
00001000
00000100
00000000
,
00000010
00000001
00000100
00000000
00000001
00000100
00001000
00000100
,
00000001
00000000
00001000
00010000
00000000
00010000
01000000
00100000
,
10000000
00000000
00100000
01000000
00000000
01000000
00010000
00000000
,
10000000
01000000
00100000
00010000
00001000
00000100
00000010
00000001
,
00000100
00000000
00000110
00000000
00000000
00000000
00010000
00001000
00010000
00000000
00000000
00000000
00011000
00000000
00000000
00000000
,
00100000
01000000
10000000
00100000
01100000
00000000
00000000
00000000
,
01000000
00000000
01001000
00000000
00000000
00000000
00010000
00001000
00010000
00000000
00000000
00000000
00011000
00000000
00000000
00000000
,
00000100
00000000
00000000
00000010
00000000
00000000
00000001
00000000
00000000
00000010
00000000
00000000
00000100
00000000
00010000
00000000
00001000
00000000
00010000
00000000
00001000
00000000
00100000
00000000
,
01000000
00000000
10000000
00000000
00000000
00000000
00100000
01000000
00100000
00000000
00000000
00000000
01100000
00000000
00000000
00000000
,
00100000
01000000
10000000
00001000
00011000
00000000
00000000
00000000
,
00000010
00000000
00000100
00000000
00000000
00000000
00000001
00001000
00000001
00000000
00000000
00000000
00001001
00000000
00000000
00000000
,
00000000
00000110
00000010
00010000
00000000
00011000
00001000
00100000
,
01000000
01000000
10000000
00100000
00000000
00000000
01000000
01000000
,
00010000
00100000
00000000
00011000
00000000
00000000
00000101
00000000
,
00000110
00000000
00000100
00000001
00000000
00000001
00001000
00000000
,
00000010
00000100
00000010
00000000
00010000
00000000
00001000
00000000
00100000
00000000
01000000
00000000
10000000
00000000
01000000
00000000
,
00100000
00000000
00010000
01000000
00000000
01000000
00001000
00010000
,
00000100
00000010
00000001
00002000
00000000
00000000
00003010
00000000
,
00010000
00001000
00010000
00001000
01000000
10000000
01000000
00001000
,
00100000
01000000
10000000
00010000
01000000
00200000
00000000
00000000
,
01300000
00100000
01000000
00000000
00001000
00000000
00010000
00000000
00000100
00000000
00000001
00000000
00000100
00000000
00010000
00000000
,
00000100
00000010
00000001
00000100
00000000
00000100
00000010
00000000
,
00010000
00001000
00010000
00001000
00010000
00001000
01000000
00100000
01000000
00100000
01000000
00100000
,
10000000
01000000
10000000
01000000
10000000
01000000
00100000
00001000
00100000
00001000
00100000
00001000
,
00010000
00000010
00000100
00000010
00010000
00000010
00000100
00000001
00000010
00000100
00000010
00000001
,
00000010
00000100
00010000
00001000
00100000
01000000
10000000
01000000
00100000
00001000
00010000
00000100
,
00000020
00000000
00000032
00000000
00010003
00001000
00010000
00001000
,
00100000
10000000
00100000
00001000
01000000
10000000
01000000
00001000
,
00020000
00000000
00001000
00000000
,
00001000
00000000
00001000
00000000
,
00031000
00010000
00000010
00000100
00000010
00010000
00000010
00000100
,
00000010
00001000
00010000
00100000
01000000
00100000
00010000
10000000
,
01000000
10000000
01000000
00000000
10000000
00000000
00010000
01000000
00010000
00000000
01000000
00000000
00010000
00001000
00010000
00000000
,
00001000
00000000
00000010
00000100
00000010
00000000
00000000
00000000
00000110
00000000
00000000
00000000
00000110
00000000
00000000
00000000
,
00001001
00000000
00000000
00010100
00000000
00000000
02200000
00000000
,
00000000
03300000
00000000
00000000
;

//---------------dance-single - ----------------
#NOTES:
     dance-single:
     :
     Beginner:
     3:
     0.102,0.153,0.131,0.000,0.000: // measure 1
1000
0000
0000
0000
,  // measure 2
0100
0000
0000
0000
,  // measure 3
1000
0000
0000
0000
,  // measure 4
0100
0000
0000
0000
,  // measure 5
0010
0000
0000
0000
,  // measure 6
0010
0000
0000
0000
,  // measure 7
0001
0000
0000
0000
,  // measure 8
0100
0000
0000
0000
,  // measure 9
1001
0000
0000
0000
,  // measure 10
0000
0000
0000
0000
,  // measure 11
1001
0000
0000
0000
,  // measure 12
0000
0000
0000
0000
,  // measure 13
0010
0000
0000
0000
,  // measure 14
0100
0000
0000
0000
,  // measure 15
0010
0000
0000
0000
,  // measure 16
0100
0000
0000
0000
,  // measure 17
0001
0000
0000
0000
,  // measure 18
0010
0000
0000
0000
,  // measure 19
0001
0000
0000
0000
,  // measure 20
0010
0000
0000
0000
,  // measure 21
0100
0000
0000
0000
,  // measure 22
1000
0000
0000
0000
,  // measure 23
0100
0000
0000
0000
,  // measure 24
1000
0000
0000
0000
,  // measure 25
0001
0000
0000
0000
,  // measure 26
0100
0000
0000
0000
,  // measure 27
0001
0000
0000
0000
,  // measure 28
0000
0000
0000
0000
,  // measure 29
1001
0000
0000
0000
,  // measure 30
0000
0000
0000
0000
,  // measure 31
0100
0000
0000
0000
,  // measure 32
0000
0000
0000
0000
,  // measure 33
0010
0000
0000
0000
,  // measure 34
0000
0000
0000
0000
,  // measure 35
0001
0000
0000
0000
,  // measure 36
0000
0000
0000
0000
,  // measure 37
1000
0000
0000
0000
,  // measure 38
0000
0000
0000
0000
,  // measure 39
0100
0000
0000
0000
,  // measure 40
0000
0000
0000
0000
,  // measure 41
1000
0000
0000
0000
,  // measure 42
0000
0000
0000
0000
,  // measure 43
0010
0000
0000
0000
,  // measure 44
0000
0000
0000
0000
,  // measure 45
0110
0000
0000
0000
,  // measure 46
0000
0000
0000
0000
,  // measure 47
0110
0000
0000
0000
,  // measure 48
0000
0000
0000
0000
,  // measure 49
1001
0000
0000
0000
,  // measure 50
0000
0000
0000
0000
,  // measure 51
1001
0000
0000
0000
,  // measure 52
0000
0000
0000
0000
,  // measure 53
0000
0000
0000
0000
,  // measure 54
0000
0000
0000
0000
,  // measure 55
0001
0000
0000
0000
,  // measure 56
0100
0000
0000
0000
,  // measure 57
0001
0000
0000
0000
,  // measure 58
0100
0000
0000
0000
,  // measure 59
0010
0000
0000
0000
,  // measure 60
0100
0000
0000
0000
,  // measure 61
0010
0000
0000
0000
,  // measure 62
0100
0000
0000
0000
,  // measure 63
1001
0000
0000
0000
,  // measure 64
1000
0000
0000
0000
,  // measure 65
0001
0000
0000
0000
,  // measure 66
1000
0000
0000
0000
,  // measure 67
0100
0000
0000
0000
,  // measure 68
1000
0000
0000
0000
,  // measure 69
0110
0000
0000
0000
,  // measure 70
0000
0000
0000
0000
,  // measure 71
0110
0000
0000
0000
,  // measure 72
0000
0000
0000
0000
,  // measure 73
0110
0000
0000
0000
,  // measure 74
0000
0000
0000
0000
,  // measure 75
1001
0000
0000
0000
,  // measure 76
0000
0000
0000
0000
,  // measure 77
1001
0000
0000
0000
,  // measure 78
0000
0000
0000
0000
,  // measure 79
0001
0000
0000
0000
,  // measure 80
0100
0000
0000
0000
,  // measure 81
0001
0000
0000
0000
,  // measure 82
0100
0000
0000
0000
,  // measure 83
0001
0000
0000
0000
,  // measure 84
1000
0000
0000
0000
,  // measure 85
0001
0000
0000
0000
,  // measure 86
1000
0000
0000
0000
,  // measure 87
0100
0000
0000
0000
,  // measure 88
0100
0000
0000
0000
,  // measure 89
0010
0000
0000
0000
,  // measure 90
0010
0000
0000
0000
,  // measure 91
0001
0000
0000
0000
,  // measure 92
1000
0000
0000
0000
,  // measure 93
1001
0000
0000
0000
,  // measure 94
0000
0000
0000
0000
,  // measure 95
0010
0000
0000
0000
,  // measure 96
0000
0000
0000
0000
,  // measure 97
0110
0000
0000
0000
,  // measure 98
0000
0000
0000
0000
,  // measure 99
1001
0000
0000
1001
;
