#TITLE:Arcanos;
#SUBTITLE:;
#ARTIST:DJ Totoriott;
#TITLETRANSLIT:;
#SUBTITLETRANSLIT:;
#ARTISTTRANSLIT:;
#CREDIT:DigiMindAxel;
#BANNER:Arcanos.png;
#BACKGROUND:Arcanos-bg.png;
#LYRICSPATH:;
#CDTITLE:REFLEC BEAT.png;
#MUSIC:Arcanos.ogg;
#METERTYPE:DDR X;
#OFFSET:-9.426;
#SAMPLESTART:31.620;
#SAMPLELENGTH:12.000;
#SELECTABLE:YES;
#BPMS:0.000=96.000;
#STOPS:83.500=1.875
;
#BGCHANGES:;

//---------------dance-single - ----------------
#NOTES:
     dance-single:
     :
     Easy:
     3:
     0.148,0.259,0.142,0.115,0.000:
2000
0000
0000
3200
,
0000
0000
2300
0000
,
0000
3002
0000
0003
,
1001
0000
0000
0001
,
0000
0000
0001
0000
,
0000
0001
0000
0000
,
1001
0000
0000
1000
,
0000
0000
1000
0000
,
0000
1000
0000
0000
,
1001
0000
0000
0001
0000
0000
0001
0000
,
0000
0000
0000
0000
0010
0000
0000
0010
,
0000
0010
0000
0000
,
0100
0000
0000
0100
0000
0000
0100
0000
,
0000
0000
0000
0000
1000
0000
0000
1000
,
0000
1000
0000
0000
,
1001
0000
0000
0010
0000
0000
0110
0000
,
0000
0100
0000
0000
1001
0000
0000
0001
,
0000
0000
1001
0000
0000
1000
0000
0000
,
1001
0000
0000
0001
0000
0000
0100
0000
,
0000
0010
0000
0000
1000
0000
0000
0001
,
0000
0000
1000
0000
0000
0100
0100
0100
,
2001
0000
0000
3200
,
0000
0000
0320
0000
,
0000
0000
0032
0000
0000
0003
0000
0000
,
2001
0000
0000
3020
,
0000
0000
0000
0030
0200
0000
0000
0000
,
0000
0301
0000
0000
,
1001
0000
0000
1000
0000
0000
0001
0000
,
0000
0010
0000
0000
0001
0000
0000
0100
,
0000
0000
0010
0000
0000
0100
0001
1000
,
0100
0000
0000
0010
0000
0000
0100
0000
,
0000
1000
0000
0000
0010
0000
0000
0100
,
0000
0000
0001
1000
0001
1000
0000
0000
,
1001
0000
0000
0010
0010
0010
0110
0000
,
0000
0100
0100
0100
0110
0000
0000
0010
,
0010
0010
0110
0000
0000
1000
1000
1000
,
1002
0000
0000
0000
,
0000
0000
2003
0000
,
0000
0000
0000
0000
,
3000
0000
0000
0000
;

//---------------dance-single - ----------------
#NOTES:
     dance-single:
     :
     Medium:
     6:
     0.293,0.311,0.168,0.186,0.018:
1001
0000
0000
0000
1000
0100
0010
0000
,
0000
0001
0100
0001
2000
0000
0000
3002
,
0000
0023
0000
0030
,
0002
0000
0000
1000
0000
0000
1003
0000
,
0000
0100
0000
0000
0020
0000
0000
0001
,
0000
0000
0031
0000
0000
0100
0000
0000
,
0110
0000
0000
0100
0000
0000
0010
0000
,
0000
1000
0000
0000
0001
0000
0000
0010
,
0000
0000
0100
1000
0100
1000
0010
0000
,
1001
0000
0001
1000
0000
0001
1000
0000
,
0001
1000
0001
0000
0100
0000
0010
0100
,
0000
0010
0100
0000
0010
0100
0010
0000
,
1001
0000
1000
0001
0000
1000
0001
0000
,
1000
0001
1000
0000
1001
0000
0000
1001
,
0000
0000
0110
0000
0000
0010
0100
0010
,
1001
0000
0000
1000
0100
0010
1001
0000
,
0000
0001
0010
0100
1001
0000
0000
1000
,
0100
0010
1001
0000
0000
0001
0010
0100
,
1000
0010
1000
0100
0010
0001
1000
0010
,
1000
0100
0010
0001
1000
0001
1000
0100
,
1000
0100
1000
0001
0010
0100
0100
0100
,
1002
0000
0000
2003
0000
0000
3200
0000
,
0000
2300
0000
0000
3002
0000
0000
0203
,
0000
0000
0302
0000
0000
2003
0000
0000
,
3002
0000
0000
0023
0000
0000
0230
0000
,
0000
2300
0000
0000
3002
0000
0000
0203
,
0000
0000
0310
0100
0010
0100
0010
0000
,
1001
1000
0100
1000
0010
0100
0010
1000
,
0100
0010
0001
1000
0100
1000
0010
0100
,
0010
1000
0001
0010
0100
1000
1000
0001
,
1001
1000
0010
1000
0100
1000
0010
0100
,
0001
0010
0100
1000
0001
0100
0001
1000
,
0010
1000
0001
0010
0100
1000
0001
0001
,
1001
0000
0000
1000
0000
0000
0100
0000
0010
0000
0001
0000
1001
0000
0000
1000
,
0000
0000
0001
0000
0010
0000
0100
0000
1001
0000
0000
0001
0000
0000
1000
0000
,
0010
0000
0100
0000
1001
0000
0000
0001
0000
0000
0100
0000
0010
0000
1000
0000
,
1002
0000
0000
1000
0000
0000
0000
0000
,
0000
1000
0000
0000
2003
0000
0000
0001
,
0000
0000
0000
0000
0000
0001
0000
0000
,
3000
0000
0000
0000
;

//---------------dance-single - ----------------
#NOTES:
     dance-single:
     :
     Hard:
     11:
     0.520,0.570,0.248,0.168,0.491: // measure 1
2001
0000
0000
0000
3001
0010
0200
0000
,  // measure 2
0000
1300
0010
0100
0002
0000
0000
2003
,  // measure 3
0000
0000
3020
0000
0000
1030
0100
0010
,  // measure 4
1001
0000
0000
1000
0010
0000
2000
0000
0000
0000
0001
0000
3001
0000
0000
0001
,  // measure 5
1000
0000
0100
0000
0010
0000
0001
0000
1000
0000
0000
1000
0001
0000
0100
0000
,  // measure 6
0001
0000
0010
0000
0100
0000
0000
1000
0010
0000
0200
0000
0000
0000
0301
0000
,  // measure 7
1001
0000
0000
1000
0001
1000
0200
0000
0000
0000
0010
0000
0310
0000
0000
0001
,  // measure 8
0100
0001
0010
0000
0100
1000
0100
1000
0020
0000
0000
0000
0100
0000
0230
0000
,  // measure 9
0000
0001
0301
0010
0100
0010
0001
1000
,  // measure 10
1001
0000
0001
1000
0001
0000
1000
0000
0100
0000
0010
0000
0100
0000
1000
0010
,  // measure 11
1000
0000
0100
0000
0010
0000
0001
0000
0100
0000
0010
0100
0010
0000
0100
0000
,  // measure 12
0001
0000
1000
0000
0100
0000
0010
0100
0010
0000
0001
0000
0100
0000
0001
0010
,  // measure 13
0100
0000
1000
0010
1000
0000
0001
0000
0001
0000
0100
0010
1000
0000
0100
0010
,  // measure 14
0100
0000
1000
0000
0010
0000
0100
0001
0100
0000
0001
0010
0100
1000
0010
0000
,  // measure 15
1000
0000
0001
0000
1001
0000
0000
1000
0100
0010
0001
0000
0001
0000
1000
0000
,  // measure 16
0100
0100
0000
1000
1000
0000
0010
0100
0001
0100
0010
0100
0001
0001
0000
1000
,  // measure 17
1000
0000
0100
0010
0001
1000
0010
0100
0010
0010
0000
1000
1000
0000
0001
1000
,  // measure 18
0010
0100
0001
1000
0100
0100
0000
0010
0010
0000
0100
1000
0010
0100
0001
0100
,  // measure 19
0010
1010
0000
1000
1010
0000
0010
0100
0010
1000
0100
0010
0001
1001
0000
1000
,  // measure 20
1001
0000
1000
0001
1000
0010
0100
0001
1000
1100
0000
0100
1100
0000
1000
0010
,  // measure 21
0100
0001
0010
0100
1000
1010
0000
0010
1010
0000
1001
0000
0110
0000
1001
0000
,  // measure 22
1020
0000
0100
0130
0000
0001
2000
0000
,  // measure 23
0100
3100
0000
0010
0200
0000
1000
1300
,  // measure 24
0001
0010
0200
0000
0010
0310
0000
0001
,  // measure 25
0201
0000
0010
0310
0000
1000
0200
0000
,  // measure 26
0010
0310
0000
0001
0200
0000
0001
0301
,  // measure 27
1000
0000
0100
0000
0010
0001
0010
0001
0010
0100
0010
0100
1000
0100
0000
0000
,  // measure 28
0110
0000
0100
0010
0001
0010
0100
0000
1000
0010
1000
0000
0001
0000
0010
1000
,  // measure 29
0010
0001
1000
0000
0001
0100
1000
0100
0001
0000
0100
0010
1000
0100
0001
0100
,  // measure 30
1000
0010
0100
0010
1000
0000
0001
0000
0010
0100
1100
0000
1010
0000
0101
0000
,  // measure 31
1001
0000
1000
0100
0010
0100
1000
0000
0001
0000
0100
0010
0100
0000
0001
0000
,  // measure 32
0010
1000
0010
0001
0100
0000
0100
0010
1010
0000
0010
0100
0001
1000
1100
0000
,  // measure 33
0100
0010
0001
1000
1010
0010
0100
0010
1000
0100
0010
0000
0101
0000
1010
0000
,  // measure 34
1000
1000
0000
0001
0001
0000
0010
1000
0010
0001
0100
0010
1000
1000
0000
0001
,  // measure 35
0001
0000
0100
1000
0100
0001
0010
0100
0010
0010
0000
0001
0001
0000
0010
1000
,  // measure 36
0010
0001
1000
0010
0100
0100
0000
0010
0010
0000
1000
0100
0010
0001
1000
0100
,  // measure 37
0020
0000
0000
0001
0000
0001
0001
0000
,  // measure 38
0000
0100
0000
0100
0230
0000
0000
1000
,  // measure 39
0000
1000
1000
0000
0000
0010
0000
0010
,  // measure 40
0310
0000
0000
0000
;

//---------------dance-single - ----------------
#NOTES:
     dance-single:
     :
     Challenge:
     14:
     0.732,0.760,0.469,0.186,1.000: // measure 1
1001
0000
1000
0010
1000
0000
1000
0000
0001
0000
0010
0000
0100
0000
0010
0001
,  // measure 2
0010
0000
0000
0000
0010
0000
0000
0000
0001
0000
1000
0000
0001
0000
1000
0000
0002
0000
0000
0000
0000
0000
0000
0000
0000
0000
1003
0010
2000
0000
0000
0000
,  // measure 3
0000
0000
0000
0000
0000
0000
3001
1000
0002
0000
0000
0000
1000
0000
0000
0000
1003
0000
0000
0000
0101
0000
0000
0000
0110
0000
0000
0000
1100
0000
0000
0000
,  // measure 4
1001
0000
0001
0100
0010
0100
0001
0000
0001
0000
0010
0100
2000
0000
0000
3001
,  // measure 5
0100
0010
0100
0000
0001
0000
0010
0100
1000
0000
1000
0010
0100
0010
1000
0000
,  // measure 6
1000
0000
0001
0010
0200
0000
0000
0310
0001
1000
0010
0000
0000
0000
0100
0010
,  // measure 7
0110
0000
0000
0100
0010
0001
0010
0100
0010
0000
0001
0100
0020
0000
0000
1030
,  // measure 8
0001
0100
0010
0000
1000
0100
0010
0001
0200
0000
0001
0000
0301
0000
1000
0000
,  // measure 9
0000
0001
0100
0010
0100
0000
0110
0000
1001
0000
0101
0000
0100
0000
0100
0000
,  // measure 10
1001
0000
0000
0000
0001
0000
0100
0000
0010
0000
0100
0000
0001
0100
0001
0000
1000
0000
0000
0000
0100
0000
0010
0000
0001
0000
0000
0000
0001
0000
1000
0000
,  // measure 11
0100
0000
0010
0000
0100
0000
0000
0000
1000
0000
0000
0000
0001
0000
0100
0000
0010
0000
0000
0000
1000
0000
0100
0000
0010
0000
0100
0000
1000
0010
1000
0000
,  // measure 12
0010
0000
0100
0001
0020
0000
0000
0000
0130
1000
0100
1000
0001
0100
0001
1000
,  // measure 13
1001
0000
0000
0000
1000
0000
0010
0000
1000
0000
0100
0000
0010
0001
0010
0000
0001
0000
0000
0000
0100
0000
0001
0000
0010
0000
0000
0000
0100
0000
1000
0000
,  // measure 14
0001
0010
0100
0010
0001
1000
0100
0010
1001
0000
1000
0100
0001
0100
1100
0000
,  // measure 15
1000
0000
0000
0000
1010
0000
0000
0000
0110
0000
0000
0000
0000
0000
0100
0000
0001
0000
1000
0000
0100
0000
0010
0001
0010
0001
0100
0010
0100
0010
1000
0100
,  // measure 16
1000
1100
0000
0010
0110
0000
0100
0100
0001
0001
0010
0100
1000
1010
0000
0100
,  // measure 17
0110
0000
0010
0010
1000
1000
0100
0010
0001
0011
0000
0100
0110
0000
0010
0010
,  // measure 18
0001
0001
0010
0100
1000
1010
0000
0100
0110
0000
0010
0100
1000
0100
0010
0001
,  // measure 19
1000
1000
0010
0100
0100
0001
1000
0100
0001
0100
1000
0001
0010
0010
0100
1000
,  // measure 20
1000
0000
0001
0000
1000
0000
0010
0000
0001
0000
0010
0000
1000
0010
1000
0010
0100
0000
0100
0000
0001
0000
1000
0000
1000
0000
0010
0000
0110
0000
0100
0000
,  // measure 21
0001
0000
0010
0000
1000
0000
0010
0000
0001
0100
0001
0100
0001
1000
0100
1000
0100
0010
0001
0010
0001
0000
0000
0000
1001
0000
0000
0000
1010
0000
0000
0000
,  // measure 22
1001
0000
0000
1000
0100
1000
0002
0000
0000
0000
0013
0000
0200
0000
0000
1300
,  // measure 23
0001
0100
0002
0000
0000
0013
0100
1000
0020
0000
0000
0130
0001
0010
0100
0010
,  // measure 24
0001
0100
1000
0100
0002
0000
0000
0000
1003
0001
1000
0000
0000
0000
0010
0000
,  // measure 25
0110
0000
0000
0000
0000
0000
0100
0000
0001
0100
0001
0000
2000
0000
0000
0000
0000
0000
0000
0000
3100
0000
0000
0000
0020
0000
0000
0000
0000
0000
0031
0000
,  // measure 26
1000
0010
2000
0000
0000
3001
0010
0100
2000
0000
0000
3010
0100
0010
1000
0000
,  // measure 27
1000
0000
0000
0000
0001
0000
0000
0000
0010
0000
0001
0000
0010
0000
0001
0000
0100
0010
0100
0010
0100
0010
1000
0100
1000
0100
1000
0000
0000
0000
0000
0000
,  // measure 28
1001
0000
0001
0000
0100
0000
0001
0100
0001
0100
0010
1000
0100
0000
0000
0000
0010
0000
0001
0000
0010
0000
0001
0000
0100
0000
0000
0000
0010
0000
1000
0000
,  // measure 29
0001
0010
0100
0000
0110
0000
0000
0000
0100
0000
0010
0000
0001
0000
1000
0000
0010
0000
0000
0000
1000
0000
0001
0000
0100
0001
0100
0001
1000
0000
0100
0000
,  // measure 30
0010
0000
0001
1000
0001
1000
0100
0000
0010
0000
0000
0000
0001
0000
0100
0000
0001
0000
1000
0000
1100
0000
0100
0000
0110
0000
0010
0000
0011
0000
0001
0000
,  // measure 31
1001
0000
0000
0000
1000
0000
0001
0100
0001
0100
0001
1000
0100
0000
0000
0000
0010
0000
0001
0000
0100
0000
0010
0000
0100
0000
0000
0000
0001
0000
0100
0000
,  // measure 32
0001
1000
0100
0000
0010
0000
0000
0000
0001
0000
1000
0000
0001
1000
0100
0000
1100
0000
0000
0000
0010
0000
0100
0000
0001
0010
0100
0000
0110
0000
0000
0000
,  // measure 33
0010
0000
1000
0000
0100
0010
0001
0000
1001
0000
1000
0000
0100
0000
0001
0000
0100
0000
1000
0000
0001
0100
0001
0100
0001
0010
0100
1000
0001
0000
0100
0000
,  // measure 34
0101
1001
0000
0101
1001
0000
0001
0100
1000
0001
0010
1000
1001
1100
0000
1001
,  // measure 35
1100
0000
1000
0100
0001
1000
0010
0001
1001
0101
0000
1001
0101
0000
0001
0100
,  // measure 36
1000
0000
0001
0000
0010
0000
1000
0000
1001
0000
0011
0000
0000
0000
1001
0000
0011
0000
0000
0000
0001
1000
0001
0000
0100
0010
0100
0000
0010
1000
0100
0010
,  // measure 37
0002
0000
0000
0000
0000
0000
1003
0000
0000
0001
0010
0100
2000
0000
0000
0000
,  // measure 38
0000
0000
3010
0000
0000
1000
0001
0010
0200
0000
0000
0000
0000
0000
0310
0000
,  // measure 39
0000
0001
0100
0010
2000
0000
0000
0000
0000
0000
3001
0000
0000
1000
0010
0100
,  // measure 40
0001
0000
0000
0000
;

//---------------dance-double - ----------------
#NOTES:
     dance-double:
     :
     Easy:
     5:
     0.186,0.259,0.151,0.124,0.000:
20000000
00000000
00000000
30020000
,
00000000
00000000
20030000
00000000
,
00000000
30020000
00000000
00030000
,
10010000
00000000
00000000
00010000
,
00000000
00000000
01000000
00000000
,
00000000
00001000
00000000
00000000
,
00011000
00000000
00000000
00010000
,
00000000
00000000
00000100
00000000
,
00000000
00010000
00000000
00000000
,
00000110
00000000
00000000
00000010
00000000
00000000
00000010
00000000
,
00000000
00000000
00000000
00000000
00001000
00000000
00000000
00001000
,
00000000
00001000
00000000
00000000
,
00001001
00000000
00001000
00000001
00000000
00000000
00000001
00000000
,
00000000
00000100
00000000
00000000
00000110
00000000
00000010
00000100
,
00000000
00001001
00000000
00000000
,
00011000
00000000
00000000
10001000
00000000
10000000
00100000
00000000
,
00000000
00100000
00000000
10000000
00010000
00000000
00000000
00100000
,
00000000
00001000
00010000
00000000
00000000
00000010
00000000
00000000
,
00000110
00000100
00000010
00000100
00000000
00000000
00000001
00001000
,
00000001
00010000
00000000
00000000
00100000
01000000
00100000
00010000
,
00000000
00000000
01000000
00100000
01000000
00010000
00010000
00010000
,
02100000
00000000
00000000
03002000
,
00000000
00000000
00023000
00000000
,
00000000
00030020
00000000
00000030
,
00001002
00000000
00000000
00000023
,
00000000
00000000
00000230
00000000
,
00000000
00010300
00000000
00000000
,
00011000
00001000
01000000
00001000
00000000
00000000
00100000
01000000
,
10000000
00100000
00000000
00000000
01000000
00100000
01000000
00001000
,
00000000
00000000
00010000
00001000
00010000
00000010
00000100
00000001
,
00010000
00000100
00010000
00000001
00000000
00000000
00000010
00000100
,
00001000
00010000
00000000
00000000
01000000
00100000
01000000
00010000
,
00000000
00000000
00100000
01000000
10000000
00200000
00000000
00300000
,
01100000
00000000
00000000
10000000
00100000
01000000
00011000
00000000
,
00000000
00001000
00000100
00000010
00001001
00000000
00000000
00000001
,
00000100
00000010
00011000
00000000
00000000
01000000
00100000
10000000
,
10020000
00000000
00000000
00000000
,
00000000
00000000
02030000
00000000
,
00000000
00000000
00000000
00000000
,
03000000
00000000
00000000
00000000
;

//---------------dance-double - ----------------
#NOTES:
     dance-double:
     :
     Medium:
     7:
     0.297,0.311,0.151,0.186,0.018:
10010000
00000000
00000000
00000000
00010000
01000000
00001000
00000000
,
00000000
00010000
00000100
00000010
00000002
00000000
00000000
00002003
,
00000000
00000000
00003002
00000000
00000000
00001003
00000100
00001000
,
00000200
00000000
00000000
00010000
00000000
00000000
00010300
00000000
,
00000000
00001000
00000000
00000000
00200000
00000000
00000000
01000000
,
00000000
00000000
01300000
00000000
00000000
10000000
00000000
00000000
,
10010000
00000000
00000000
10000000
00000000
00000000
00010000
00000000
,
00000000
00100000
00000000
00000000
00001000
00000000
00000000
00010000
,
00000000
00000000
00000100
00000010
00000100
00000010
00000000
00000000
,
00001001
00000000
00001000
00000001
00000000
00000010
00000100
00000000
,
00010000
00001000
00010000
00001000
01000000
00000000
00100000
10000000
,
00000000
00100000
10000000
00000000
00010000
01000000
00010000
01000000
,
00001000
00000000
00010000
00001000
00000000
00010000
00001000
00000000
,
00000100
00000010
00000100
00000010
00000001
00000000
00000000
00001001
,
00000000
00000000
00001001
00000000
00000000
00001000
00000100
00010000
,
00011000
00000000
00000000
00001000
01000000
00100000
01100000
00000000
,
00000000
10000000
01000000
00100000
10001000
00000000
00000000
00001000
,
00010000
00000100
00000110
00000000
00000000
00000100
00000001
00000010
,
00000100
00010000
00001000
00010000
00000100
00001000
00100000
01000000
,
10000000
00001000
01000000
00001000
10000000
01000000
00100000
00001000
,
00000010
00000100
00000001
00000100
00000010
00010000
00010000
00010000
,
02001000
00000000
00000000
03200000
00000000
00000000
20300000
00000000
,
00000000
30200000
00000000
00000000
02300000
00000000
00000000
03002000
,
00000000
00000000
00023000
00000000
00000000
00030200
00000000
00000000
,
00000320
00000000
00000000
00000230
00000000
00000000
00020300
00000000
,
00000000
00032000
00000000
00000000
02003000
00000000
00000000
03200000
,
00000000
00000000
10300000
01000000
00100000
00010000
10000000
00000000
,
01100000
00100000
01000000
00100000
00001000
00010000
00000100
00000010
,
00000100
00010000
00001000
01000000
00100000
01000000
00010000
00001000
,
00000010
00000100
00000010
00010000
00001000
00100000
00100000
00100000
,
10010000
10000000
00010000
00100000
00001000
00010000
00000100
00000010
,
00000100
00001000
00010000
01000000
00100000
01000000
00010000
00001000
,
00000010
00000100
00000010
00001000
00010000
00100000
01000000
01000000
,
01100000
00000000
00000000
00100000
00000000
00000000
00100000
00000000
10000000
00000000
01000000
00000000
10001000
00000000
00000000
00001000
,
00000000
00000000
00001000
00000000
00010000
00000000
00000100
00000000
00000110
00000000
00000000
00000010
00000000
00000000
00000010
00000000
,
00001000
00000000
00000001
00000000
00000011
00000000
00000000
00000010
00000000
00000000
00000010
00000000
00000100
00000000
00010000
00000000
,
00012000
00000000
00000000
00100000
00000000
00000000
00000000
00000000
,
00000000
00100000
00000000
00000000
00203000
00000000
00000000
01000000
,
00000000
00000000
00000000
00000000
00000000
01000000
00000000
00000000
,
00300000
00000000
00000000
00000000
;

//---------------dance-double - ----------------
#NOTES:
     dance-double:
     :
     Hard:
     11:
     0.520,0.535,0.186,0.186,0.509:
20010000
00000000
00000000
00000000
31000000
00100000
00002000
00000000
,
00000000
00013000
00000010
00001000
00000002
00000000
00000000
00000203
,
00000000
00000000
00000302
00000000
00000000
00000013
00000100
00001000
,
00011000
00000000
00000000
01000000
00100000
00000000
20000000
00000000
00000000
00000000
01000000
00000000
31000000
00000000
00000000
10000000
,
00100000
00000000
01000000
00000000
00010000
00000000
00001000
00000000
00000010
00000000
00000000
00000100
00000001
00000000
00000010
00000000
,
00000100
00000000
00001000
00000000
00010000
00000000
00000000
01000000
00100000
00000000
20000000
00000000
00000000
00000000
30100000
00000000
,
01100000
00000000
00000000
00010000
00100000
01000000
20000000
00000000
00000000
00000000
00100000
00000000
30100000
00000000
00000000
10000000
,
01000000
00100000
00010000
00000000
00001000
00000000
00000100
00000010
00000200
00000000
00000000
00000000
00001000
00000000
00002300
00000000
,
00000000
00000001
00003001
00001000
00000001
00001000
00000010
00000010
,
00001001
00000000
00001000
00000100
00001000
00000000
00000001
00000010
00000100
00000000
00010000
00000000
00001000
00000000
01000000
00100000
,
01000000
00000000
00010000
00000000
10000000
00000000
01000000
00000000
00100000
00000000
00001000
01000000
00001000
00000000
00010000
00000010
,
00000100
00000000
00000001
00000000
00000010
00000000
00000100
00000010
00000100
00000000
00001000
00000000
00010000
00000000
01000000
00100000
,
01000000
00000000
00010000
10000000
01000000
00000000
00100000
00001000
00010000
00000000
00000010
00000100
00000010
00000000
00001000
00000100
,
00000010
00000000
00000001
00000000
00000100
00000000
00000001
00000100
00000001
00000000
00000010
00000100
00001000
00010000
01000000
00000000
,
00100000
10000000
01000000
00100000
00001000
00000000
00010000
00001000
00010000
00000010
00000100
00000000
00000001
00001000
00000001
00001000
,
00000001
00000010
00000000
00000001
00000010
00000000
00000001
00000100
00010010
00001000
00100000
01000000
10000000
00100000
00000000
10000000
,
00100000
00000000
01000000
00001000
00010000
00000100
00000010
00000001
00000010
00000100
00000000
00000010
00000100
00000000
00010000
00001000
,
01000000
00100000
01000000
00010000
10000000
01000000
00000000
10000000
01000000
00000000
10000000
01000000
00100000
00001000
00010000
00000010
,
00000100
00000100
00000000
00000001
00000001
00000000
00000100
00000001
00000010
00001000
00000010
00000001
00010000
00010000
00000000
00001000
,
00001000
00000000
01000000
00010000
00100000
10000000
00100000
00010000
10000000
10000000
00000000
00100000
00100000
00000000
01000000
00010000
,
00100000
10000000
00100000
00010000
01000000
01000000
00000000
00001000
00001000
00000000
00010010
00000000
00000110
00000000
00010010
00000000
,
00000102
00000000
00010000
00010003
00000000
00001000
02000000
00000000
,
00100000
03100000
00000000
10000000
00020000
00000000
00100000
00130000
,
00010000
00001000
00000200
00000000
00000010
00000310
00000000
00000001
,
00000210
00000000
00000010
00000310
00000000
00010000
00002000
00000000
,
00100000
00103000
00000000
01000000
20000000
00000000
00100000
30100000
,
01000000
00000000
00010000
00000000
10000000
01000000
10000000
01000000
00100000
00001000
00100000
00001000
00010000
00000000
00000000
00000000
,
00000110
00000000
00000100
00000010
00000001
00000010
00000100
00000000
00010000
00001000
00100000
00000000
00100000
00000000
00010000
00100000
,
10000000
00100000
00010000
00000000
00100000
01000000
10000000
01000000
00100000
00000000
00001000
00010000
00000010
00000100
00000010
00000100
,
00000001
00000010
00001000
00000010
00000001
00000000
00000100
00000000
00000001
00010000
00010100
00000000
00011000
00000000
00010100
00000000
,
00011000
00000000
00001000
01000000
00100000
01000000
00001000
00000000
01000000
00000000
00100000
10000000
00010000
00000000
00100000
00000000
,
01000000
00100000
00001000
00010000
00000010
00000000
00000100
00000001
00001001
00000000
00000100
00010000
00001000
01000000
01010000
00000000
,
00100000
10000000
01000000
00100000
00101000
00001000
00010000
00000100
00000010
00000001
00000011
00000000
00010001
00000000
00010010
00000000
,
00010000
00001000
00000000
00010000
00001000
00000000
00100000
10000000
00100000
00001000
00010000
00000100
00000010
00000100
00000000
00000010
,
00000100
00000000
00010000
00000000
00000010
00000001
00000010
00010000
00001000
01000000
00000000
00001000
01000000
00000000
00001000
00100000
,
10000000
00100000
00001000
00010000
00000100
00000010
00000000
00000100
00000010
00000000
00000001
00000100
00010000
01000000
10000000
01000000
,
00002000
00000000
00000000
00010000
00000000
00010000
00023000
00000000
,
00000000
00000010
00000000
00000010
00030020
00000000
00000000
00000100
,
00000000
00000100
00000230
00000000
00000000
00000001
00000000
00000001
,
00000301
00000000
00000000
00000000
;

//---------------dance-double - ----------------
#NOTES:
     dance-double:
     :
     Challenge:
     14:
     0.723,0.708,0.425,0.221,1.000:
10010000
00000000
10000000
01000000
10000000
00000000
00100000
00000000
10000000
00000000
01000000
00000000
00100000
00000000
00001000
00100000
,
00001000
00000000
00000000
00000000
00010000
00000000
00000000
00000000
00000100
00000000
00000010
00000000
00000100
00000000
00000010
00000000
00000002
00000000
00000000
00000000
00000000
00000000
00000000
00000000
00000000
00000000
00000013
00000100
00000020
00000000
00000000
00000000
,
00000000
00000000
00000000
00000000
00000000
00000000
00000031
00001000
00000002
00000000
00000000
00000000
00001000
00000000
00000000
00000000
00001003
00000000
00000000
00000000
00000110
00000000
00000000
00000000
00010010
00000000
00000000
00000000
00011000
00000000
00000000
00000000
,
01001000
00000000
01000000
00010000
00100000
01000000
10000000
00000000
10000000
00000000
01000000
00100000
00002000
00000000
00000000
00013000
,
00000010
00000100
00000010
00000000
00000100
00000000
00000001
00000010
00000100
00000000
00001000
00000010
00000100
00000010
00010000
00000000
,
00001000
00000000
00100000
01000000
20000000
00000000
00000000
30010000
01000000
00100000
01000000
00000000
00000000
00000000
00001000
00010000
,
00011000
00000000
00000000
00010000
00000100
00000010
00000001
00000010
00000100
00000000
00001000
00010000
02000000
00000000
00000000
03100000
,
10000000
01000000
10000000
00000000
01000000
00100000
00001000
00010000
00000020
00000000
00000100
00000000
00000130
00000000
00000002
00000000
,
00000000
00000103
00000001
00000010
00000100
00000000
00010100
00000000
00011000
00000000
01001000
00000000
00100000
00000000
00100000
00000000
,
10010000
00000000
00000000
00000000
10000000
00000000
01000000
00000000
00100000
00000000
00010000
00000000
10000000
00010000
10000000
00000000
01000000
00000000
00000000
00000000
00100000
00000000
00001000
00000000
00010000
00000000
00000000
00000000
00001000
00000000
00010000
00000000
,
00000100
00000000
00000010
00000000
00000100
00000000
00000000
00000000
00010000
00000000
00000000
00000000
00000010
00000000
00000100
00000000
00000001
00000000
00000000
00000000
00000010
00000000
00000100
00000000
00001000
00000000
00010000
00000000
01000000
00100000
01000000
00000000
,
00100000
00000000
10000000
00100000
02000000
00000000
00000000
00000000
03010000
01000000
00010000
01000000
00100000
10000000
01000000
00100000
,
00011000
00000000
00000000
00000000
00001000
00000000
00010000
00000000
00000100
00000000
00000010
00000000
00000001
00000100
00000001
00000000
00000100
00000000
00000000
00000000
00000001
00000000
00000010
00000000
00000100
00000000
00000000
00000000
00001000
00000000
00000100
00000000
,
00010000
00001000
00100000
01000000
00100000
01000000
10000000
00010000
01010000
00000000
00100000
10000000
01000000
00100000
01010000
00000000
,
10000000
00000000
00010000
00000000
01000000
00000000
00001000
00000000
00011000
00000000
00000000
00000000
00000000
00000000
00010000
00000000
00000100
00000000
00000010
00000000
00000001
00000000
00000100
00000001
00000100
00000001
00000010
00000100
00000010
00000100
00001000
00000001
,
00001000
00001001
00000000
00000010
00010010
00000000
00011000
00001000
00100000
01000000
10000000
00100000
01000000
01100000
00000000
00001000
,
00101000
00000000
10000000
10000000
01000000
01000000
00100000
01000000
10000000
10100000
00000000
01000000
01100000
00000000
00010000
00010000
,
00100000
00100000
00001000
00010000
00000010
00000110
00000000
00000001
00000011
00000000
00000010
00000100
00000010
00000100
00010000
00001000
,
00010000
00011000
00000000
01000000
01100000
00000000
01000000
00010000
00100000
00010000
01000000
00100000
10000000
10010000
00000000
01000000
,
01001000
00000000
00000000
00000000
00001000
00000000
00010000
00000000
00000100
00000000
00000010
00000000
00000100
00010000
00000100
00010000
00000100
00000000
00010000
00000000
00000100
00000000
00000010
00000000
00000001
00000000
00000010
00000000
00000110
00000000
00000100
00000000
,
00010000
00000000
00001000
00000000
01000000
00000000
00100000
00000000
10000000
00010000
10000000
00010000
10000000
01000000
00100000
01000000
00100000
00010000
00100000
00010000
00100000
00000000
00000000
00000000
00110000
00000000
00000000
00000000
00011000
00000000
00000000
00000000
,
00000110
00000000
00000000
00000100
00000010
00000001
00000200
00000000
00000000
00000000
00000301
00000000
00020000
00000000
00000000
00031000
,
01000000
00100000
20000000
00000000
00000000
31000000
00100000
00010000
02000000
00000000
00000000
03010000
00100000
00001000
00010000
00000100
,
00000010
00000001
00000010
00000100
00020000
00000000
00000000
00000000
00031000
00010000
00001000
00000000
00000000
00000000
00000100
00000000
,
00000110
00000000
00000000
00000000
00000000
00000000
00000001
00000000
00000100
00000010
00000100
00000000
00000002
00000000
00000000
00000000
00000000
00000000
00000000
00000000
00000013
00000000
00000000
00000000
00000200
00000000
00000000
00000000
00000000
00000000
00001300
00000000
,
00010000
00100000
02000000
00000000
00000000
03100000
00010000
10000000
02000000
00000000
00000000
13000000
00010000
00100000
01000000
00000000
,
01000000
00000000
00000000
00000000
00100000
00000000
00000000
00000000
00001000
00000000
00010000
00000000
00001000
00000000
00010000
00000000
00000100
00000000
00000010
00000000
00000001
00000100
00000001
00000100
00000010
00000000
00000000
00000000
00000000
00000000
00000000
00000000
,
00001001
00000000
00000100
00000000
00000010
00000000
00000001
00000100
00000001
00000100
00000010
00000100
00000010
00000000
00000000
00000000
00010000
00000000
00001000
00000000
00100000
00000000
01000000
00000000
00100000
00000000
00001000
00000000
10000000
00000000
01000000
00000000
,
00100000
00010000
00100000
00000000
00020000
00000000
00000000
00000000
10030000
00000000
01000000
00000000
00100000
00000000
01000000
00000000
10000000
00000000
00000000
00000000
01000000
00000000
00100000
00000000
00001000
00000000
00010000
00001000
00010000
00000000
00000010
00000000
,
00000100
00000000
00000001
00000000
00000010
00000001
00000010
00000000
00000200
00000000
00000000
00000000
00001300
00000000
00010000
00000000
00100000
00000000
01000000
00000000
11000000
00000000
10000000
00000000
10010000
00000000
00010000
00000000
00110000
00000000
00100000
00000000
,
01100000
00000000
00000000
00000000
10000000
00000000
00100000
10000000
00100000
10000000
00010000
00100000
00010000
00000000
00000000
00000000
10000000
00000000
01000000
00000000
00100000
00000000
01000000
00000000
10000000
00000000
00010000
00000000
00100000
00000000
00001000
00000000
,
00010000
00001000
00010000
00000000
00000020
00000000
00000000
00000000
00000130
00000000
00000001
00000000
00000010
00000100
00000010
00000000
00001001
00000000
00000000
00000000
00000000
00000000
00000100
00000000
00001000
00010000
00001000
00000000
00011000
00000000
00000000
00000000
,
00100000
00000000
01000000
00000000
10000000
00100000
10000000
00000000
10010000
00000000
00010000
00000000
00100000
00000000
01000000
00000000
10000000
00000000
00001000
00000000
00010000
00001000
00010000
00001000
00010000
00000010
00010000
00000010
00000100
00000010
00000100
00000000
,
00000001
00001001
00000000
00000010
00001010
00000000
00001000
00000100
00010000
00100000
01000000
10000000
00100000
01100000
00000000
00010000
,
01010000
00000000
00100000
00010000
00001000
00000100
00000010
00000001
00001000
00001010
00000000
00000100
00000110
00000000
00000100
00001000
,
00010000
00000000
01000000
00000000
00100000
00000000
10000000
00000000
01000000
00000000
11000000
00000000
00000000
00000000
00100000
00000000
01100000
00000000
00000000
00000000
00100000
01000000
00100000
00000000
10000000
01000000
10000000
00000000
00100000
01000000
00100000
01000000
,
00002000
00000000
00000000
00000000
00000000
00000000
00013000
00000000
00000000
00001000
00010000
00000010
00000200
00000000
00000000
00000000
,
00000000
00000000
00000301
00000000
00000000
00000100
00000001
00000010
00000200
00000000
00000000
00000000
00000000
00000000
00010300
00000000
,
00000000
00000100
00010000
00001000
02000000
00000000
00000000
00000000
00000000
00000000
03100000
00000000
00000000
01000000
10000000
00010000
,
00100000
00000000
00000000
00000000
;

//---------------dance-single - ----------------
#NOTES:
     dance-single:
     :
     Beginner:
     1:
     0.072,0.080,0.142,0.000,0.000:
1000
0000
0000
0000
,
0000
0000
0100
0000
,
0000
0010
0000
0000
,
0110
0000
0000
0000
,
0000
0000
0100
0000
,
0000
0000
0000
0000
,
0110
0000
0000
0000
,
0000
0000
0010
0000
,
0000
0000
0000
0000
,
1001
0000
0000
0001
,
0000
0000
1000
0000
,
0000
1000
0000
0000
,
1001
0000
0000
0001
,
0000
0000
1000
0000
,
0000
0001
0000
0000
,
1001
0000
0000
1001
,
0000
0000
1001
0000
,
0000
1001
0000
0000
,
0010
0000
0000
0100
,
0000
0000
0010
0000
,
0000
0100
0000
0000
,
1001
0000
0000
0000
,
0000
0000
1000
0000
,
0000
0000
0000
0000
,
1001
0000
0000
0000
,
0000
0000
0001
0000
,
0000
1000
0000
0000
,
1001
0000
0000
1000
,
0000
0000
0100
0000
,
0000
0010
0000
0000
,
1001
0000
0000
0001
,
0000
0000
0100
0000
,
0000
0010
0000
0000
,
0110
0000
0000
0110
,
0000
0000
0110
0000
,
0000
0110
0000
0000
,
1000
0000
0000
0000
;
