#TITLE:Ancestral Memories;
#SUBTITLE:;
#ARTIST:nadeco;
#TITLETRANSLIT:;
#SUBTITLETRANSLIT:;
#ARTISTTRANSLIT:;
#CREDIT:DigiMindAxel;
#BANNER:Ancestral Memories.png;
#BACKGROUND:Ancestral Memories-bg.png;
#LYRICSPATH:;
#CDTITLE:DigiMindAxel original simfile.png;
#MUSIC:Ancestral Memories.ogg;
#METERTYPE:DDR X;
#OFFSET:-11.037;
#SAMPLESTART:55.163;
#SAMPLELENGTH:12.000;
#SELECTABLE:YES;
#BPMS:0.000=174.000,192.000=87.000,224.000=174.000;
#STOPS:;
#BGCHANGES:0.000=Ancestral Memories.AVI=1.000=1=1=0,
320.000=Ancestral Memories-bg.png=1.000=1=0=1,
99999=-nosongbg-=1.000=0=0=0 // don't automatically add -songbackground-
;

//---------------dance-single - ----------------
#NOTES:
     dance-single:
     :
     Easy:
     6:
     0.331,0.358,0.088,0.096,0.000:
0001
1000
0001
0100
,
0010
1000
0100
0010
,
0001
1000
0001
1000
,
0020
0000
0100
0130
,
0001
1000
0001
1000
,
0010
0100
0001
0010
,
0100
1000
0001
0100
,
0020
0000
0100
0130
,
0001
1000
0001
1000
,
0100
0010
0001
1000
,
0010
0100
0010
0100
,
0002
0000
1000
1003
,
0010
0100
0010
0100
,
0001
1000
0001
1000
,
0100
0010
0001
1000
,
0010
0000
0000
0000
,
1000
1000
1000
1000
,
0001
0001
0001
0001
,
0100
0100
0100
0100
,
0010
0010
0110
0000
,
1000
1000
1000
1000
,
0001
0001
0001
0001
,
0100
0100
0100
0100
,
0010
0010
0110
0000
,
1000
0001
1000
0001
,
1000
0100
1000
0100
,
0010
0001
0010
0001
,
0100
0010
0200
0000
,
0301
1000
0001
1000
,
0001
0010
0001
0010
,
0100
1000
0100
1000
,
0010
0100
0020
0000
,
1030
1000
1000
0001
,
0100
0100
0001
1000
,
0001
0001
0001
1000
,
0010
0010
1000
0001
,
1000
1000
1000
0010
,
0100
0100
0110
1001
,
0001
0001
0100
0100
,
0020
0000
0000
1030
,
0001
0100
0001
1000
,
0100
1000
0100
0010
,
0001
0001
0100
0100
,
0020
0000
1000
1030
,
1001
0001
1000
0001
,
0110
0100
0010
0100
,
1001
1000
0001
1000
,
0020
0000
0000
0000
,
0130
0000
0100
0000
,
0100
0000
0100
0000
,
0010
0000
0010
0000
,
0010
0000
0010
0000
,
1001
0001
1000
0001
,
1000
0001
1000
0001
,
0100
0010
0100
0010
,
0110
1001
1001
0000
,
0001
0010
0100
1000
,
0010
0100
0010
1000
,
0100
0010
0001
1000
,
0020
0000
1000
1030
,
0001
0010
0100
1000
,
0010
0100
0010
1000
,
0100
0010
0001
1000
,
0020
0000
0100
0130
,
0001
1000
0100
0010
,
0001
1000
0010
0100
,
0010
1000
0100
0010
,
0002
0000
1000
1003
,
0010
0100
0010
0000
,
1000
0001
1000
0000
,
0010
0100
0010
0000
,
1000
0100
0010
0001
,
1000
1000
1000
1000
,
0001
0001
0001
0001
,
1000
1000
1000
1000
,
0001
0001
0001
0001
,
0100
0010
0100
0010
,
1000
0001
1000
0001
,
0100
0010
0100
0010
,
1000
0100
0010
0001
,
2002
0000
0000
0000
,
3003
0000
0000
0000
;

//---------------dance-single - ----------------
#NOTES:
     dance-single:
     :
     Medium:
     9:
     0.458,0.536,0.302,0.103,0.004:
1000
0000
1010
0000
1000
0000
0001
0010
,
0001
0000
1000
0000
0010
0100
0010
0100
,
0010
1000
0100
0010
,
0002
0000
1000
1003
,
0001
0000
0101
0000
0001
0000
1000
0100
,
1000
0000
0001
0000
0100
0010
0100
0010
,
0100
0001
0010
0100
,
2000
0000
0001
3001
,
0100
0000
0101
0000
0100
0000
0010
1000
,
0010
0000
1010
0000
0010
0100
0010
0100
,
0010
1000
0100
0010
,
0002
0000
1000
1003
,
1100
0010
0001
1000
,
0011
0100
1000
0001
,
0110
0100
0110
0010
,
2002
0000
0000
3003
,
0001
0001
0000
0001
0000
0001
1000
0000
,
1000
1000
0000
1000
0001
0000
0100
0000
,
0010
0000
1000
1000
0000
1000
0001
0000
,
0100
0010
0110
0110
,
1000
1000
0000
1000
0000
1000
0001
0000
,
0001
0001
0000
0001
0010
0000
0100
0000
,
1000
0000
1000
1000
0000
1000
0001
0000
,
0110
0110
0110
1001
,
0001
0100
0000
0001
0000
0100
0001
0000
,
1000
0100
0000
1000
0100
1000
0001
0000
,
1000
0000
0010
1000
0000
0010
1000
0000
,
0001
0010
0001
0000
0100
0000
0110
0000
,
1000
0100
0000
1000
0000
0100
1000
0000
,
0001
0100
0000
0001
0100
0001
1000
0000
,
0100
0000
0010
0100
0000
0010
0100
0000
,
1001
1001
1001
0001
,
1000
0100
0001
0100
,
1000
0000
0001
0000
0100
0010
0100
0010
,
0100
0000
0001
0000
0100
0000
1000
0100
,
0002
0000
0000
0103
0010
0100
0010
0000
,
1000
0100
0001
0100
,
1000
0000
0001
0000
0100
0010
0100
0010
,
0100
0000
0001
0000
0100
0000
1000
0100
,
0002
0000
0000
0000
0000
0000
1003
0001
,
1000
0100
0001
0100
,
1000
0000
0001
0000
0010
0100
0010
0100
,
0010
0000
0001
0000
0100
0000
1000
0100
,
0002
0000
0000
0103
0010
0100
0010
0000
,
1001
0100
0010
0001
,
0110
1000
0100
0010
,
1001
0100
1001
0100
,
0210
0010
0010
0010
,
0310
1000
0100
0001
,
0100
1000
0010
0001
,
0010
1000
0100
0001
,
0100
0000
1000
0000
0010
0000
0001
0010
,
1000
0001
0010
0000
0001
0010
0100
0000
,
0010
0100
1000
0001
0100
0000
0010
0000
,
1001
1000
0001
0000
1001
0001
1000
0000
,
0100
0000
0010
0000
0001
0000
1000
0000
1001
0000
0000
1000
0001
0000
0001
0000
,
1000
0000
1100
0000
1000
0000
0001
0100
,
1000
0000
0100
0000
0001
1000
0001
1000
,
0001
0000
0011
0000
1000
0000
0100
1000
,
0200
0000
0000
1300
0001
0100
0001
1000
,
0001
0000
0011
0000
0001
0000
1000
0100
,
0001
0000
0100
0000
1000
0001
1000
0001
,
1000
0000
1100
0000
0001
0000
0010
0001
,
0020
0000
0000
0031
1000
0010
1000
0000
,
0010
0000
0110
0000
0010
0000
1000
0100
,
0001
0000
0100
0000
1000
0001
1000
0001
,
1000
0000
1001
0000
0001
0000
0100
0010
,
0200
0000
0000
0301
1000
0100
1000
0001
,
0101
0100
0100
0100
,
1010
0010
0010
0010
,
0110
0100
0110
0100
,
1001
0001
1001
1000
,
1001
0010
0100
1000
,
0100
0000
0001
0000
0100
1000
0001
0000
,
1000
0100
0010
0001
,
0100
0000
1000
0000
0100
0001
1000
0000
,
0001
0010
0100
1000
,
0100
0000
0001
0000
0100
1000
0001
0000
,
1000
0100
0010
0001
,
1000
0000
0100
0000
0001
0100
1000
0000
,
2002
0000
0000
0000
,
3003
0000
0000
0000
;

//---------------dance-single - ----------------
#NOTES:
     dance-single:
     :
     Hard:
     14:
     0.669,0.983,0.559,0.096,0.232: // measure 1
1001
0000
0100
0000
1100
0000
0010
0001
,  // measure 2
1000
0000
1001
0000
0001
0010
0100
1000
,  // measure 3
0001
0000
0101
0000
0110
0000
0100
0010
,  // measure 4
2000
0000
0000
3001
0100
0001
1000
0100
,  // measure 5
1000
0000
0100
0000
1100
0000
0010
0001
,  // measure 6
1000
0000
1001
0000
0001
0010
0100
1000
,  // measure 7
0001
0000
0101
0000
0110
0000
0100
0010
,  // measure 8
2000
0000
0000
3001
0100
0001
1000
0000
,  // measure 9
1001
0000
0010
0000
0011
0000
0100
1000
,  // measure 10
0001
0000
1001
0000
1000
0100
0010
0001
,  // measure 11
1000
0000
1010
0000
0110
0000
0010
0100
,  // measure 12
0002
0000
0000
0013
0100
1000
0001
1000
,  // measure 13
1100
0000
0100
0000
0110
0000
0010
0001
,  // measure 14
1001
0000
0100
0000
1001
0010
0100
1000
,  // measure 15
0001
0000
0101
0000
0110
0000
0010
1000
,  // measure 16
1001
1001
1001
1001
,  // measure 17
0001
0001
0000
0100
0000
0100
0010
1000
,  // measure 18
0100
0000
0100
0000
0000
0000
0010
0000
0001
0000
0100
0000
0010
0100
0010
0000
,  // measure 19
0100
0000
0001
0001
0000
1000
1000
0010
,  // measure 20
0100
0000
0001
0000
1000
0100
1000
0000
0100
0010
0001
0000
0010
0000
0001
0000
,  // measure 21
0100
0100
0000
0010
0000
0010
0100
0001
,  // measure 22
0010
0000
0010
0000
0000
0000
0100
0000
0100
0000
1000
0000
0100
0010
0100
0000
,  // measure 23
1000
0000
1000
1000
0000
0001
0010
0100
,  // measure 24
1100
1001
0101
1001
,  // measure 25
1000
0010
0100
0100
0000
0001
0001
0000
,  // measure 26
0001
0000
0010
0000
0100
0000
0010
0000
0001
0100
0001
0000
1000
0000
0001
0000
,  // measure 27
0001
0000
0100
0100
0000
0100
0010
0100
,  // measure 28
0001
0000
0010
0000
0100
1000
0100
0000
0010
0001
0100
0000
0010
0000
0100
0000
,  // measure 29
0001
0001
0000
0010
0000
0010
0100
1000
,  // measure 30
0001
0000
0001
0000
0000
0000
1000
0000
0001
1000
0100
0000
0010
0000
0100
0000
,  // measure 31
1000
0000
0000
0000
0100
0000
1000
0000
0010
0100
0001
0000
0100
0000
0001
0000
,  // measure 32
1000
0001
1000
0001
1000
0001
1000
0001
1000
0000
0001
0000
1000
0000
0001
0000
,  // measure 33
1001
0000
1100
0000
0011
0000
0100
1000
,  // measure 34
0001
0000
0000
0000
1001
0000
0000
0000
0001
0100
0001
0000
1000
0000
0100
0000
,  // measure 35
0010
0000
0011
0000
1100
0000
0010
0001
,  // measure 36
2000
0000
0000
3100
0010
0001
1000
0000
,  // measure 37
1010
0000
0110
0000
0101
0000
0010
1000
,  // measure 38
0001
0000
0000
0000
1001
0000
0000
0000
0001
1000
0100
0000
0010
0000
0001
0000
,  // measure 39
1000
0000
1010
0000
0101
0000
0010
1000
,  // measure 40
0002
0000
1000
0000
1003
0000
0001
0100
,  // measure 41
0010
0000
0110
0000
1001
0000
1000
0010
,  // measure 42
0100
0000
0000
0000
1001
0000
0000
0000
0001
0100
0001
0000
1000
0000
0100
0000
,  // measure 43
0010
0000
0011
0000
1001
0000
0100
1000
,  // measure 44
0002
0000
0000
0103
0001
1000
0100
0000
,  // measure 45
1001
0010
0100
1000
0100
0010
0100
1000
,  // measure 46
0001
0100
0010
0100
0001
0010
1000
0010
,  // measure 47
0001
0100
0001
0100
0001
0100
0001
0000
1000
0001
1000
0001
1000
0001
1000
0000
,  // measure 48
1001
1001
1001
1001
,  // measure 49
0101
0000
0100
0000
0100
0000
0100
0010
1000
0000
1000
0000
0100
0010
0100
0010
,  // measure 50
0001
0000
0001
0000
0001
0000
1000
0010
0200
0000
0000
0310
0100
0010
1000
0100
,  // measure 51
0010
0000
0010
0000
0010
0000
0010
0001
0100
0000
0100
0000
0100
0010
1000
0100
,  // measure 52
0010
0000
0010
0000
0001
0000
0001
1000
0200
0000
0000
1300
0010
0100
0010
0000
,  // measure 53
1001
0000
0001
0000
0001
0000
0001
0100
0010
0000
0010
0000
0010
0100
0001
0010
,  // measure 54
0100
0000
0100
0000
0100
0000
0100
1000
0002
0000
0000
0013
0100
0010
0100
1000
,  // measure 55
0001
0100
0010
0100
0001
0100
0010
0100
0001
1000
0100
0010
0100
1000
0100
0010
,  // measure 56
0100
1000
0100
1000
0010
0100
0010
0100
0101
0000
0000
0010
0110
0000
0110
0000
,  // measure 57
1001
0000
0011
0000
1100
0000
1000
0100
,  // measure 58
0001
0000
0100
0000
1000
0000
0001
0000
0010
0100
1000
0000
0001
0000
0001
0000
,  // measure 59
0101
0000
1010
0000
1001
0000
0001
1000
,  // measure 60
0020
0000
0000
0130
0001
0010
0100
1000
,  // measure 61
1001
0000
0110
0000
1001
0000
0001
0100
,  // measure 62
1000
0000
0100
0000
0001
0000
1000
0000
0100
0010
0001
0000
0100
0000
0100
0000
,  // measure 63
0101
0000
1010
0000
1001
0000
1000
0001
,  // measure 64
0020
0000
0000
0031
1000
0100
0010
0000
,  // measure 65
0011
0000
1100
0000
1001
0000
1000
0010
,  // measure 66
0001
0000
0010
0000
1000
0000
0010
0000
0100
0001
1000
0000
0100
0000
0100
0000
,  // measure 67
1000
0001
0100
1000
0100
0000
0010
1000
,  // measure 68
0002
0000
0000
1003
0100
0010
0001
0100
,  // measure 69
0101
0000
0001
0000
0001
0000
0001
1000
,  // measure 70
1010
1000
1000
1000
,  // measure 71
0110
0000
0001
0000
0110
0000
1000
0001
,  // measure 72
1001
0000
0100
0000
1001
0100
0010
0001
,  // measure 73
1000
0010
0000
0010
0000
0010
0000
0010
,  // measure 74
0100
0000
0001
0000
0000
0000
0001
0000
1000
0100
1000
0000
0100
0000
1000
0000
,  // measure 75
0001
0100
0000
0100
0000
0100
0000
0100
,  // measure 76
0010
0000
1000
0000
0000
0000
1000
0000
0001
0010
0001
0000
0010
0000
0001
0000
,  // measure 77
0100
0010
0000
0010
0000
0010
0000
0010
,  // measure 78
0100
0000
0001
0000
0000
0000
0001
0000
1000
0100
1000
0000
0100
0000
1000
0000
,  // measure 79
0001
0010
0000
0010
0000
0010
0000
0010
,  // measure 80
0100
0000
1000
0000
0000
0000
1000
0000
0010
0100
0010
0000
0100
0000
0001
1000
,  // measure 81
0002
0000
0000
0000
,  // measure 82
0003
0000
0000
0000
;

//---------------dance-single - ----------------
#NOTES:
     dance-single:
     :
     Beginner:
     3:
     0.089,0.177,0.029,0.000,0.000:
1000
0000
0000
0000
,
0001
0000
0000
0000
,
1000
0000
0000
0000
,
0001
0000
0000
0000
,
0100
0000
0000
0000
,
0010
0000
0000
0000
,
0100
0000
0000
0000
,
0010
0000
0000
0000
,
1000
0000
0000
0000
,
0001
0000
0000
0000
,
1000
0000
0000
0000
,
0001
0000
0000
0000
,
0010
0000
0000
0000
,
0100
0000
0000
0000
,
0010
0000
0000
0000
,
0100
0000
0000
0000
,
1000
0000
0000
0000
,
1000
0000
0000
0000
,
0001
0000
0000
0000
,
0001
0000
0000
0000
,
1000
0000
0000
0000
,
1000
0000
0000
0000
,
0001
0000
0000
0000
,
0001
0000
0000
0000
,
0100
0000
0000
0000
,
0010
0000
0000
0000
,
0100
0000
0000
0000
,
0010
0000
0000
0000
,
1000
0000
0000
0000
,
0001
0000
0000
0000
,
1000
0000
0000
0000
,
1001
0000
0000
0000
,
0001
0000
0000
0000
,
0010
0000
0000
0000
,
0100
0000
0000
0000
,
1000
0000
0000
0000
,
0001
0000
0000
0000
,
0010
0000
0000
0000
,
0100
0000
0000
0000
,
1000
0000
0000
0000
,
0001
0000
0000
0000
,
1000
0000
0000
0000
,
0001
0000
0000
0000
,
1000
0000
0000
0000
,
0100
0000
0000
0000
,
0010
0000
0000
0000
,
0100
0000
0000
0000
,
0110
0000
0000
0000
,
1000
0000
0000
0000
,
0000
0000
0000
0000
,
1000
0000
0000
0000
,
0000
0000
0000
0000
,
1001
0000
0000
0000
,
0001
0000
0000
0000
,
1000
0000
0001
0000
,
1000
0000
1001
0000
,
0001
0000
0000
0000
,
1000
0000
0000
0000
,
0001
0000
0000
0000
,
0010
0000
0000
0000
,
0100
0000
0000
0000
,
1000
0000
0000
0000
,
0001
0000
0000
0000
,
1000
0000
0000
0000
,
0010
0000
0000
0000
,
0100
0000
0000
0000
,
0010
0000
0000
0000
,
0100
0000
0000
0000
,
0001
0000
0000
0000
,
0001
0000
0000
0000
,
0001
0000
0000
0000
,
0001
0000
0000
0000
,
1000
0000
0000
0000
,
0001
0000
0000
0000
,
1000
0000
0000
0000
,
0001
0000
0000
0000
,
0010
0000
0000
0000
,
0100
0000
0000
0000
,
0010
0000
0000
0000
,
0100
0000
0000
0000
,
1000
0000
0000
0000
;
