#TITLE:All I Need;
#SUBTITLE:;
#ARTIST:aran;
#TITLETRANSLIT:;
#SUBTITLETRANSLIT:;
#ARTISTTRANSLIT:;
#CREDIT:DigiMindAxel;
#BANNER:All I Need.png;
#BACKGROUND:All I Need-bg.png;
#LYRICSPATH:;
#CDTITLE:DigiMindAxel original simfile.png;
#MUSIC:All I Need.ogg;
#METERTYPE:DDR X;
#OFFSET:-7.717;
#SAMPLESTART:91.519;
#SAMPLELENGTH:12.000;
#SELECTABLE:YES;
#BPMS:0.000=126.000;
#STOPS:;
#BGCHANGES:;

//---------------dance-single - ----------------
#NOTES:
     dance-single:
     :
     Easy:
     4:
     0.214,0.218,0.024,0.118,0.000: // measure 1
1000
0001
1000
0000
,  // measure 2
0100
1000
0100
0000
,  // measure 3
0010
0100
0010
0000
,  // measure 4
0001
0010
0100
1000
,  // measure 5
0001
1000
0001
0000
,  // measure 6
0100
0001
0100
0000
,  // measure 7
0010
0100
0010
0000
,  // measure 8
1000
0100
0010
0001
,  // measure 9
1000
1001
0001
0000
,  // measure 10
1000
0001
1000
0000
,  // measure 11
0010
1000
0010
0000
,  // measure 12
0100
0001
0010
0100
,  // measure 13
1000
0001
1000
0000
,  // measure 14
0001
0100
0001
0000
,  // measure 15
1000
0100
1000
0000
,  // measure 16
0010
0100
0001
0100
,  // measure 17
0010
1000
0010
0000
,  // measure 18
1000
0001
1000
0000
,  // measure 19
0001
0010
0001
0000
,  // measure 20
0100
0001
0010
0100
,  // measure 21
1000
0001
1000
0000
,  // measure 22
0100
1000
0100
0000
,  // measure 23
0010
0100
0010
0000
,  // measure 24
0001
0100
0010
0100
,  // measure 25
0002
0000
0000
0000
,  // measure 26
2003
0000
0000
0000
,  // measure 27
3002
0000
0000
0000
,  // measure 28
2003
0000
0000
3000
,  // measure 29
0200
0000
0000
0000
,  // measure 30
0320
0000
0000
0000
,  // measure 31
0032
0000
0000
0000
,  // measure 32
2003
0000
0000
0000
,  // measure 33
3020
0000
0000
0000
,  // measure 34
0230
0000
0000
0000
,  // measure 35
0320
0000
0000
0000
,  // measure 36
2030
0000
0000
0000
,  // measure 37
3001
1000
0001
1000
,  // measure 38
0001
1000
0001
1000
,  // measure 39
0001
1000
0001
1000
,  // measure 40
0001
1000
0001
1000
,  // measure 41
0010
0100
0010
0100
,  // measure 42
0001
0010
0001
0010
,  // measure 43
0001
1000
0001
1000
,  // measure 44
0200
0000
0000
0300
,  // measure 45
1001
0100
0010
0000
,  // measure 46
0001
0010
0100
0000
,  // measure 47
1000
0100
0010
0000
,  // measure 48
0001
1000
0010
0100
,  // measure 49
0001
0010
0100
0000
,  // measure 50
0010
0100
1000
0000
,  // measure 51
0001
0010
0100
0000
,  // measure 52
1000
0010
0100
0001
,  // measure 53
1000
0100
1000
0000
,  // measure 54
0010
0100
0001
0000
,  // measure 55
0100
0001
0010
0000
,  // measure 56
0001
0010
0100
1000
,  // measure 57
0010
0100
0001
0000
,  // measure 58
0100
0001
0010
0000
,  // measure 59
0001
0010
0100
1000
,  // measure 60
0010
0100
0010
0000
,  // measure 61
2002
0000
0000
0000
,  // measure 62
0000
0000
3003
0000
;

//---------------dance-single - ----------------
#NOTES:
     dance-single:
     :
     Medium:
     7:
     0.305,0.315,0.079,0.150,0.000:
1000
0100
0010
0010
,
0001
0100
0010
0010
,
1000
0001
0100
0100
,
0001
0010
0100
1000
,
0001
0100
0010
0010
,
1000
0100
0010
0010
,
0001
1000
0100
0100
,
2002
0000
0000
3003
,
1002
0100
0100
0100
,
2003
0100
3200
0320
,
0001
0001
0001
0031
,
1000
0000
0100
0010
0100
0000
1000
0000
,
0002
0100
0100
0103
,
0010
1000
0001
0001
,
0010
0100
1000
1000
,
0001
0010
0100
1000
,
0001
0100
0001
0001
,
0010
0100
1000
1000
,
0001
0100
0010
0100
,
0001
0000
1000
0100
1000
0000
0010
0000
,
0200
0001
0001
0301
,
2000
0100
3200
0010
,
0310
0000
0001
1000
0001
0000
0100
0000
,
0010
1000
0010
1000
0001
0000
0010
0000
,
0100
0000
0000
0000
1100
0000
0000
0110
,
0000
0000
0000
0000
,
0010
0000
0000
0000
0011
0000
0000
0110
,
0000
0000
0000
1010
0000
0000
0000
0000
,
2000
0000
0000
3001
,
0200
0000
0000
0320
0000
0000
2030
0000
,
0000
0000
0000
0000
,
3000
0000
0001
0100
,
0002
0000
0000
0000
,
0000
0000
0203
0000
,
0000
0000
0300
0000
0010
0000
0000
0100
,
0000
0000
0000
1001
0000
0000
0000
0000
,
1000
0000
0100
0000
0010
0001
0010
0000
,
0001
0000
1000
0000
0010
0100
0010
0000
,
1000
0000
0100
0000
0010
0001
0010
0000
,
0001
0000
1000
0000
0010
0100
0010
0000
,
1000
0100
1000
0100
1000
0000
0001
0000
,
0100
0001
0100
0001
0100
0000
0010
0000
,
1000
0100
1000
0100
1000
0000
0100
0000
,
0020
0000
0000
0130
,
1001
0000
0001
0000
1000
0010
0100
0000
,
0010
0000
1000
0000
0001
0010
0100
0000
,
0010
0000
0001
0000
1000
0001
0100
0000
,
0010
1000
0010
1000
0001
0000
0010
0000
,
0100
0000
1000
0000
0001
0100
0010
0000
,
1000
0000
0001
0000
1000
0100
0010
0000
,
0001
0000
1000
0000
0001
1000
0010
0000
,
0100
0001
0100
0001
1000
0000
0100
0000
,
0010
0000
0001
0000
0100
0010
1000
0000
,
0001
0000
0100
0000
0010
1000
0100
0000
,
0010
0000
0001
0000
1000
0100
0010
0000
,
0100
1000
0100
1000
0001
0000
0100
0000
,
0001
0000
0010
0000
0100
0010
0001
0000
,
0100
0000
0010
0000
1000
0100
0010
0000
,
0100
0000
1000
0000
0001
0100
0010
0000
,
1000
0001
1000
0001
0100
0000
0100
0000
,
2002
0000
0000
0000
,
0000
0000
3003
0000
;

//---------------dance-single - ----------------
#NOTES:
     dance-single:
     :
     Hard:
     11:
     0.495,0.484,0.134,0.197,0.354:
0100
0000
0000
0000
1001
0000
0000
0000
0100
0000
0000
0100
0000
0000
0100
0000
,
0020
0000
0000
0000
2030
0000
0000
0000
3001
0000
0000
0001
0000
0001
0000
0000
,
0200
0000
0000
0000
0302
0000
0000
0000
1003
0000
0000
1000
0000
0000
1000
0000
,
0200
0000
0000
0000
0320
0000
0000
0000
0031
0000
0000
0100
0000
0100
0000
0000
,
0002
0000
0000
0000
0023
0000
0000
0000
0130
0000
0000
0100
0000
0000
0100
0000
,
2000
0000
0000
0000
3020
0000
0000
0000
0130
0000
0000
0100
0000
0100
0000
0000
,
0002
0000
0000
0000
2003
0000
0000
0000
3100
0000
0000
0100
0000
0000
0100
0000
,
0020
0000
0000
0030
,
0100
0000
0010
0000
1001
0000
0000
0000
0001
0000
0000
0100
0000
0000
0001
0000
,
1000
0000
0100
0000
0010
0000
0100
0000
1000
0000
0000
0001
0000
0001
0000
0000
,
1000
0000
0001
0000
0010
0000
0001
0000
1000
0000
0000
0100
0000
0000
1000
0000
,
0001
0000
0010
0000
0100
0000
1000
0000
0001
0000
0000
1000
0000
1000
0000
0000
,
0100
0000
0010
0000
0001
0000
0100
0000
0010
0000
0000
1000
0000
0000
0010
0000
,
1000
0000
0100
0000
0010
0000
0100
0000
1000
0000
0000
0010
0000
0010
0000
0000
,
0100
0000
0001
0000
0010
0000
0100
0000
0010
0000
0000
0001
0000
0000
0010
0000
,
0100
0000
1000
0000
0010
0000
0100
0000
0001
0000
0000
0100
0000
0100
0000
0000
,
0001
0000
0100
0000
1000
0000
0100
0000
0001
0000
0000
1000
0000
0000
0100
0000
,
1000
0000
0010
0000
0001
0000
0010
0000
1000
0000
0000
0001
0000
1000
0000
0000
,
0001
0000
0010
0000
1000
0000
0010
0000
0001
0000
0000
1000
0000
0000
0001
0000
,
1000
0000
0100
0000
0001
0000
0100
0000
1000
0000
0000
0001
0000
1000
0000
0000
,
0001
0000
0100
0000
1000
0000
0100
0000
0010
0000
0000
1000
0000
0000
0001
0000
,
1000
0000
0010
0000
0001
0000
0010
0000
0100
0000
0000
0001
0000
1000
0000
0000
,
0001
0000
0010
0000
1000
0000
0010
0000
0100
0000
0000
1000
0000
0000
0001
0000
,
1000
0100
0010
0001
1000
0100
0010
0000
,
0201
0000
0000
0000
0001
0000
0000
0000
0010
0000
0000
0010
0000
0000
0310
0000
,
2000
0000
0000
0000
0100
0000
0000
0000
0100
0000
0000
0001
0000
3001
0000
0000
,
0020
0000
0000
0000
0001
0000
0000
0000
0100
0000
0000
0100
0000
0000
0130
0000
,
2000
0000
0000
0000
0001
0000
0000
0000
0001
0000
0000
0100
0000
3100
0000
0000
,
1000
0000
0000
1000
0000
0100
0000
0010
0000
0000
0000
0000
0001
0000
0100
0000
,
0001
0000
0000
1000
0000
0100
0000
0010
0000
0000
0000
0000
0001
0000
1000
0000
,
0001
0000
0000
0100
0000
0001
0000
0010
0000
0000
0000
0000
0100
0000
0010
0000
,
0100
0000
0000
1000
0000
0001
0000
0100
0000
0000
0000
0000
0001
0000
1000
0000
,
0001
0000
0100
0010
0000
1000
0000
0010
0000
0100
0010
0000
1000
0000
0100
0000
,
1000
0000
0001
0100
0000
0010
0000
0100
0000
0001
0100
0000
0010
0000
1000
0000
,
0010
0000
0100
0001
0000
0010
0000
0100
0000
1000
0001
0000
1000
0000
0010
0000
,
1000
0000
0001
0100
0000
0010
0000
0100
0000
0001
1000
0000
0100
0000
0010
0000
,
1001
0000
1001
0000
0110
0010
0100
0001
,
1001
0000
1001
0000
0110
0010
0100
1000
,
1001
0000
1001
0000
0110
0100
0010
0001
,
1001
0000
1001
0000
0110
0100
0010
1000
,
0001
1000
0010
0001
0010
1000
0100
0010
,
0001
0100
1000
0100
0001
0010
0100
1000
,
0010
0001
0010
1000
0001
0010
0100
1000
,
0002
0000
0000
1003
,
0110
0000
0100
0000
0001
0000
0001
0000
1000
0000
0000
1000
0100
0000
0010
0000
,
0001
0000
0001
0000
0100
0000
0100
0000
0010
0000
0000
1000
0000
0010
0000
0000
,
1000
0000
1000
0000
0001
0000
0001
0000
0100
0000
0000
0100
0001
0000
0010
0000
,
0001
0000
0100
0000
1000
0000
0100
0000
0002
0000
0000
0010
0000
0013
0000
0000
,
0100
0000
0100
0000
0010
0000
0010
0000
0001
0000
0000
0100
0001
0000
0010
0000
,
0100
0000
0100
0000
1000
0000
1000
0000
0010
0000
0000
1000
0000
0001
0000
0000
,
0010
0000
0010
0000
0100
0000
0100
0000
1000
0000
0000
1000
0001
0000
0100
0000
,
0001
0000
0010
0000
1000
0000
0010
0000
0002
0000
0000
0100
0000
0103
0000
0000
,
0010
0000
0010
0000
0100
0000
0100
0000
0001
0000
0000
1000
0100
0000
0100
0000
,
0010
0000
0010
0000
0001
0000
0001
0000
2000
0000
0000
0010
0000
3010
0000
0000
,
0100
0000
0100
0000
0001
0000
0001
0000
1000
0000
0000
0100
0010
0000
0010
0000
,
0001
0000
0100
0000
1000
0000
0100
0000
0020
0000
0000
1000
0000
1030
0000
0000
,
0001
0000
0001
0000
0010
0000
0010
0000
0001
0000
0000
0001
1000
0000
0010
0000
,
0100
0000
0100
0000
0001
0000
0001
0000
2000
0000
0000
0100
0000
3100
0000
0000
,
0010
0000
0010
0000
0001
0000
0001
0000
0100
0000
0000
0100
0010
0000
0010
0000
,
1000
0000
0100
0000
0010
0000
0001
0000
1000
0000
0000
0001
0000
0100
0000
0000
,
0220
0000
0000
0000
,
0000
0000
0330
0000
;

//---------------dance-double - ----------------
#NOTES:
     dance-double:
     :
     Easy:
     4:
     0.216,0.218,0.047,0.134,0.000:
10000000
10010000
00010000
00000000
,
10000000
01000000
10000000
00000000
,
00100000
01000000
00100000
00000000
,
10000000
01000000
00100000
00001000
,
00010000
00000100
00010000
00000000
,
00000010
00000100
00000010
00000000
,
00001000
00000010
00001000
00000000
,
00000001
00000010
00000100
00010000
,
00001000
00011000
00010000
00000000
,
00001000
01000000
00001000
00000000
,
00100000
01000000
00100000
00000000
,
00010000
00100000
01000000
10000000
,
00001000
00010000
00001000
00000000
,
00010000
00000010
00010000
00000000
,
00000001
00000010
00000001
00000000
,
00000010
00000100
00010000
01001000
,
00100000
10000000
00100000
00000000
,
10000000
00010000
10000000
00000000
,
00010000
00100000
00010000
00000000
,
01000000
00100000
10000000
00100000
,
01000000
00001000
00010000
00000000
,
00000100
00000010
00000100
00000000
,
00001000
00000001
00001000
00000000
,
00002002
00000000
00000000
00003003
,
00000020
00000000
00000000
00000000
,
00000230
00000000
00000000
00000000
,
00020300
00000000
00000000
00000000
,
00032000
00000000
00000000
00003000
,
02000000
00000000
00000000
00000000
,
03200000
00000000
00000000
00000000
,
20300000
00000000
00000000
00000000
,
30020000
00000000
00000000
00000000
,
00230000
00000000
00000000
00000000
,
02300000
00000000
00000000
00000000
,
03200000
00000000
00000000
00000000
,
00302000
00000000
00000000
00000000
,
00013000
00001000
00010000
00001000
,
00010000
00000010
00010000
00000010
,
00000100
00000001
00000100
00000001
,
00000010
00000100
00000010
00000100
,
00010000
00001000
00010000
00001000
,
01000000
00100000
01000000
00100000
,
10000000
00010000
10000000
00010000
,
20000000
00000000
00000000
30000000
,
10010000
01000000
00100000
00000000
,
00001000
00010000
00000010
00000000
,
00000100
00000001
00000010
00000000
,
00000001
00000010
00000100
00001000
,
00010000
00100000
01000000
00000000
,
10000000
00100000
01000000
00000000
,
00010000
01000000
00100000
00000000
,
10000000
01000000
00100000
00010000
,
00001000
00000100
00000010
00000000
,
00000001
00000100
00000010
00000000
,
00000100
00000010
00001000
00000000
,
00000001
00000010
00000100
00001000
,
00010000
01000000
00100000
00000000
,
01000000
00010000
00100000
00000000
,
00010000
00100000
01000000
10000000
,
00001000
00100000
00001000
00000000
,
00022000
00000000
00000000
00000000
,
00000000
00000000
00033000
00000000
;

//---------------dance-double - ----------------
#NOTES:
     dance-double:
     :
     Medium:
     7:
     0.323,0.363,0.205,0.157,0.000:
01000000
10010000
10000000
10000000
,
01000000
00100000
00001000
00001000
,
00010000
00000100
00000010
00000010
,
00000001
00000010
00000100
00011000
,
00001000
00100000
01000000
01000000
,
00100000
00010000
10000000
10000000
,
00100000
01000000
00010000
00010000
,
02200000
00000000
00000000
03300000
,
10020000
00100000
00100000
00130000
,
00002000
00010000
00023000
00030200
,
00000010
00000010
00000010
00000310
,
00000001
00000000
00000010
00000001
00000010
00000000
00000100
00000000
,
00002000
00010000
00010000
00013000
,
00100000
01000000
10000000
10000000
,
00010000
01000000
00100000
00100000
,
10000000
01000000
00100000
00001000
,
00010000
00000010
00000100
00000100
,
00000001
00000010
00000100
00000100
,
00001000
00010000
01000000
00100000
,
10000000
00000000
01000000
00100000
01000000
00000000
10000000
00000000
,
00020000
00100000
00100000
00130000
,
00002000
00010000
00023000
00000010
,
00030010
00000000
00000100
00000010
00000100
00000000
00000001
00000000
,
00001000
00000001
00001000
00000001
00000010
00000000
00000100
00000000
,
00010000
00000000
00000000
00000000
00011000
00000000
00000000
01001000
,
00000000
00000000
00000000
00000000
,
00100000
00000000
00000000
00000000
01100000
00000000
00000000
11000000
,
00000000
00000000
00000000
10010000
00000000
00000000
00000000
00000000
,
02000000
00000000
00000000
03100000
,
00020000
00000000
00000000
00032000
00000000
00000000
00003020
00000000
,
00000000
00000000
00000000
00000000
,
00000030
00000000
00000100
00000001
,
00000200
00000000
00000000
00000000
,
00000000
00000000
00000320
00000000
,
00000000
00000000
00000030
00000000
00010000
00000000
00000000
00001000
,
00000000
00000000
00000000
01001000
00000000
00000000
00000000
00000000
,
01000000
00000000
01000000
00000000
01000000
00100000
01000000
00000000
,
00001000
00000000
00001000
00000000
00001000
00100000
00001000
00000000
,
00010000
00000000
00010000
00000000
00010000
00000010
00010000
00000000
,
00000100
00000000
00000100
00000000
00000100
00000010
00000100
00000000
,
00001000
00000001
00001000
00000001
00001000
00000000
00001000
00000000
,
00000010
00000100
00000010
00000100
00000010
00000000
00000010
00000000
,
00000100
00000001
00000100
00000001
00000100
00000000
00000100
00000000
,
00002002
00000000
00000000
00003003
,
00000110
00000000
00000110
00000000
00000100
00000010
00010000
00000000
,
00001000
00000000
00011000
00000000
00001000
01000000
00100000
00000000
,
10000000
00000000
10100000
00000000
00100000
01000000
00010000
00000000
,
01000000
00100000
01000000
00100000
10000000
00000000
01000000
00000000
,
00100000
00000000
00101000
00000000
00001000
00010000
00000010
00000000
,
00000100
00000000
00000110
00000000
00000010
00000001
00000100
00000000
,
00000010
00000000
00000110
00000000
00000100
00010000
00001000
00000000
,
00100000
01000000
00100000
01000000
10000000
00000000
00010000
00000000
,
10000000
00000000
10100000
00000000
00100000
10000000
01000000
00000000
,
00100000
00000000
00101000
00000000
00001000
00010000
00000010
00000000
,
00000100
00000000
00000110
00000000
00000010
00000001
00001000
00000000
,
00000010
00010000
00000010
00010000
00001000
00000000
00010000
00000000
,
00100000
00000000
01100000
00000000
01000000
10000000
00100000
00000000
,
10000000
00000000
10010000
00000000
00010000
01000000
00001000
00000000
,
00010000
00000000
00010001
00000000
00000001
00000010
00000100
00000000
,
00010000
00001000
00010000
00001000
01000000
00000000
01100000
00000000
,
20020000
00000000
00000000
00000000
,
00000000
00000000
30030000
00000000
;

//---------------dance-double - ----------------
#NOTES:
     dance-double:
     :
     Hard:
     11:
     0.479,0.460,0.110,0.165,0.354:
00000000
00000000
00000000
00000000
10010000
00000000
00000000
00000000
01000000
00000000
00000000
01000000
00000000
00000000
01000000
00000000
,
20000000
00000000
00000000
00000000
32000000
00000000
00000000
00000000
03100000
00000000
00000000
00100000
00000000
00100000
00000000
00000000
,
00002000
00000000
00000000
00000000
00023000
00000000
00000000
00000000
00030010
00000000
00000000
00000010
00000000
00000000
00000010
00000000
,
00000200
00000000
00000000
00000000
00000302
00000000
00000000
00000000
00001003
00000000
00000000
00001000
00000000
00001000
00000000
00000000
,
00000002
00000000
00000000
00000000
00000023
00000000
00000000
00000000
00000130
00000000
00000000
00000100
00000000
00000000
00000100
00000000
,
00020000
00000000
00000000
00000000
00032000
00000000
00000000
00000000
01003000
00000000
00000000
01000000
00000000
01000000
00000000
00000000
,
00200000
00000000
00000000
00000000
20300000
00000000
00000000
00000000
30010000
00000000
00000000
00010000
00000000
00000000
00010000
00000000
,
00200000
00000000
00000000
00300000
,
00000000
00000000
00000000
00000000
10010000
00000000
00000000
00000000
10000000
00000000
00000000
00010000
00000000
00000000
10000000
00000000
,
00010000
00000000
00100000
00000000
01000000
00000000
00100000
00000000
00010000
00000000
00000000
00001000
00000000
00001000
00000000
00000000
,
00000100
00000000
00000010
00000000
00000001
00000000
00000010
00000000
00000100
00000000
00000000
00001000
00000000
00000000
00000100
00000000
,
00000010
00000000
00000001
00000000
00000100
00000000
00000001
00000000
00000010
00000000
00000000
00000100
00000000
00000100
00000000
00000000
,
00010000
00000000
00001000
00000000
01000000
00000000
00100000
00000000
10000000
00000000
00000000
00010000
00000000
00000000
10000000
00000000
,
00010000
00000000
01000000
00000000
00100000
00000000
01000000
00000000
00001000
00000000
00000000
00010000
00000000
00010000
00000000
00000000
,
00000010
00000000
00000100
00000000
00000001
00000000
00000100
00000000
00000010
00000000
00000000
00001000
00000000
00000000
00000010
00000000
,
00010000
00000000
00001000
00000000
00100000
00000000
01000000
00000000
10000000
00000000
00000000
00010000
00000000
00010000
00000000
00000000
,
10000000
00000000
01000000
00000000
00100000
00000000
00010000
00000000
10000000
00000000
00000000
00100000
00000000
00000000
10000000
00000000
,
00010000
00000000
00100000
00000000
01000000
00000000
10000000
00000000
00010000
00000000
00000000
01000000
00000000
00001000
00000000
00000000
,
00010000
00000000
00000100
00000000
00000010
00000000
00000001
00000000
00000100
00000000
00000000
00000010
00000000
00000000
00000100
00000000
,
00000001
00000000
00000010
00000000
00000100
00000000
00001000
00000000
00010000
00000000
00000000
01000000
00000000
00100000
00000000
00000000
,
10000000
00000000
00010000
00000000
01000000
00000000
00010000
00000000
10000000
00000000
00000000
01000000
00000000
00000000
00100000
00000000
,
00001000
00000000
00010000
00000000
00000100
00000000
00000010
00000000
00000001
00000000
00000000
00001000
00000000
00000010
00000000
00000000
,
00010000
00000000
00001000
00000000
00100000
00000000
01000000
00000000
00100000
00000000
00000000
00010000
00000000
00000000
00100000
00000000
,
00001000
10000000
01000000
00100000
00001000
00010000
00000010
00000000
,
00000101
00000000
00000000
00000000
00000100
00000000
00000000
00000000
00000001
00000000
00000000
00000001
00000000
00000000
00000001
00000000
,
00000010
00000000
00000000
00000000
00000100
00000000
00000000
00000000
00010000
00000000
00000000
00001000
00000000
00001000
00000000
00000000
,
10000000
00000000
00000000
00000000
10000000
00000000
00000000
00000000
00100000
00000000
00000000
00100000
00000000
00000000
00100000
00000000
,
10000000
00000000
00000000
00000000
01000000
00000000
00000000
00000000
00100000
00000000
00000000
00001000
00000000
00001000
00000000
00000000
,
00011000
00000000
00000000
00010000
00000000
00000010
00000000
00000100
00000000
00000000
00000000
00000000
00000001
00000000
00001000
00000000
,
00000001
00000000
00000000
00000100
00000000
00000010
00000000
00010000
00000000
00000000
00000000
00000000
00001000
00000000
01000000
00000000
,
00001000
00000000
00000000
01000000
00000000
00100000
00000000
10000000
00000000
00000000
00000000
00000000
00010000
00000000
10000000
00000000
,
00010000
00000000
00000000
00100000
00000000
01000000
00000000
10000000
00000000
00000000
00000000
00000000
00100000
00000000
01000000
00000000
,
00100000
00000000
10000000
00010000
00000000
01000000
00000000
00010000
00000000
10000000
00001000
00000000
00010000
00000000
00000100
00000000
,
00000010
00000000
00000001
00001000
00000000
00000010
00000000
00001000
00000000
00000001
00000010
00000000
00000100
00000000
00010000
00000000
,
00001000
00000000
01000000
00100000
00000000
01000000
00000000
00010000
00000000
01000000
00100000
00000000
10000000
00000000
01000000
00000000
,
00100000
00000000
00001000
00010000
00000000
00000010
00000000
00000100
00000000
00000010
00010000
00000000
00000100
00000000
00000010
00000000
,
00000001
00000100
00000001
00000000
00001100
00000000
00100100
00000000
,
01000000
00100000
10000000
00000000
10010000
00000000
01001000
00000000
,
00001000
00010000
00000100
00000000
00001100
00000000
00001001
00000000
,
00000001
00000010
00000100
00000000
00010100
00000000
00011000
00000000
,
00001000
10000000
01000000
00100000
00010000
10000000
00100000
10000000
,
00001000
00010000
00000100
00000010
00000001
00001000
00000010
00001000
,
00000001
00000010
00000100
00010000
00001000
01000000
00100000
01000000
,
00002000
00000000
00000000
00013000
,
00000110
00000000
00000010
00000000
00001000
00000000
00001000
00000000
00000001
00000000
00000000
00000001
00000100
00000000
00000001
00000000
,
00001000
00000000
00001000
00000000
00000100
00000000
00000100
00000000
00010000
00000000
00000000
00001000
00000000
01000000
00000000
00000000
,
00100000
00000000
00100000
00000000
10000000
00000000
10000000
00000000
01000000
00000000
00000000
01000000
00100000
00000000
00010000
00000000
,
01000000
00000000
00100000
00000000
10000000
00000000
01000000
00000000
00200000
00000000
00000000
00001000
00000000
00301000
00000000
00000000
,
00010000
00000000
00010000
00000000
00000010
00000000
00000010
00000000
00000100
00000000
00000000
00000100
00000001
00000000
00000010
00000000
,
00000100
00000000
00000100
00000000
00010000
00000000
00010000
00000000
00001000
00000000
00000000
01000000
00000000
00100000
00000000
00000000
,
10000000
00000000
10000000
00000000
00010000
00000000
00010000
00000000
01000000
00000000
00000000
01000000
00100000
00000000
01000000
00000000
,
00010000
00000000
00100000
00000000
01000000
00000000
10000000
00000000
00002000
00000000
00000000
01000000
00000000
01003000
00000000
00000000
,
00000010
00000000
00000010
00000000
00000100
00000000
00000100
00000000
00000001
00000000
00000000
00000001
00001000
00000000
00000100
00000000
,
00010000
00000000
00010000
00000000
00001000
00000000
00001000
00000000
02000000
00000000
00000000
00100000
00000000
03100000
00000000
00000000
,
10000000
00000000
10000000
00000000
00100000
00000000
00100000
00000000
01000000
00000000
00000000
01000000
00001000
00000000
00010000
00000000
,
00000100
00000000
00000010
00000000
00000001
00000000
00000010
00000000
00000200
00000000
00000000
00010000
00000000
00010300
00000000
00000000
,
00001000
00000000
00001000
00000000
01000000
00000000
01000000
00000000
00100000
00000000
00000000
00100000
01000000
00000000
00010000
00000000
,
10000000
00000000
10000000
00000000
00100000
00000000
00100000
00000000
02000000
00000000
00000000
00001000
00000000
03001000
00000000
00000000
,
00010000
00000000
00010000
00000000
00000100
00000000
00000100
00000000
00000010
00000000
00000000
00000010
00000001
00000000
00000100
00000000
,
00000010
00000000
00010000
00000000
00001000
00000000
00100000
00000000
01000000
00000000
00000000
10000000
00000000
00010000
00000000
00000000
,
20020000
00000000
00000000
00000000
,
00000000
00000000
30030000
00000000
;

//---------------dance-single - ----------------
#NOTES:
     dance-single:
     :
     Beginner:
     1:
     0.078,0.118,0.047,0.000,0.000: // measure 1
0000
1001
0000
0000
,  // measure 2
0100
0000
0000
0000
,  // measure 3
0010
0000
0000
0000
,  // measure 4
0100
0000
0000
0000
,  // measure 5
0010
0000
0000
0000
,  // measure 6
0001
0000
0000
0000
,  // measure 7
0010
0000
0000
0000
,  // measure 8
0001
0000
0000
0000
,  // measure 9
0000
1001
0000
0000
,  // measure 10
0100
0000
0000
0000
,  // measure 11
0010
0000
0000
0000
,  // measure 12
0100
0000
0000
0000
,  // measure 13
1000
0000
0000
0000
,  // measure 14
0010
0000
0000
0000
,  // measure 15
1000
0000
0000
0000
,  // measure 16
0010
0000
0000
0000
,  // measure 17
0100
0000
0000
0000
,  // measure 18
0001
0000
0000
0000
,  // measure 19
0100
0000
0000
0000
,  // measure 20
0001
0000
0000
0000
,  // measure 21
1000
0000
0000
0000
,  // measure 22
0100
0000
0000
0000
,  // measure 23
1000
0000
0000
0000
,  // measure 24
0100
0000
0000
0000
,  // measure 25
1001
0000
0000
0000
,  // measure 26
0000
0000
0000
0000
,  // measure 27
0000
0000
0000
0000
,  // measure 28
0000
0000
0000
0000
,  // measure 29
0110
0000
0000
0000
,  // measure 30
0000
0000
0000
0000
,  // measure 31
0000
0000
0000
0000
,  // measure 32
0000
0000
0000
0000
,  // measure 33
1000
0000
0000
0000
,  // measure 34
0001
0000
0000
0000
,  // measure 35
1000
0000
0000
0000
,  // measure 36
0001
0000
0000
0000
,  // measure 37
1001
0000
0000
0000
,  // measure 38
0100
0000
0000
0000
,  // measure 39
0010
0000
0000
0000
,  // measure 40
0001
0000
0000
0000
,  // measure 41
0100
0000
0000
0000
,  // measure 42
0100
0000
0000
0000
,  // measure 43
0010
0000
0000
0000
,  // measure 44
0010
0000
0000
0000
,  // measure 45
1000
0000
0001
0000
,  // measure 46
1000
0000
0000
0000
,  // measure 47
0001
0000
1000
0000
,  // measure 48
0001
0000
0000
0000
,  // measure 49
0010
0000
0001
0000
,  // measure 50
0010
0000
0000
0000
,  // measure 51
0001
0000
0010
0000
,  // measure 52
0001
0000
0000
0000
,  // measure 53
1000
0000
0100
0000
,  // measure 54
1000
0000
0000
0000
,  // measure 55
0100
0000
1000
0000
,  // measure 56
0100
0000
0000
0000
,  // measure 57
1000
0000
0001
0000
,  // measure 58
1000
0000
0000
0000
,  // measure 59
0001
0000
1000
0000
,  // measure 60
0001
0000
0000
0000
,  // measure 61
1001
0000
0000
0000
;
