#TITLE:紫陽花 -AZISAI-;
#SUBTITLE:;
#ARTIST:Camellia Vs. Expander;
#TITLETRANSLIT:AZISAI;
#SUBTITLETRANSLIT:;
#ARTISTTRANSLIT:;
#CREDIT:DigiMindAxel;
#BANNER:AZISAI.png;
#BACKGROUND:AZISAI-bg.png;
#LYRICSPATH:;
#CDTITLE:beatmania IIDX.png;
#MUSIC:AZISAI.ogg;
#METERTYPE:DDR X;
#OFFSET:-0.545;
#SAMPLESTART:26.670;
#SAMPLELENGTH:12.000;
#SELECTABLE:YES;
#BPMS:0.000=155.000;
#STOPS:;
#BGCHANGES:-4.000=AZISAI.avi=1.000=1=1=0,
99999=-nosongbg-=1.000=0=0=0 // don't automatically add -songbackground-
;

//---------------dance-single - ----------------
#NOTES:
     dance-single:
     :
     Easy:
     5:
     0.207,0.327,0.062,0.247,0.000:
0000
0000
0000
0000
,
0000
0000
0000
0000
,
0000
0000
0000
0000
,
0000
0000
0000
0000
,
0000
0000
0000
0000
,
0000
0000
0000
0000
,
0000
0000
0000
0000
,
0000
0000
0000
0000
,
0000
0000
0000
0000
,
0001
1000
0001
0000
,
1000
0001
1000
0000
,
0100
1000
0100
0000
,
0010
0001
0010
0001
,
0100
0010
0100
0000
,
0001
1000
0001
0000
,
0100
0001
0100
0000
,
0002
0000
0000
0000
,
1003
0100
0010
0000
,
0010
0001
0010
0001
,
0100
0000
0010
0000
,
1000
0000
0001
0000
,
0010
0100
0010
0000
,
0010
0001
0010
0001
,
0100
0000
0100
0000
,
0100
0000
0000
0000
,
0110
0000
0020
0000
,
0130
0000
0002
0000
,
1003
0000
0200
0000
,
1300
0000
0020
0000
,
0030
2001
0000
0000
,
3000
0002
0000
0000
,
0203
0000
0000
0300
,
1001
0000
0000
0000
,
2000
0000
0000
0000
,
3002
0000
0000
0000
,
0203
0000
0000
0000
,
0302
0000
0000
0000
,
2003
0000
0000
0000
,
3020
0000
0000
0000
,
0230
0000
0000
0000
,
0320
0000
0000
0030
,
1001
0000
0000
0000
,
0000
0000
0000
0000
,
1000
0000
0100
0000
,
1000
0000
0001
0000
,
1000
0000
0100
0000
,
1000
0000
0001
0000
,
0200
0000
0310
0000
,
2000
0000
3100
0000
,
0020
0000
0000
0000
,
0031
0000
0000
0000
,
0110
0000
0000
0000
,
1001
0000
0000
0000
,
0002
0000
0103
0000
,
0010
0100
0010
0000
,
0200
0000
0301
0000
,
1000
0100
1000
0000
,
0002
0000
1003
0000
,
0020
0000
0000
0000
,
0130
0001
0100
0001
,
1000
0100
0010
0000
,
0001
1000
0001
1000
,
0001
0100
0010
0000
,
0100
0010
0100
0010
,
1000
0100
0010
0000
,
0001
0100
0001
0100
,
0001
0010
0100
0000
,
2000
0001
3001
0000
,
0200
0001
0301
0000
,
2000
0100
3100
0000
,
0010
0010
0110
0000
,
0200
0001
0301
1000
,
0200
1000
1300
0001
,
0200
0010
0310
1000
,
0200
0000
0000
0300
,
2002
0000
0000
0000
,
0000
0000
0000
0000
,
3003
0000
0000
0000
;

//---------------dance-single - ----------------
#NOTES:
     dance-single:
     :
     Medium:
     8:
     0.407,0.505,0.417,0.293,0.000:
0000
0000
0000
0000
,
0000
0000
0000
0000
,
0000
0000
0000
0000
,
0000
0000
0000
0000
,
0000
0000
0000
0000
,
0000
0000
0000
0000
,
0000
0000
0000
0000
,
0000
0000
0000
0000
,
0000
0000
0000
0000
,
1001
0000
0100
0000
0010
0001
0100
0000
,
0010
0000
1000
0000
0100
0010
0001
0000
,
1000
0000
0010
0000
1000
0100
0010
0000
,
0001
0100
0001
1000
0010
0000
0010
0000
,
1001
1001
1001
0000
,
0110
0110
0110
0000
,
1010
1010
0101
0101
,
2002
0000
0000
3003
,
0101
1001
1100
0000
,
1001
0000
0110
0000
1001
0000
0001
1000
,
0001
0010
0100
1000
,
0010
0000
0100
0000
0001
1000
0001
0000
,
1010
0110
0011
0000
,
1001
0000
0110
0000
1001
0000
1000
0001
,
2000
0000
0000
0100
0100
0000
0000
0100
,
0100
0100
3100
0000
,
1002
0000
0000
0000
0103
0000
0010
1000
,
0001
0010
0001
0000
0020
0000
0100
0000
,
0230
0000
0000
0000
1300
0000
0010
0001
,
0100
0010
0100
0000
0001
1000
0001
1000
,
0001
0000
0201
0000
0000
0000
0310
1000
,
0010
1000
0001
0000
0010
0001
0010
0000
,
1001
0000
1000
0000
0100
0010
0001
0000
,
0220
0000
0000
0330
,
1200
0000
0000
1000
,
1300
0001
0100
0001
,
0020
0000
0100
0000
,
0130
0001
0010
0100
,
2000
0000
0000
0010
,
3010
0100
0001
0010
,
0200
0000
2300
0000
,
3020
0000
0000
0030
,
2002
0000
0000
0000
,
0000
0000
3003
0000
,
0100
0001
1000
0000
0001
1000
0100
0000
,
0010
0100
0010
0000
0001
0100
0001
0000
,
0100
0001
0010
0000
0100
1000
0010
0000
,
0100
0010
0100
0000
0001
1000
0100
1000
,
0002
0000
0203
0000
,
0310
1000
0010
1000
0000
0001
0010
0000
,
0100
1000
0000
0010
0000
0100
0000
0001
,
0100
0001
0100
0001
0100
0001
1000
0000
,
2002
0000
0000
3003
,
0110
0000
0000
0220
0000
0000
0330
0000
,
0010
0001
1000
0000
0010
1000
0001
0000
,
0010
0100
0010
0000
0001
0100
0010
0100
,
0002
0000
0023
0000
,
0130
1000
0100
1000
0000
0010
0100
0000
,
0001
1000
0000
0100
0000
0010
0000
0001
,
2000
3002
1003
0000
,
0201
0000
0001
0000
0310
1000
0100
0000
,
0010
0001
0010
0001
2000
0000
3010
0000
,
0100
0010
0100
0010
2000
0000
0001
0000
,
3001
0000
1000
0100
0020
0000
0001
0000
,
0031
0000
1001
0000
1000
0100
0010
0000
,
0002
0000
1000
0000
1003
0000
0001
0010
,
0001
0000
0100
0010
1000
0000
0010
0100
,
0001
0000
1000
0100
1000
0100
0010
0000
,
0101
0000
0110
0000
0010
1000
0100
0000
,
0011
0000
0110
0000
0100
1000
0010
0000
,
0110
0000
1001
0000
0001
0010
0100
0000
,
1010
0000
0110
0000
0100
0100
1001
0000
,
0011
0011
0110
0200
,
1300
1001
0101
0200
,
0310
1001
0011
1100
,
2002
0000
0000
3003
,
0220
0000
0000
0000
,
0000
0000
0000
0000
,
0330
0000
0000
0000
;

//---------------dance-single - ----------------
#NOTES:
     dance-single:
     :
     Hard:
     13:
     0.566,0.653,0.355,0.285,0.274: // measure 1
0000
0000
0000
0000
,  // measure 2
0000
0000
0000
0000
,  // measure 3
0000
0000
0000
0000
,  // measure 4
0000
0000
0000
0000
,  // measure 5
0000
0000
0000
0000
,  // measure 6
0000
0000
0000
0000
,  // measure 7
0000
0000
0000
0000
,  // measure 8
0000
0000
0000
0000
,  // measure 9
0000
0000
0000
0000
,  // measure 10
0100
0010
0100
0001
1000
0100
0010
0001
,  // measure 11
1000
0100
1000
0010
1000
0001
1000
0100
,  // measure 12
0010
0001
0100
0010
0100
0001
0010
0100
,  // measure 13
1000
0010
1000
0100
0010
0010
1001
0000
,  // measure 14
1010
0000
0110
0000
1010
0010
0100
0000
,  // measure 15
0011
0000
0000
1001
0000
0000
0010
0001
0100
0010
0000
0000
,  // measure 16
1100
0000
0100
0100
1001
0000
0010
0000
,  // measure 17
0202
0000
0000
0000
0000
0000
0000
0000
0000
0000
0000
0000
0303
0000
0000
0001
,  // measure 18
1000
0000
0000
1000
0010
0000
0000
0010
0100
0000
0000
0000
0001
0000
0000
0001
,  // measure 19
0010
0000
0000
0010
0100
0000
0000
0100
1000
0000
0010
0000
1000
0010
1000
0000
,  // measure 20
0001
0000
0000
0001
0010
0000
0000
0010
0100
0000
0000
0100
1000
0000
0000
0000
,  // measure 21
0010
0000
0000
0010
1000
0000
0000
1000
0001
0000
0010
0000
0100
0000
0000
1000
,  // measure 22
0010
0000
0000
0010
0100
0000
0000
0100
0001
0000
0000
0000
1000
0000
0000
0001
,  // measure 23
1000
0000
0000
1000
0100
0000
0000
0100
0010
0000
0001
0000
1000
0010
1000
0000
,  // measure 24
0002
0000
0000
0100
0100
0000
0000
0100
,  // measure 25
0100
0000
0100
0000
0103
0000
0001
0010
0100
0000
1000
0000
0010
0000
0100
0000
,  // measure 26
0101
0000
0000
0000
0001
0000
0100
0000
0001
0000
1000
0000
0100
0010
0100
0000
,  // measure 27
1000
0001
1000
0001
1000
0000
0000
0000
0010
0000
0100
0000
0001
0000
0010
0000
,  // measure 28
0200
0000
0000
0000
1300
0000
0010
0000
1000
0000
0001
0000
0010
0001
0010
0000
,  // measure 29
0100
0010
0100
0010
0100
0000
1000
0000
1000
0000
1000
0000
0010
0000
0100
0000
,  // measure 30
0001
0000
0000
0000
1001
0000
1000
0000
0010
0000
1000
0000
0001
0100
0001
0000
,  // measure 31
0100
0010
0100
0010
0100
0000
0001
0000
1000
0000
0100
0000
0010
0000
0000
0000
,  // measure 32
1001
0000
1000
0000
0100
0000
1000
0000
0001
0100
0001
0000
1000
0001
1000
0000
,  // measure 33
2002
0000
0000
3003
,  // measure 34
0210
0000
0000
0000
0000
0000
0310
0001
,  // measure 35
0100
0010
0010
1000
1000
0010
0010
0000
,  // measure 36
2000
3200
0320
0032
,  // measure 37
0103
0010
0010
1000
1000
0010
0010
0000
,  // measure 38
0200
0000
0000
0000
0000
0000
0310
0001
,  // measure 39
1000
0100
0100
0010
0010
0100
0100
0000
,  // measure 40
2000
3020
0230
0302
,  // measure 41
2003
0001
0001
3001
,  // measure 42
0220
0000
0000
0000
,  // measure 43
0000
0000
0000
0330
,  // measure 44
0001
0000
0100
0000
0010
1000
0010
0000
0100
0000
0010
1000
0010
0000
0000
0100
,  // measure 45
0001
0000
0000
0001
1000
0000
0000
1000
0100
0000
0000
0100
0010
0000
0000
0010
,  // measure 46
0001
0000
1000
0000
0010
0100
0010
0000
1000
0000
0010
0100
0010
0000
1000
0000
,  // measure 47
0001
0010
0001
0010
0000
0100
1000
0100
1000
0000
0001
0000
0100
0000
0010
0000
,  // measure 48
2000
0000
0000
0000
3001
0000
0010
0100
0020
0000
0000
0000
0031
0000
1000
0001
,  // measure 49
1000
0100
0010
0002
0000
0103
0001
1000
,  // measure 50
0100
1100
0000
1001
0000
0101
0000
1001
,  // measure 51
0001
0000
0010
0000
0100
0000
0000
1000
0001
0000
0010
0000
0100
0000
1000
0000
,  // measure 52
0220
0000
0000
0330
,  // measure 53
0101
0000
0000
1010
0000
0000
2002
0000
0000
0000
0000
0000
3003
0000
0000
0000
,  // measure 54
1000
0000
0001
0000
0010
0100
0010
0000
0001
0000
0010
0100
0010
0000
0001
0000
,  // measure 55
1000
0010
1000
0010
0000
0100
0001
0100
0001
0000
0010
0000
0100
0000
1000
0000
,  // measure 56
0001
0100
0001
1000
0100
0010
0100
1000
,  // measure 57
0001
0100
0001
0100
0001
0000
2000
0000
0000
0000
3100
0000
0010
0000
0001
0000
,  // measure 58
0100
0110
0000
0101
0000
1100
0000
1001
,  // measure 59
0001
0100
0001
0000
1000
0010
1000
0000
0010
0000
0000
0000
0110
0000
0000
0000
,  // measure 60
0001
0100
1000
0100
0001
1000
0001
0000
,  // measure 61
0010
1000
0010
0001
0200
0000
0310
0000
,  // measure 62
1000
0000
0100
0000
0001
0000
0100
0000
1000
0000
0000
0010
0000
0000
0200
0000
,  // measure 63
0000
0000
0000
0000
0301
1000
0001
1000
0002
0000
0000
0000
0103
0000
0001
0000
,  // measure 64
1000
0000
1001
0001
0100
0001
1000
0100
,  // measure 65
0020
0000
0000
0000
0031
0100
0000
0002
0000
0000
0000
0000
0013
0000
0100
0000
,  // measure 66
1000
0010
0001
0010
1000
0100
0010
0001
,  // measure 67
0200
0000
0310
1000
0100
0001
0100
1000
,  // measure 68
0011
0000
1001
0000
1100
1000
0001
0000
,  // measure 69
0101
0000
0000
0000
0000
0000
0000
0000
0000
0000
0000
0000
0001
0000
0000
0000
1000
0000
0000
0000
0100
0000
0000
0000
1000
0000
0000
0000
0000
0000
0000
0000
0000
0000
0000
0000
0010
0000
0000
0100
0000
0000
0000
0000
0000
0100
0000
0000
,  // measure 70
0001
0010
0100
0000
1000
0001
0100
0000
,  // measure 71
1001
0000
0101
0000
1010
0010
0110
0000
,  // measure 72
1100
0000
1001
0000
0011
0010
0100
0000
,  // measure 73
1001
0000
0000
1100
0000
0000
0010
0001
0100
0010
0000
0000
,  // measure 74
1001
0000
0100
0100
1010
0000
0010
0000
,  // measure 75
0202
0000
0000
0303
,  // measure 76
2002
0000
0000
0000
,  // measure 77
0000
0000
0000
0000
,  // measure 78
3003
0000
0000
0000
;

//---------------dance-single - ----------------
#NOTES:
     dance-single:
     :
     Challenge:
     16:
     0.762,0.772,0.262,0.270,0.829: // measure 1
0000
0000
0000
0000
,  // measure 2
0000
0000
0000
0000
,  // measure 3
0000
0000
0000
0000
,  // measure 4
0000
0000
0000
0000
,  // measure 5
0000
0000
0000
0000
,  // measure 6
0000
0000
0000
0000
,  // measure 7
0000
0000
0000
0000
,  // measure 8
0000
0000
0000
0000
,  // measure 9
0000
0000
0000
0000
,  // measure 10
1000
0000
0001
0100
0001
0000
1000
0001
0000
0100
0000
0001
0000
0010
0000
0100
,  // measure 11
0000
1000
0001
0100
0001
0000
0010
0100
0000
1000
0000
0001
0000
0010
0000
0100
,  // measure 12
0000
1000
0010
0100
0010
0000
1000
0001
0000
0100
0000
0010
0000
0100
0000
0001
,  // measure 13
0000
0010
0100
1000
0100
0000
1000
0000
0001
0100
0010
0100
0001
0000
0000
0000
,  // measure 14
1001
0001
0101
0100
0110
0110
2000
3000
,  // measure 15
1001
0000
0000
1000
0000
0000
1010
0000
0000
0010
0000
0000
0110
0000
0100
0000
0001
0000
0010
0000
0100
0000
1000
0000
,  // measure 16
0001
0100
0020
0130
1010
1000
0002
0003
,  // measure 17
1000
0001
0000
1000
0001
0000
1000
0001
0000
1000
0001
0000
1000
0000
0001
0010
,  // measure 18
0100
0000
1000
0010
1000
0000
0010
1000
0001
0000
0000
0000
1000
0000
0001
0100
,  // measure 19
0001
0000
0100
0010
1000
0000
0100
0010
0001
0000
1000
0000
0100
0010
0001
0010
,  // measure 20
0100
0000
0000
1000
0001
0000
0000
0001
0100
0000
0000
0100
0010
0000
0000
0010
,  // measure 21
1000
0000
0000
1000
0100
0000
0000
0100
0010
0000
0000
0001
0000
0001
0100
0001
,  // measure 22
1000
0000
0100
0010
0001
0000
0100
0010
0100
0000
0000
0000
0001
0000
0100
0010
,  // measure 23
0100
0000
0001
0010
0100
0000
1000
0001
0100
0000
0001
0000
0010
0100
1000
0100
,  // measure 24
0010
0000
0000
0011
1001
0000
0000
1000
,  // measure 25
1010
0000
0010
0000
0010
0000
1000
0100
0010
0000
0010
0000
0001
0100
0010
0100
,  // measure 26
0001
0000
0010
0000
0100
0000
0010
0001
1000
0000
1000
0000
0010
1000
0010
1000
,  // measure 27
0001
0010
1000
0010
0001
0000
0100
0001
0010
0000
0100
0000
0100
0000
0100
1000
,  // measure 28
0020
0000
0100
0000
0130
0000
0001
0010
0100
0000
0010
0000
0001
1000
0001
1000
,  // measure 29
0001
0010
1000
0010
0001
0000
0100
0010
1000
0000
1000
0000
1000
0000
1000
0000
,  // measure 30
0010
0000
0000
0000
1001
0000
0001
0100
0001
0000
1000
0000
0100
0010
0100
0010
,  // measure 31
0001
0100
1000
0100
0001
0000
0010
0100
1000
0000
0010
0000
0100
0001
0010
0000
,  // measure 32
1001
0000
1000
0000
0001
0000
0100
0001
1000
0100
1000
0000
0100
0010
0100
1000
,  // measure 33
0020
0000
0000
0030
,  // measure 34
1002
0000
0000
0000
0000
0000
0013
0100
,  // measure 35
1000
0000
0001
0100
0001
0100
0001
0100
0001
1000
0001
1000
0002
0000
0003
0000
,  // measure 36
0200
2300
3200
0302
,  // measure 37
1003
0000
0001
1000
0001
1000
0010
1000
0010
1000
0001
1000
0001
0000
0000
0000
,  // measure 38
2000
0000
0000
0000
0000
0000
3001
0100
,  // measure 39
0010
1000
0010
1000
0001
0010
0001
0010
0001
1000
0001
1000
0002
0000
0003
0000
,  // measure 40
0020
0032
2003
3200
,  // measure 41
0310
0000
0001
0100
0010
0100
0001
0000
1000
0001
0010
0001
1000
0000
0001
1000
,  // measure 42
0002
0000
0000
0000
,  // measure 43
1000
1000
1000
1003
,  // measure 44
0110
0000
0100
0010
0001
0010
0100
0000
1000
0100
0010
0100
1000
0000
0001
0100
,  // measure 45
0001
0000
0100
0010
0100
0000
0010
1000
0010
0000
0100
0001
1000
0100
0010
0000
,  // measure 46
0001
0000
0100
0010
1000
0010
0100
0000
0010
0100
0001
0100
0010
0000
1000
0100
,  // measure 47
0010
0001
0010
0001
0000
0010
0001
1000
0010
0000
1000
0000
0100
0010
0001
0010
,  // measure 48
0200
0000
0000
0000
1300
0000
0010
0100
0002
0000
0000
0000
0013
0000
0100
1000
,  // measure 49
0001
0010
0100
2000
0000
3001
0100
0001
,  // measure 50
1000
0000
0100
0010
0100
0000
1000
0001
1000
0000
0001
0100
0001
0000
1000
0010
,  // measure 51
1000
0000
0001
0000
1001
0000
0100
0001
0010
0000
0100
0000
1000
0010
0100
0010
,  // measure 52
2000
0000
0000
0000
,  // measure 53
3001
0000
0000
0101
0000
0000
0110
0000
0000
0000
1010
0000
1000
0000
0001
0000
,  // measure 54
1000
0000
0010
0100
0001
0100
0010
0000
0100
0010
1000
0010
0100
0000
0001
0010
,  // measure 55
0100
1000
0100
1000
0000
0100
1000
0010
0100
0000
0001
0000
0100
0001
0010
0001
,  // measure 56
0100
0000
0010
0000
1010
0000
1000
0001
0010
0000
0100
0000
1100
0000
1000
0000
,  // measure 57
0010
0100
0001
0100
0010
0100
0002
0000
0000
0000
1003
0000
0100
0000
0010
0000
,  // measure 58
0001
0100
0001
0000
0010
0100
0010
0000
0001
1000
0001
0000
1000
0010
1000
0000
,  // measure 59
0100
0010
0100
0010
0001
0100
0001
0100
0001
0000
0000
0000
1001
0000
0000
0000
,  // measure 60
0110
0000
0100
0000
0010
0000
0001
0000
0100
0001
0100
0001
2000
0000
0000
0000
,  // measure 61
3100
0010
0100
0010
0001
0100
0001
1000
0200
0000
0000
0000
0310
0000
0000
0000
,  // measure 62
0001
0100
0001
0100
0001
1000
0100
0010
0002
0000
0000
0203
0000
0000
0320
0000
,  // measure 63
0000
0000
0030
0000
1000
0100
0010
0001
0100
0000
0001
0000
1000
0000
0100
0000
,  // measure 64
0010
0001
1000
0000
0001
1000
0010
0000
0100
0001
0010
0000
0100
1000
0010
0000
,  // measure 65
0100
0000
0001
0000
0010
0100
0000
1000
0010
0000
0100
0000
0010
0100
0001
0000
,  // measure 66
0010
0100
1000
0000
0001
0010
0100
0000
1000
0001
0100
0000
0010
1000
0001
0000
,  // measure 67
0020
0000
0000
0000
0130
0000
1000
0100
0010
0000
0001
0100
0001
0100
0010
1000
,  // measure 68
0001
0100
0001
1000
0100
0000
0010
0001
0000
0100
0000
1000
0000
0100
0000
0001
,  // measure 69
0000
0000
0000
1000
0000
0000
0010
0000
0000
0100
0000
0000
0010
0000
0000
0000
0100
0000
0000
0000
0001
0000
0000
0000
0010
0000
0000
0000
0000
0000
0000
0000
0000
0000
0000
0000
0100
0000
0000
1000
0000
0000
0000
0000
0000
1000
0000
0000
,  // measure 70
0001
0100
0010
0100
0001
0000
0100
0001
0000
0010
0000
1000
0000
0010
0000
0001
,  // measure 71
0100
0000
0001
0000
1001
0000
1000
0000
0100
0010
0001
1000
0020
0000
0030
0000
,  // measure 72
0101
0001
1001
1000
1010
1001
0002
0003
,  // measure 73
0110
0000
0000
0100
0000
0000
0101
0000
0000
0001
0000
0000
0110
0000
0100
0000
1000
0000
0001
0000
0100
0000
0001
0000
,  // measure 74
1001
1000
0020
0130
0101
0001
0020
0030
,  // measure 75
0001
1000
0000
0001
1000
0000
0001
1000
0000
0001
1000
0000
0001
0000
0100
0000
,  // measure 76
0220
0000
0000
0000
,  // measure 77
0000
0000
0000
0000
,  // measure 78
0330
0000
0000
0000
;

//---------------dance-double - ----------------
#NOTES:
     dance-double:
     :
     Easy:
     6:
     0.242,0.327,0.108,0.208,0.000:
00000000
00000000
00000000
00000000
,
00000000
00000000
00000000
00000000
,
00000000
00000000
00000000
00000000
,
00000000
00000000
00000000
00000000
,
00000000
00000000
00000000
00000000
,
00000000
00000000
00000000
00000000
,
00000000
00000000
00000000
00000000
,
00000000
00000000
00000000
00000000
,
00000000
00000000
00000000
00000000
,
20000000
00000000
30100000
01000000
,
00002000
00000000
00013000
00000010
,
00000200
00000000
00000310
00000001
,
00000010
00000100
00000010
00000100
,
00001000
00001000
00011000
00000000
,
00100000
00100000
01100000
00000000
,
10010000
00000000
01100000
00000000
,
20020000
00000000
00000000
30030000
,
10000000
01000000
00100000
00000000
,
00001000
00010000
00001000
00010000
,
00000100
00000000
00000010
00000000
,
00000001
00000000
00000010
00000000
,
00000100
00000010
00000100
00000000
,
00010000
00001000
00010000
00001000
,
01000000
00000000
01000000
00000000
,
01000000
00000000
01100000
00000000
,
10010000
00000000
01000000
10000000
,
02000000
00000000
03100000
00001000
,
00100000
00000000
00010000
00001000
,
00020000
00000000
00030010
00000000
,
00000000
00001001
00001000
00000001
,
00020000
00000000
00030010
00010000
,
00000010
00010000
00001000
00100000
,
01000000
00000000
00000000
00000000
,
20010000
00000000
00000000
00000000
,
30020000
00000000
00000000
00000000
,
02030000
00000000
00000000
00000000
,
03002000
00000000
00000000
00000000
,
00023000
00000000
00000000
00000000
,
00030200
00000000
00000000
00000000
,
00000320
00000000
00000000
00000000
,
00000230
00000000
00000000
00000300
,
00001001
00000000
00000000
00000000
,
00000000
00000000
00000000
00000000
,
00000010
00000100
00000010
00000000
,
00000100
00000001
00000010
00000100
,
00001000
00010000
00001000
00000000
,
00010000
00100000
01000000
10000000
,
00200000
00000000
01300000
00000000
,
00020000
00000000
01030000
00000000
,
00001000
00010000
00001000
00010000
,
00001000
00001000
00001000
00001000
,
00011000
00000000
00000000
00000000
,
00000110
00000000
00000000
00000000
,
00000100
00000001
00000100
00000000
,
00000001
00000010
00000100
00010000
,
00001000
01000000
00001000
00000000
,
01000000
00010000
00100000
01000000
,
10000000
00001000
10000000
00001000
,
20000000
00000000
00000000
00000000
,
31000000
00100000
01000000
00100000
,
00001000
00010000
00000010
00000000
,
00000100
00000010
00000100
00000010
,
00001000
00000100
00000010
00000000
,
00000001
00000100
00000001
00000100
,
00000001
00000010
00000100
00000000
,
00010000
00001000
00010000
00001000
,
00100000
01000000
10000000
00000000
,
00200000
10000000
10300000
00010000
,
02000000
00001000
03001000
00010000
,
00000020
00000100
00000130
00000001
,
00001000
00001000
00001001
00000000
,
00000010
00000100
00000010
00020000
,
00031000
01000000
00001000
02000000
,
03100000
10000000
01000000
00100000
,
00002000
00000000
00000000
00003000
,
00022000
00000000
00000000
00000000
,
00000000
00000000
00000000
00000000
,
00033000
00000000
00000000
00000000
;

//---------------dance-double - ----------------
#NOTES:
     dance-double:
     :
     Medium:
     8:
     0.410,0.505,0.316,0.255,0.000:
00000000
00000000
00000000
00000000
,
00000000
00000000
00000000
00000000
,
00000000
00000000
00000000
00000000
,
00000000
00000000
00000000
00000000
,
00000000
00000000
00000000
00000000
,
00000000
00000000
00000000
00000000
,
00000000
00000000
00000000
00000000
,
00000000
00000000
00000000
00000000
,
00000000
00000000
00000000
00000000
,
10010000
00000000
00010000
00000000
00100000
01000000
10000000
00000000
,
00100000
00000000
00100000
00000000
01000000
00001000
00100000
00000000
,
00001000
00000000
00001000
00000000
00010000
00000100
00000010
00000000
,
00000001
00000000
00000001
00000010
00000100
00001000
00010000
00000000
,
01100000
01100000
01100000
00000000
,
10010000
10010000
10010000
00000000
,
01000000
10000000
00100000
00000000
01000000
00001000
00010000
00000000
,
00022000
00000000
00000000
00033000
,
00010001
00001001
00010001
00000000
,
00000110
00000000
00001001
00000000
00000110
00000000
00000100
00000001
,
00010000
00001000
00100000
01000000
,
10000000
00000000
00010000
00000000
00100000
01000000
00100000
00000000
,
10001000
01100000
10001000
00000000
,
00011000
00000000
00010001
00000000
00011000
00000000
00010000
00000010
,
00000200
00000000
00000000
00000001
00000001
00000000
00000000
00000001
,
00000001
00000001
00000301
00000000
,
00000110
00000000
00000100
00000000
00000001
00000000
00000010
00000100
,
00010000
00001000
00100000
00000000
02000000
00000000
10000000
00000000
,
13000000
00000000
00100000
00000000
01000000
00000000
00010000
00100000
,
00001000
00010000
00000100
00000000
00000010
00000001
00000010
00000001
,
00000010
00000000
00001001
00000000
00001000
00000000
00000010
00010000
,
00001000
00100000
01000000
00000000
10000000
00100000
10000000
00000000
,
10010000
00000000
00010000
00000000
01000000
00010000
00001000
00000000
,
00020020
00000000
00000000
00030030
,
00000210
00000000
00000000
00000001
,
00000301
00000010
00000100
00001000
,
00020000
00000000
01000000
00000000
,
01030000
00100000
10000000
00010000
,
02000000
00000000
00000000
00001000
,
03001000
00010000
00000100
00000010
,
00000002
00000000
00000203
00000000
,
00000301
00001000
00000001
00001000
,
00002002
00000000
00000000
00000000
,
00000000
00000000
00003003
00000000
,
00000001
00000010
00000001
00000000
00000100
00000010
00010000
00000000
,
00001000
00010000
00001000
00010000
00100000
01000000
10000000
00000000
,
00010000
01000000
00010000
00000000
10000000
01000000
10000000
00000000
,
01000000
10000000
01000000
00100000
00001000
00010000
00001000
00010000
,
00000020
00000000
00002030
00000000
,
00003001
00000010
00000001
00000010
00000000
00000100
00000010
00000000
,
00000001
00000100
00000000
00000001
00000000
00010000
00000000
00001000
,
01000000
00100000
01000000
00100000
01000000
00100000
01000000
00000000
,
20020000
00000000
00000000
30030000
,
10010000
00000000
00000000
20020000
00000000
00000000
30030000
00000000
,
10000000
00100000
01000000
00000000
00100000
01000000
00100000
00000000
,
10000000
00010000
10000000
00010000
00100000
00001000
00100000
00001000
,
00020000
00000000
00030200
00000000
,
00000310
00000001
00000010
00000001
00000000
00000100
00000010
00000000
,
00001000
00010000
00000000
00100000
00000000
01000000
00000000
10000000
,
00020000
02030000
03100000
00000000
,
20010000
00000000
00010000
00000000
30100000
01000000
00010000
00000000
,
10000000
00100000
01000000
00100000
20000000
00000000
31000000
00000000
,
00100000
00001000
00010000
00000100
00000020
00000000
00000001
00000000
,
00000031
00000000
00000100
00000010
00020000
00000000
00001000
00000000
,
00031000
00000000
00011000
00000000
00100000
01000000
10000000
01000000
,
00200000
00000000
01000000
00000000
01300000
00000000
10000000
00100000
,
01000000
00000000
00100000
01000000
00001000
00010000
00000100
00000010
,
00000100
00000000
00001000
00000001
00000100
00000001
00001000
00000000
,
00001001
00000000
00000110
00000000
00000010
00000100
00010000
00000000
,
00011000
00000000
01001000
00000000
01000000
00100000
10000000
00000000
,
10010000
00000000
01100000
00000000
00100000
10000000
00001000
00000000
,
00011000
00000000
00010010
00000000
00000100
00000100
00000110
00000000
,
00000010
00000001
00000100
00000010
00010000
00001000
00020000
00000000
,
00031000
01000000
00100000
10000000
01000000
10000000
00002000
00000000
,
01003000
00000000
00001000
00010000
00000010
00000000
00000100
00000001
,
00002000
00000000
00000000
00003000
,
00000220
00000000
00000000
00000000
,
00000000
00000000
00000000
00000000
,
00000330
00000000
00000000
00000000
;

//---------------dance-double - ----------------
#NOTES:
     dance-double:
     :
     Hard:
     13:
     0.571,0.653,0.339,0.285,0.297:
00000000
00000000
00000000
00000000
,
00000000
00000000
00000000
00000000
,
00000000
00000000
00000000
00000000
,
00000000
00000000
00000000
00000000
,
00000000
00000000
00000000
00000000
,
00000000
00000000
00000000
00000000
,
00000000
00000000
00000000
00000000
,
00000000
00000000
00000000
00000000
,
00000000
00000000
00000000
00000000
,
10000000
00100000
10000000
00001000
00100000
01000000
00100000
00001000
,
00010000
00000010
00001000
00000100
00000010
00000001
00001000
00000010
,
00000100
00000010
00010000
00001000
00100000
10000000
00100000
00001000
,
00010000
00000000
00000010
00000000
00000100
00000000
00000010
00000000
00010000
00001000
00010000
00001000
00010000
00000000
00000000
00000000
,
00010010
00000000
00000110
00000000
00010010
00000010
00000100
00000000
,
00000011
00000000
00000000
00000110
00000000
00000000
00000010
00000001
00000100
00000010
00000000
00000000
,
00011000
00000000
01000000
01000000
01100000
00000000
10000000
00000000
,
20020000
00000000
00000000
00000000
00000000
00000000
00000000
00000000
00000000
00000000
00000000
00000000
30030000
00000000
00000000
00100000
,
01000000
00000000
00000000
01000000
00001000
00000000
00000000
00001000
00010000
00000000
00000000
00000000
00000100
00000000
00000000
00000100
,
00000010
00000000
00000000
00000010
00000001
00000000
00000000
00000001
00000100
00000000
00000010
00000000
00010000
00001000
00010000
00000000
,
00001000
00000000
00000000
00001000
00100000
00000000
00000000
00100000
01000000
00000000
00000000
01000000
10000000
00000000
00000000
10000000
,
00100000
00000000
00000000
00100000
01000000
00000000
00000000
01000000
00010000
00000000
00001000
00000000
00000010
00000100
00000000
00000001
,
00000100
00000000
00000000
00000100
00000010
00000000
00000000
00000010
00010000
00000000
00000000
00000000
00001000
00000000
00000000
00001000
,
01000000
00000000
00000000
01000000
00100000
00000000
00000000
00100000
10000000
00000000
00100000
00000000
01000000
00100000
01000000
00000000
,
00002000
00000000
00000000
00010000
00010000
00000000
00000000
00010000
,
00010000
00000000
00010000
00000000
00013000
00000000
00000100
00000010
00000001
00000000
00000100
00000000
00000010
00000100
00000010
00000000
,
00001001
00000000
00000000
00000000
00000001
00000000
00000100
00000000
00000001
00000000
00000010
00000000
00000100
00010000
00000100
00000000
,
00010000
00001000
00010000
00001000
00010000
00000000
00000000
00000000
00001000
00000000
00100000
00000000
01000000
00000000
10000000
00000000
,
00200000
00000000
00000000
00000000
01300000
00000000
00010000
00000000
01000000
00000000
00100000
00000000
10000000
00010000
10000000
00000000
,
01000000
10000000
01000000
10000000
01000000
00000000
00100000
00000000
00100000
00000000
00100000
00000000
00001000
00000000
00010000
00000000
,
00001000
00000000
00000000
00000000
00011000
00000000
00010000
00000000
00000010
00000000
00000100
00000000
00000001
00000100
00000001
00000000
,
00010000
00000100
00010000
00000100
00010000
00000000
00001000
00000000
01000000
00000000
00100000
00000000
01000000
00000000
00000000
00000000
,
01100000
00000000
01000000
00000000
00010000
00000000
10000000
00000000
01000000
10000000
01000000
00000000
00100000
01000000
00100000
00000000
,
20020000
00000000
00000000
30030000
,
02100000
00000000
00000000
00000000
00000000
00000000
03001000
00010000
,
00000100
00000010
00000010
00000001
00000001
00000010
00000010
00000000
,
00000200
00020300
00032000
00203000
,
01300000
10000000
10000000
01000000
01000000
10000000
10000000
00000000
,
02000000
00000000
00000000
00000000
00000000
00000000
03100000
00010000
,
00001000
00000100
00000100
00000010
00000010
00000100
00000100
00000000
,
00002000
00003002
00020003
00030200
,
00020300
00001000
00001000
00031000
,
02200000
00000000
00000000
00000000
,
00000000
00000000
00000000
03300000
,
01000000
00000000
00100000
00000000
00010000
01000000
00010000
00000000
00100000
00000000
00010000
01000000
00010000
00000000
00000000
10000000
,
01000000
00000000
00000000
01000000
00100000
00000000
00000000
00100000
00001000
00000000
00000000
00001000
00010000
00000000
00000000
00010000
,
00000010
00000000
00000100
00000000
00000001
00000010
00000001
00000000
00000100
00000000
00000001
00000010
00000001
00000000
00000100
00000000
,
00000001
00000010
00000001
00000010
00000000
00000100
00010000
00000100
00010000
00000000
00001000
00000000
00100000
00000000
01000000
00000000
,
20000000
00000000
00000000
00000000
30100000
00000000
01000000
00100000
02000000
00000000
00000000
00000000
03010000
00000000
00001000
00010000
,
00001000
00000100
00000010
00000002
00000000
00000103
00000010
00000100
,
00000001
00001001
00000000
00010010
00000000
00011000
00000000
01001000
,
01000000
00000000
00100000
00000000
10000000
00000000
00000000
01000000
00100000
00000000
00001000
00000000
00010000
00000000
00000010
00000000
,
00000220
00000000
00000000
00000330
,
00000011
00000000
00000000
00000110
00000000
00000000
00020200
00000000
00000000
00000000
00000000
00000000
00030300
00000000
00000000
00000000
,
00010000
00000000
00001000
00000000
01000000
00100000
01000000
00000000
00001000
00000000
01000000
00100000
01000000
00000000
00001000
00000000
,
00100000
01000000
00100000
01000000
00000000
10000000
00100000
10000000
00100000
00000000
01000000
00000000
00010000
00000000
00001000
00000000
,
00000010
00000100
00000010
00001000
00000100
00001000
00010000
01000000
,
00100000
01000000
00100000
01000000
00100000
00000000
02000000
00000000
00000000
00000000
03001000
00000000
00010000
00000000
00000100
00000000
,
00000010
00000110
00000000
00000101
00000000
00000110
00000000
00010010
,
00010000
00001000
00010000
00000000
00001000
01000000
00001000
00000000
10000000
00000000
00000000
00000000
11000000
00000000
00000000
00000000
,
00100000
00010000
01000000
00100000
10000000
01000000
00100000
00000000
,
00001000
00010000
00000100
00000001
00000200
00000000
00010300
00000000
,
00001000
00000000
00100000
00000000
01000000
00000000
00100000
00000000
00001000
00000000
00000000
00010000
00000000
00000000
00000020
00000000
,
00000000
00000000
00000000
00000000
00000130
00000010
00000100
00000010
00000100
00000000
00000001
00000000
00001000
00000000
00000000
00000000
,
00000020
00000000
00000130
00000001
00000010
00001000
00000010
00000001
,
00000200
00000000
00000000
00000000
00000310
00010000
00000000
00002000
00000000
00000000
00000000
00000000
00103000
01000000
00100000
00000000
,
00001000
10000000
00100000
10000000
00001000
00100000
10000000
00100000
,
00002000
00000000
00013000
00000100
00000010
00000100
00010000
00000001
,
00000101
00000000
00000110
00000000
00010010
00010000
00001000
00000000
,
01100000
00000000
00000000
00000000
00000000
00000000
00000000
00000000
00000000
00000000
00000000
00000000
00100000
00000000
00000000
00000000
01000000
00000000
00000000
00000000
10000000
00000000
00000000
00000000
00100000
00000000
00000000
00000000
00000000
00000000
00000000
00000000
00000000
00000000
00000000
00000000
10000000
00000000
00000000
00010000
00000000
00000000
00000000
00000000
00000000
00010000
00000000
00000000
,
10000000
01000000
00100000
00000000
00001000
00010000
00000010
00000000
,
00000110
00000000
00000101
00000000
00001010
00001000
00001001
00000000
,
00010100
00000000
00011000
00000000
01001000
01000000
00100000
00000000
,
10010000
00000000
00000000
01100000
00000000
00000000
01000000
00100000
10000000
01000000
00000000
00000000
,
00101000
00000000
00010000
00010000
00011000
00000000
00000010
00000000
,
00000220
00000000
00000000
00000330
,
00002002
00000000
00000000
00000000
,
00000000
00000000
00000000
00000000
,
00003003
00000000
00000000
00000000
;

//---------------dance-double - ----------------
#NOTES:
     dance-double:
     :
     Challenge:
     16:
     0.763,0.772,0.278,0.270,0.825:
00000000
00000000
00000000
00000000
,
00000000
00000000
00000000
00000000
,
00000000
00000000
00000000
00000000
,
00000000
00000000
00000000
00000000
,
00000000
00000000
00000000
00000000
,
00000000
00000000
00000000
00000000
,
00000000
00000000
00000000
00000000
,
00000000
00000000
00000000
00000000
,
00000000
00000000
00000000
00000000
,
10000000
00000000
00100000
01000000
00100000
00000000
01000000
00100000
00000000
10000000
00000000
01000000
00000000
00100000
00000000
00010000
,
00000000
00001000
00000010
00000100
00000010
00000000
00000100
00000001
00000000
00000010
00000000
00000100
00000000
00001000
00000000
00010000
,
00000000
01000000
00100000
10000000
00100000
00000000
10000000
01000000
00000000
00100000
00000000
01000000
00000000
10000000
00000000
00001000
,
00000000
01000000
00001000
00010000
00001000
00000000
00010000
00000000
00000100
00000010
00000001
00000010
00000100
00000000
00000000
00000000
,
00010010
00000010
00000110
00000100
00001001
00001001
00000020
00000030
,
00011000
00000000
00000000
00001000
00000000
00000000
01100000
00000000
00000000
01000000
00000000
00000000
10010000
00000000
00010000
00000000
00100000
00000000
01000000
00000000
10000000
00000000
00100000
00000000
,
01100000
01000000
00002000
00013000
00000110
00000100
00000002
00000003
,
00000010
00000100
00000000
00000010
00000100
00000000
00000010
00000100
00000000
00000010
00000100
00000000
00010000
00000000
00001000
00100000
,
01000000
00000000
10000000
00100000
10000000
00000000
01000000
00100000
00010000
00000000
00000000
00000000
00001000
00000000
00010000
00000100
,
00010000
00000000
00000100
00000010
00000001
00000000
00000100
00000001
00000010
00000000
00000100
00000000
00010000
00001000
01000000
00100000
,
01000000
00000000
00000000
00100000
10000000
00000000
00000000
10000000
01000000
00000000
00000000
01000000
00001000
00000000
00000000
00001000
,
00010000
00000000
00000000
00010000
00000100
00000000
00000000
00000100
00000001
00000000
00000000
00001000
00000000
00001000
00000001
00000010
,
00000100
00000000
00001000
00010000
00100000
00000000
01000000
00100000
01000000
00000000
00000000
00000000
10000000
00000000
00010000
00100000
,
00010000
00000000
00100000
01000000
10000000
00000000
01000000
00100000
00001000
00000000
00010000
00000000
00000010
00010000
00000100
00010000
,
00000010
00000000
00000000
00000110
00000101
00000000
00000000
00000001
,
00001001
00000000
00001000
00000000
00001000
00000000
00000100
00000010
00000001
00000000
00000100
00000000
00000010
00010000
00001000
00010000
,
00000010
00000000
00001000
00000000
00010000
00000000
01000000
00100000
10000000
00000000
00010000
00000000
00100000
01000000
10000000
01000000
,
00100000
00001000
00100000
00001000
00010000
00000000
00000100
00000010
00000001
00000000
00000100
00000000
00000100
00000000
00000100
00000001
,
00020000
00000000
00001000
00000000
00031000
00000000
00100000
01000000
10000000
00000000
00010000
00000000
00100000
01000000
00100000
01000000
,
00100000
00010000
00100000
00010000
00001000
00000000
00000010
00000100
00000001
00000000
00000001
00000000
00000001
00000000
00000001
00000000
,
00000010
00000000
00000000
00000000
00001001
00000000
00000001
00000100
00000001
00000000
00010000
00000000
00001000
00100000
00001000
00100000
,
01000000
10000000
01000000
10000000
00100000
00000000
01000000
00001000
00010000
00000000
00000100
00000000
00000010
00000001
00000100
00000000
,
00001001
00000000
00001000
00000000
00000001
00000000
00000010
00000100
00001000
00010000
01000000
00000000
00100000
10000000
01000000
00100000
,
00020000
00000000
00000000
00030000
,
20010000
00000000
00000000
00000000
00000000
00000000
31000000
00100000
,
00010000
00000000
00001000
00010000
00001000
00010000
00001000
00010000
00000010
00000100
00000010
00000100
00000020
00000000
00000030
00000000
,
00000200
00000302
00000023
00000230
,
00010300
00000000
00001000
01000000
00001000
01000000
00100000
01000000
00100000
01000000
00001000
01000000
00001000
00000000
00000000
00000000
,
20000000
00000000
00000000
00000000
00000000
00000000
31000000
00100000
,
00001000
01000000
00001000
01000000
00010000
00001000
00010000
00001000
00000010
00000100
00000010
00000100
00000020
00000000
00000030
00000000
,
00000200
00000302
00000023
00000230
,
00010300
00000000
00001000
00100000
00001000
00100000
01000000
00000000
10000000
00100000
10000000
00100000
01000000
00000000
00001000
00010000
,
00002000
00000000
00000000
00000000
,
00010000
00010000
00010000
00013000
,
00010010
00000000
00000010
00000100
00000001
00000010
00000100
00000000
00010000
00001000
00100000
01000000
10000000
00000000
00100000
10000000
,
00100000
00000000
01000000
00100000
01000000
00000000
00001000
01000000
00001000
00000000
00010000
00000100
00000010
00000100
00010000
00000000
,
00000010
00000000
00000100
00000001
00000010
00000001
00000100
00000000
00000001
00000010
00000100
00001000
00010000
00000000
01000000
00100000
,
10000000
01000000
10000000
01000000
00000000
00100000
00010000
00001000
00000010
00000000
00000100
00000000
00000001
00000010
00000100
00000010
,
00000002
00000000
00000000
00000000
00001003
00000000
00000010
00010000
00002000
00000000
00000000
00000000
00103000
00000000
01000000
10000000
,
00100000
01000000
00001000
00020000
00000000
00030100
00000010
00000100
,
00010000
00000000
00000001
00000100
00000001
00000000
00010000
00000100
00010000
00000000
00001000
00010000
00001000
00000000
01000000
00010000
,
01000000
00000000
00100000
00000000
01100000
00000000
10000000
01000000
00100000
00000000
00001000
00000000
00010000
00000010
00000100
00000010
,
00020000
00000000
00000000
00000000
00000000
00000000
00000000
00030000
,
00011000
00000000
00000000
00010010
00000000
00000000
00000110
00000000
00000000
00000000
00001001
00000000
00000001
00000000
00001000
00000000
,
00000010
00000000
00000100
00000001
00000010
00000100
00001000
00000000
00010000
01000000
00100000
01000000
00010000
00000000
10000000
01000000
,
10000000
01000000
00100000
00010000
00000000
00100000
00001000
00100000
00001000
00000000
00010000
00000000
00000100
00000010
00000001
00000010
,
00000100
00000000
00001000
00000000
00011000
00000000
00100000
01000000
10000000
00000000
00100000
00000000
01100000
00000000
01000000
00000000
,
00001000
00010000
00001000
00010000
00000010
00000100
00000020
00000000
00000000
00000000
00000130
00000000
00000001
00000000
00000010
00000000
,
00000100
00010000
00000100
00000000
00010000
00001000
00010000
00000000
00001000
01000000
00001000
00000000
01000000
00100000
01000000
00000000
,
00010000
10000000
00010000
10000000
01000000
00100000
01000000
00100000
00001000
00000000
00000000
00000000
00011000
00000000
00000000
00000000
,
00010010
00000000
00000010
00000000
00000100
00000000
00000001
00000000
00000010
00000100
00010000
00001000
02000000
00000000
00000000
00000000
,
03100000
10000000
00100000
10000000
01000000
00100000
00001000
01000000
00002000
00000000
00000000
00000000
00013000
00000000
00000000
00000000
,
00000010
00010000
00000010
00010000
00000100
00000010
00000001
00000100
00000002
00000000
00000000
00002003
00000000
00000000
00003200
00000000
,
00000000
00000000
00000300
00000000
00010000
00001000
00100000
01000000
10000000
00000000
00100000
00000000
10000000
00000000
00010000
00000000
,
00100000
01000000
10000000
00000000
00001000
00100000
00001000
00000000
00010000
00000100
00000010
00000000
00000001
00000010
00000100
00000000
,
00001000
00000000
00010000
00000000
01000000
00100000
00000000
00100000
01000000
00000000
00010000
00000000
10000000
01000000
00100000
00000000
,
00001000
00010000
00000010
00000000
00000100
00000001
00000010
00000000
00000100
00001000
00010000
00000000
01000000
00100000
10000000
00000000
,
00020000
00000000
00000000
00000000
10030000
00000000
00010000
01000000
00100000
00000000
10000000
01000000
10000000
01000000
00100000
00001000
,
00100000
00001000
00010000
00000100
00000010
00000000
00000001
00000100
00000000
00000001
00000000
00000010
00000000
00000100
00000000
00010000
,
00000000
00000000
00000000
00001000
00000000
00000000
00100000
00000000
00000000
01000000
00000000
00000000
00100000
00000000
00000000
00000000
00010000
00000000
00000000
00000000
10000000
00000000
00000000
00000000
00100000
00000000
00000000
00000000
00000000
00000000
00000000
00000000
00000000
00000000
00000000
00000000
10000000
00000000
00000000
00010000
00000000
00000000
00000000
00000000
00000000
00010000
00000000
00000000
,
10000000
01000000
00100000
00010000
00100000
00000000
00001000
00010000
00000000
00000010
00000000
00000100
00000000
00000010
00000000
00000100
,
00000001
00000000
00000010
00000000
00000110
00000000
00000100
00000000
00010000
00000000
00001000
01000000
00200000
00000000
00300000
00000000
,
10010000
10000000
11000000
01000000
01100000
00101000
00002000
00003000
,
00010010
00000000
00000000
00000010
00000000
00000000
00000110
00000000
00000000
00000100
00000000
00000000
00001001
00000000
00000001
00000000
00000010
00000000
00000100
00000000
00001000
00000000
00010000
00000000
,
01010000
01000000
00200000
10300000
01100000
00100000
00002000
00003000
,
00010000
00001000
00000000
00010000
00001000
00000000
00010000
00001000
00000000
00010000
00001000
00000000
00010000
00000000
00000010
00000000
,
00000220
00000000
00000000
00000000
,
00000000
00000000
00000000
00000000
,
00000330
00000000
00000000
00000000
;

//---------------dance-single - ----------------
#NOTES:
     dance-single:
     :
     Beginner:
     2:
     0.094,0.145,0.069,0.000,0.000:
0000
0000
0000
0000
,
0000
0000
0000
0000
,
0000
0000
0000
0000
,
0000
0000
0000
0000
,
0000
0000
0000
0000
,
0000
0000
0000
0000
,
0000
0000
0000
0000
,
0000
0000
0000
0000
,
0000
0000
0000
0000
,
1000
0000
0000
0000
,
0001
0000
0000
0000
,
1000
0000
0000
0000
,
0001
0000
0000
0000
,
0100
0000
0000
0000
,
0010
0000
0000
0000
,
0100
0000
0100
0000
,
0100
0000
0000
0000
,
1001
0000
0000
0000
,
0010
0000
0100
0000
,
1000
0000
0000
0000
,
0001
0000
0000
0000
,
1001
0000
0000
0000
,
0100
0000
0010
0000
,
0001
0000
0001
0000
,
0001
0000
0000
0000
,
1001
0000
0000
0000
,
0010
0000
0000
0000
,
0100
0000
0000
0000
,
1000
0000
0000
0000
,
0001
0000
0000
0000
,
0010
0000
0000
0000
,
0001
0000
0100
0000
,
0010
0000
0000
0000
,
1001
0000
0000
0000
,
0000
0000
0000
0000
,
0100
0000
0000
0000
,
0000
0000
0000
0000
,
0010
0000
0000
0000
,
0000
0000
0000
0000
,
0100
0000
0000
0000
,
0000
0000
0000
0000
,
0010
0000
0000
0000
,
0000
0000
0000
0000
,
1001
0000
1000
0000
,
1000
0000
0000
0000
,
0001
0000
0001
0000
,
0001
0000
0000
0000
,
1000
0000
0010
0000
,
0100
0000
0000
0000
,
0001
0000
0000
0000
,
1000
0000
0000
0000
,
1001
0000
0000
0000
,
0000
0000
0000
0000
,
0001
0000
0001
0000
,
0001
0000
0000
0000
,
1000
0000
1000
0000
,
1000
0000
0000
0000
,
0001
0000
0100
0000
,
0010
0000
0000
0000
,
0110
0000
0000
0000
,
0100
0000
0000
0000
,
0010
0000
0000
0000
,
0001
0000
0000
0000
,
0010
0000
0000
0000
,
0100
0000
0000
0000
,
1000
0000
0001
0000
,
1000
0000
0000
0000
,
0100
0000
0000
0000
,
0010
0000
0000
0000
,
0001
0000
0000
0000
,
0100
0000
0000
0000
,
0110
0000
0010
0000
,
0100
0000
0010
0000
,
1000
0000
0001
0000
,
1000
0000
0000
0000
,
1001
0000
0000
0000
;
