#TITLE:ARABIAN CRYSTAL BGMメドレー;
#SUBTITLE:;
#ARTIST:アリババと40人と海賊;
#TITLETRANSLIT:ARABIAN CRYSTAL BGM MEDLEY;
#SUBTITLETRANSLIT:;
#ARTISTTRANSLIT:ALI BABA TO 40 JIN TO KAIZOKU;
#CREDIT:DigiMindAxel;
#BANNER:ARABIAN CRYSTAL BGM MEDLEY.png;
#BACKGROUND:ARABIAN CRYSTAL BGM MEDLEY-bg.png;
#LYRICSPATH:;
#CDTITLE:pop'n music.png;
#MUSIC:ARABIAN CRYSTAL BGM MEDLEY.ogg;
#METERTYPE:DDR X;
#OFFSET:-8.688;
#SAMPLESTART:8.640;
#SAMPLELENGTH:12.000;
#SELECTABLE:YES;
#BPMS:0.000=116.000,124.000=170.000,156.000=125.000;
#STOPS:;
#BGCHANGES:;

//---------------dance-single - ----------------
#NOTES:
     dance-single:
     :
     Easy:
     3:
     0.184,0.213,0.000,0.131,0.000:
2000
0000
3200
0000
,
0000
1300
0002
0003
,
0020
0000
0230
0000
,
1300
0001
1000
0000
,
0200
0000
2300
0000
,
3010
0100
0010
0000
,
0100
0001
1000
0000
,
0100
0010
0001
0000
,
2000
0000
3002
0000
,
0103
0010
0100
0000
,
0002
0000
0023
0000
,
0130
1000
0100
1000
,
0001
1000
0000
1000
,
0000
0001
0000
0001
,
0000
0010
0000
0010
,
0000
0100
0000
0100
,
0000
1000
0000
1000
,
0000
0001
0000
0001
,
0000
0100
0000
0100
,
0000
0010
0000
0010
,
1000
0001
1000
0000
,
0100
1000
0100
0000
,
0010
0001
0010
0000
,
0001
1000
0001
0000
,
0100
0001
0100
0001
,
1000
0100
1000
0100
,
0010
0001
0010
0001
,
1000
0010
1000
0010
,
0200
0000
0302
0000
,
2003
0000
3200
0000
,
0320
0000
0032
0000
,
1003
1000
0000
0000
,
0010
0010
0000
0000
,
1000
1000
0000
0000
,
0001
0001
0000
0000
,
0010
0010
0000
0000
,
0001
0001
0000
0000
,
1000
1000
0000
0000
,
0001
0001
0000
0000
,
1000
0000
0100
0000
,
1000
0000
0001
0000
,
1000
0000
0100
0000
,
1000
0001
0001
1000
,
1000
0000
0000
0000
,
0010
0000
0000
0000
,
0100
0001
0100
0001
,
1000
0100
1000
0100
,
0010
0000
0000
0000
,
0001
0000
0000
0000
,
0010
0100
0010
0100
,
1000
0010
1000
0010
,
0100
0000
0000
0000
,
0001
0000
0000
0000
,
1000
0000
0000
0000
,
0100
0000
0000
0000
,
0010
0000
0000
0000
,
0100
0000
0000
0000
,
1000
0001
1000
0000
,
0100
1000
0010
0000
,
0100
0001
0010
0000
,
0001
0010
0100
1000
,
0001
0001
0001
0000
;

//---------------dance-single - ----------------
#NOTES:
     dance-single:
     :
     Medium:
     7:
     0.311,0.308,0.169,0.077,0.004:
1000
0000
0000
0100
1000
0000
0000
0000
,
0000
0010
0100
0000
0100
0000
0000
0000
,
0001
0000
0001
0001
0001
0000
1000
0000
,
0100
0010
0001
0000
,
1000
0000
0000
0100
1000
0000
0000
0010
,
0100
0001
0010
0000
,
0100
0000
0100
0100
0100
0000
1000
0000
,
0010
0100
0001
1000
,
0100
0000
0000
0010
0001
0000
0000
0100
,
0010
1000
1000
0000
,
0100
0000
0100
0100
0100
0000
0010
0000
,
0001
0000
1000
0000
0100
1000
0100
0000
,
1000
1001
0001
0101
,
1000
1001
0001
0101
,
1000
1001
0001
0011
,
1000
1001
0001
0011
,
0100
0110
1000
1100
,
0010
0110
1000
1100
,
0010
0110
1000
1100
,
0001
1001
1000
1100
,
0010
0001
1000
0000
0010
1000
0001
0000
,
0010
0001
1000
0000
0010
1000
0001
0000
,
0010
0100
1000
0000
0001
0010
0100
0000
,
1000
0100
0010
0000
0100
0010
0001
0000
,
1000
0010
0100
0000
0001
0100
0010
0000
,
0100
0010
1000
0000
0010
0100
0001
0000
,
1000
0100
0010
0000
0001
0010
0100
0000
,
1000
0010
0100
0000
0010
0100
0001
0000
,
2000
0000
0000
0001
3001
0000
0000
0000
,
2000
0000
0000
0001
3001
0000
0000
0000
,
2000
0000
0000
0001
3001
0000
0000
0000
,
1000
0000
0001
0100
0000
0000
0000
0000
,
0001
0000
1000
0100
0000
0000
0000
0000
,
1000
0000
0001
0100
0000
0000
0000
0000
,
0001
0000
1000
0100
0000
0000
0000
0000
,
1000
0000
0001
0010
0000
0000
0000
0000
,
0001
0000
1000
0010
0000
0000
0000
0000
,
1000
0000
0001
0010
0000
0000
0000
0000
,
0001
0000
1000
0010
0000
0000
0000
0000
,
1000
1000
1000
1000
,
0001
0001
0001
0001
,
0100
0100
0100
0100
,
0010
0010
0010
0010
,
1000
0000
0000
1100
0000
0000
0010
0000
,
0110
0000
0000
0101
0000
0000
0001
0000
,
1000
0100
0010
0001
1000
0000
0000
0000
,
0001
0010
0100
1000
0001
0000
0000
0000
,
1000
0000
0000
1010
0000
0000
0010
0000
,
0110
0000
0000
0101
0000
0000
0001
0000
,
1000
0100
0010
0001
0010
0000
0000
0000
,
0001
0010
0100
1000
0100
0000
0000
0000
,
1000
0002
0100
0103
,
0001
1000
0001
0000
0020
0000
0100
0000
,
0130
0000
1000
0100
1000
0000
0010
0000
,
0200
0000
0000
0300
,
0001
0000
1000
0001
2000
0000
3100
0000
,
0010
0001
0010
0000
0100
0000
1000
0000
,
0020
0100
0100
0130
,
0002
1000
1000
0000
,
2003
0001
0001
0000
,
3001
1000
0100
0010
,
0001
0000
0000
1000
0000
0000
0000
0000
0001
0000
0000
0000
1000
0000
0000
0000
0000
0000
0000
0000
0000
0000
0000
0000
;

//---------------dance-single - ----------------
#NOTES:
     dance-single:
     :
     Hard:
     10:
     0.464,0.450,0.300,0.308,0.131: // measure 1
2000
0000
0000
3010
0200
0000
0000
0000
,  // measure 2
0000
0301
1000
0100
0020
0000
0030
0000
,  // measure 3
1001
0000
0001
0100
0001
0000
1001
0000
,  // measure 4
1000
0010
0100
0001
0020
0000
0030
0000
,  // measure 5
0002
0000
0000
0013
0200
0000
0000
1300
,  // measure 6
0001
0010
0100
1000
0002
0000
0000
0003
,  // measure 7
1001
0000
1000
0100
1000
0001
0100
0001
,  // measure 8
1000
0100
0001
0100
1000
0001
1000
0000
,  // measure 9
1002
0000
0000
0103
0020
0000
0000
1030
,  // measure 10
0001
0010
0100
0010
0002
0000
0000
0003
,  // measure 11
1001
0000
1000
0010
1000
0000
1001
0000
,  // measure 12
0001
0100
0010
1000
0100
0001
0100
1000
,  // measure 13
0001
0001
0011
0000
0100
0100
0110
0000
,  // measure 14
1000
1000
1100
0000
0010
0010
0110
0000
,  // measure 15
0001
0001
0011
0000
1000
1000
1001
0000
,  // measure 16
0001
0001
0101
0000
0010
0010
0110
0000
,  // measure 17
2001
0000
3010
0100
0002
0000
1003
0000
,  // measure 18
0001
0001
0100
0100
0020
0000
0130
0000
,  // measure 19
1001
0000
1001
1000
0100
0010
0001
0100
,  // measure 20
1000
0100
0001
0010
0200
0000
1300
0000
,  // measure 21
1002
0000
0103
0010
0100
0001
0010
1000
,  // measure 22
0020
0000
0031
1000
0200
0000
1300
0000
,  // measure 23
2001
0000
3010
0100
0010
1000
0100
0001
,  // measure 24
0200
0000
1300
0001
0020
0000
0130
0000
,  // measure 25
1000
0010
0001
0010
1000
0010
0001
0010
,  // measure 26
1000
0100
0001
0100
1000
0100
0001
0100
,  // measure 27
1000
0010
0001
0010
1000
0010
0001
0010
,  // measure 28
1000
0100
0010
0001
1000
0100
0010
0001
,  // measure 29
2001
0000
0000
0010
3020
0000
0000
0030
,  // measure 30
0201
0000
0000
0010
0320
0000
0000
0030
,  // measure 31
1002
0000
0000
0010
0023
0000
0000
0030
,  // measure 32
0001
0000
0010
0000
0100
0010
0000
0000
0000
0000
0000
0000
0000
0000
0000
0000
,  // measure 33
0001
0000
1000
0000
0010
1000
0000
0000
0000
0000
0000
0000
0000
0000
0000
0000
,  // measure 34
0010
0000
0100
0000
0001
0100
0000
0000
0000
0000
0000
0000
0000
0000
0000
0000
,  // measure 35
0010
0000
1000
0000
0100
0010
0000
0000
0000
0000
0000
0000
0000
0000
0000
0000
,  // measure 36
0001
0000
0100
0000
0010
0100
0000
0000
0000
0000
0000
0000
0000
0000
0000
0000
,  // measure 37
0001
0000
1000
0000
0100
1000
0000
0000
0000
0000
0000
0000
0000
0000
0000
0000
,  // measure 38
0100
0000
0010
0000
0001
0100
0000
0000
0000
0000
0000
0000
0000
0000
0000
0000
,  // measure 39
0010
0000
1000
0000
0100
0010
0000
0000
0000
0000
0000
0000
0000
0000
0000
0000
,  // measure 40
0001
0010
0001
1000
0001
0010
0100
0000
,  // measure 41
1000
0010
1000
0001
1000
0010
0100
0000
,  // measure 42
0001
1000
0001
0010
0001
0100
0010
0000
,  // measure 43
1000
0001
0001
1000
1000
0000
1001
0000
,  // measure 44
1010
0000
0000
0000
0000
1000
0000
0000
0000
1010
0000
0000
0000
0000
1000
0000
0000
0000
0001
0000
0000
0010
0000
0000
,  // measure 45
0110
0000
0000
0000
0000
0100
0000
0000
0000
0110
0000
0000
0000
0000
0100
0000
0000
0000
0010
0000
0000
1000
0000
0000
,  // measure 46
0001
0001
0010
0010
0100
0100
1000
0000
,  // measure 47
0001
0001
0010
0010
0100
0100
1000
0000
,  // measure 48
1001
0000
0000
0000
0000
0001
0000
0000
0000
1001
0000
0000
0000
0000
0001
0000
0000
0000
0100
0000
0000
0010
0000
0000
,  // measure 49
1010
0000
0000
0000
0000
1000
0000
0000
0000
1010
0000
0000
0000
0000
1000
0000
0000
0000
0010
0000
0000
0100
0000
0000
,  // measure 50
0001
0001
0100
0100
0010
0010
1000
0000
,  // measure 51
0001
0001
0100
0100
0010
0010
1000
0000
,  // measure 52
1001
0000
0000
0000
0000
0000
0001
0000
1000
0000
0000
0002
0000
0000
0000
0000
0000
0000
0013
0000
0000
0000
0000
0000
,  // measure 53
0100
0000
0000
0100
0000
0000
1000
0000
0001
0000
0000
2000
0000
0000
0000
0001
0000
0000
3001
0000
0000
0000
0000
0000
,  // measure 54
1001
0000
0000
0000
0000
0000
0001
0000
1000
0000
0000
0002
0000
0000
0000
1000
0000
0000
1003
0000
0000
0100
0000
0000
,  // measure 55
0010
0000
0000
0000
0000
0022
0000
0000
0000
0000
0000
0000
0000
0000
0000
0000
0000
0000
0033
0000
0000
0000
0000
0000
,  // measure 56
1001
0000
0000
0000
0000
0000
1000
0000
0001
0000
0000
2000
0000
0000
0000
0000
0000
0000
3010
0000
0000
0000
0000
0000
,  // measure 57
0100
0000
0000
0100
0000
0000
0001
0000
1000
0000
0000
0002
0000
0000
0000
1000
0000
0000
1003
0000
0000
0001
0000
0000
,  // measure 58
0020
0000
0000
0000
0000
0000
0230
0000
0000
0000
0000
2300
0000
0000
0000
3001
0000
0000
0010
0000
0000
0100
0000
0000
,  // measure 59
1000
0000
0000
1000
0000
0000
0001
0000
0100
0000
0000
0002
0000
0000
0000
0000
0000
0000
0000
0000
0000
0003
0000
0000
,  // measure 60
0010
0000
0000
0010
0000
0000
0100
0000
1000
0000
0000
0200
0000
0000
0000
0000
0000
0000
1300
0000
0000
0001
0000
0000
,  // measure 61
0100
0000
0000
0000
0000
0202
0000
0000
0000
0000
0000
0000
0000
0000
0000
0000
0000
0000
0000
0000
0000
0303
0000
0000
,  // measure 62
0000
0000
0000
0110
0000
0000
0000
0000
0110
0000
0000
0000
1001
0000
0000
0000
0000
0000
0000
0000
0000
0000
0000
0000
;

//---------------dance-single - ----------------
#NOTES:
     dance-single:
     :
     Challenge:
     13:
     0.665,0.781,0.108,0.392,0.585: // measure 1
1000
0000
0000
1000
0001
0000
0100
0000
0010
0000
0000
0010
0100
0000
0001
0000
,  // measure 2
0010
0000
0000
0010
0100
0000
1000
0000
0001
0000
0000
0001
0100
0000
0010
0000
,  // measure 3
1000
0000
0000
1000
0001
0000
0010
0000
2000
0000
0000
0000
3020
0000
0000
0000
,  // measure 4
0031
0000
0100
0000
0010
0000
1000
0001
2000
0000
0000
0000
3001
0000
0000
0000
,  // measure 5
0200
0000
0000
0310
1000
0000
0001
0010
0002
0000
0000
0103
0010
0000
1000
0000
,  // measure 6
0100
0000
0001
0000
0100
0000
1000
0001
2000
0000
0000
0000
3001
0000
0000
0000
,  // measure 7
0200
0000
0000
0310
1000
0000
1000
0000
0010
0000
0010
0000
0100
0000
0001
0000
,  // measure 8
0010
0000
1000
0000
0010
0000
0001
0000
1000
0000
0100
0010
0100
0000
0000
0000
,  // measure 9
2000
0000
0000
3100
0010
0000
0001
0100
0002
0000
0000
1003
0100
0000
0010
0000
,  // measure 10
0001
0100
1000
0100
0002
0000
1003
0000
,  // measure 11
0020
0000
0000
1030
0001
0000
0010
0000
2000
0000
0000
0000
3020
0000
0000
0000
,  // measure 12
0031
1000
0100
0001
0100
1000
0001
0010
,  // measure 13
0100
0000
1000
0010
1000
0000
0100
0000
0010
0000
0001
0100
0001
0000
0000
0000
,  // measure 14
0010
0000
0100
1000
0100
0000
0010
0000
0001
0000
1000
0001
1000
0000
0000
0000
,  // measure 15
0100
0000
0010
0001
0010
0000
0100
0000
1000
0000
0010
1000
0010
0000
0100
0000
,  // measure 16
0001
0000
1000
0010
1000
0000
0001
0000
0010
0000
0100
0010
0100
0000
0000
0000
,  // measure 17
2000
0000
0000
3010
0100
0000
0001
0000
0020
0000
0000
0031
1000
0000
0000
0000
,  // measure 18
0010
0000
1000
0100
0010
0000
0100
0010
0002
0000
1000
0000
1003
0000
0000
0000
,  // measure 19
0020
0000
0000
0130
0001
0000
0010
0000
0100
0000
1000
0000
0001
0010
0100
0010
,  // measure 20
0001
0000
1000
0010
0100
0000
0010
0100
0002
0000
1000
0000
1003
0000
0000
0000
,  // measure 21
0200
0000
0000
1300
0010
0000
0100
0001
0010
0000
1000
0000
0010
0000
0001
0000
,  // measure 22
0200
0000
0000
0301
1000
0000
0100
0000
0020
0000
0001
0000
0031
0000
0000
0000
,  // measure 23
0200
0000
0000
0310
1000
0000
0100
1000
0001
0000
0100
0000
1000
0000
0100
0000
,  // measure 24
0001
0000
1000
0010
2000
0001
3001
0000
,  // measure 25
0010
0100
0010
0001
0100
0001
1000
0100
0010
0100
1000
0001
0010
0100
0010
0001
,  // measure 26
1000
0010
1000
0001
0010
0001
1000
0100
1000
0001
0100
0001
0010
0100
0010
0001
,  // measure 27
1000
0010
1000
0001
0010
0100
0010
0001
1000
0010
1000
0001
0010
0100
0010
0001
,  // measure 28
0100
0001
1000
0100
1000
0001
0100
0001
1000
0100
1000
0010
0001
0010
1000
0010
,  // measure 29
0200
0000
0000
0301
1000
0000
0100
1000
0002
0000
1000
0000
2003
0000
0000
0000
,  // measure 30
3020
0000
0000
0130
0001
0000
0010
0100
2000
0000
0001
0000
3002
0000
0000
0000
,  // measure 31
0203
0000
0000
0301
1000
0000
0010
1000
0002
0000
1000
0000
1000
0000
1003
0000
,  // measure 32
0001
0000
0001
0000
1000
0001
1000
0000
0100
0000
0010
0000
0001
0000
0000
0000
,  // measure 33
1000
0000
1000
0000
0001
1000
0001
0000
0100
0000
0010
0000
1000
0000
0000
0000
,  // measure 34
0001
0000
0001
0000
1000
0010
1000
0000
0100
0000
0010
0000
0001
0000
0000
0000
,  // measure 35
0010
0000
0010
0000
0100
1000
0100
0000
0010
0000
0001
0000
0100
0000
0000
0000
,  // measure 36
0010
0000
0010
0000
0100
0001
1000
0000
0100
0000
0010
0000
0100
0000
1000
0000
,  // measure 37
0001
0000
0001
0000
0100
0010
1000
0000
0001
0000
0010
0000
0100
0000
0010
0000
,  // measure 38
0001
0000
0001
0000
0010
0001
1000
0000
0010
0000
0100
0000
0010
0000
1000
0000
,  // measure 39
0100
0000
0100
0000
0010
0001
1000
0000
0010
0000
0100
0000
0010
0000
1000
0000
,  // measure 40
0001
0000
0000
0001
0000
0000
0100
0000
0001
0000
0000
1000
0000
0000
0100
1000
0000
0000
0010
0000
0000
0100
0000
0000
,  // measure 41
0001
0000
0000
0001
0000
0000
0010
0000
0001
0000
0000
1000
0000
0000
0010
1000
0000
0000
0100
0000
0000
0010
0000
0000
,  // measure 42
0001
0000
0000
0001
0000
0000
1000
0000
0010
0000
0000
1000
0000
0000
0001
0010
0000
0000
0100
0000
0000
1000
0000
0000
,  // measure 43
0001
0000
0000
1000
0000
0000
1000
0000
0000
0001
0000
0000
0001
0000
0000
0000
0000
1000
0100
0000
1000
0100
0000
0000
,  // measure 44
1002
0000
0000
0000
0000
0103
0000
0000
0000
2010
0000
0000
0000
0000
3001
0000
0000
0000
1000
0000
0000
0100
0000
0000
,  // measure 45
1200
0000
0000
0000
0000
0310
0000
0000
0000
0120
0000
0000
0000
0000
0031
0000
0000
0000
0100
0000
0000
0010
0000
0000
,  // measure 46
1000
0000
0010
1000
0000
0010
1000
0000
0010
1000
0000
0001
0010
0000
0001
0010
0000
0001
0010
0000
0000
0100
0000
0000
,  // measure 47
1000
0000
0001
0100
0000
0001
0100
0000
0001
0100
0000
0001
1000
0000
0001
1000
0000
0001
1000
0000
0000
0100
0000
0000
,  // measure 48
0120
0000
0000
0000
0000
0031
0000
0000
0000
0012
0000
0000
0000
0000
1003
0000
0000
0000
0001
0000
0000
1000
0000
0000
,  // measure 49
1020
0000
0000
0000
0000
0130
0000
0000
0000
0210
0000
0000
0000
0000
0301
0000
0000
0000
0100
0000
0000
0010
0000
0000
,  // measure 50
1000
0000
0001
1000
0000
0001
1000
0000
0001
1000
0000
0100
1000
0000
0100
1000
0000
0100
1000
0000
0000
0010
0000
0000
,  // measure 51
0100
0000
0001
0100
0000
0001
0100
0000
0001
0100
0000
0001
1000
0000
0001
1000
0000
0001
1000
0000
0000
0100
0000
0000
,  // measure 52
0010
0000
0000
0000
0000
0000
0001
0000
1000
0000
0000
0002
0000
0000
0100
0000
0000
0000
0103
0000
0000
0000
0000
0000
,  // measure 53
0001
0000
0000
0001
0000
0000
0010
0000
0100
0000
0000
2000
0000
0000
0000
3001
0000
0000
1000
0000
0000
0010
0000
0000
,  // measure 54
0100
0000
0000
0000
0000
0000
0010
0000
1000
0000
0000
0002
0000
0000
0010
0000
0000
0000
0013
0000
0000
0100
0000
0000
,  // measure 55
1000
0000
0000
0000
0000
1020
0000
0000
0000
0000
0000
0000
0000
0000
0000
0130
0000
0001
0100
0000
0001
0100
0000
0001
,  // measure 56
1000
0000
0000
0000
0000
0000
0001
0000
1000
0000
0000
0200
0000
0000
0010
0000
0000
0000
0310
0000
0000
0000
0000
0000
,  // measure 57
0001
0000
0000
0001
0000
0000
0100
0000
0001
0000
0000
2000
0000
0000
0000
3010
0000
0000
1000
0000
0000
0100
0000
0000
,  // measure 58
0020
0000
0000
0000
0000
0000
0032
0000
0000
0000
0000
2003
0000
0000
0000
3001
0000
0000
0100
0000
0000
1000
0000
0000
,  // measure 59
0100
0000
0000
0001
0000
0000
1000
0000
0010
0000
0000
2000
0000
0000
0000
0001
0000
0000
0010
0000
0000
3001
0000
0000
,  // measure 60
1000
0000
0000
1000
0000
0000
0001
0000
0100
0000
0000
0002
0000
0000
0000
1000
0000
0000
0100
0000
0000
1003
0000
0000
,  // measure 61
1001
0000
0000
0000
0000
0012
0000
0000
0000
0010
0000
0000
0000
0000
1000
0000
0000
0000
1000
0000
0000
1003
0000
0000
,  // measure 62
0000
0000
0000
0101
0000
0000
0000
0000
1001
0000
0000
0000
1100
0000
0000
0000
0000
0000
0000
0000
0000
0000
0000
0000
;

//---------------dance-single - ----------------
#NOTES:
     dance-single:
     :
     Beginner:
     1:
     0.067,0.094,0.015,0.000,0.000:
1000
0000
0000
0000
,
0000
0000
0000
0000
,
0010
0000
0000
0000
,
0100
0000
0000
0000
,
0001
0000
0000
0000
,
0000
0000
0000
0000
,
0010
0000
0000
0000
,
0100
0000
0000
0000
,
1000
0000
0000
0000
,
0000
0000
0000
0000
,
0100
0000
0000
0000
,
0010
0000
0000
0000
,
0001
0000
0000
0000
,
0100
0000
0000
0000
,
0010
0000
0000
0000
,
1000
0000
0000
0000
,
0001
0000
0000
0000
,
0100
0000
0000
0000
,
0010
0000
0000
0000
,
1000
0000
0000
0000
,
0001
0000
0000
0000
,
0010
0000
0000
0000
,
0001
0000
0000
0000
,
1000
0000
0000
0000
,
0010
0000
0000
0000
,
0010
0000
0000
0000
,
0010
0000
0000
0000
,
0010
0000
0000
0000
,
0100
0000
0000
0000
,
0100
0000
0000
0000
,
0100
0000
0000
0000
,
1001
0000
0000
0000
,
1000
0000
0000
0000
,
1000
0000
0000
0000
,
1000
0000
0000
0000
,
1001
0000
0000
0000
,
0001
0000
0000
0000
,
0001
0000
0000
0000
,
0001
0000
0000
0000
,
0100
0000
0000
0000
,
0010
0000
0000
0000
,
0100
0000
0000
0000
,
0001
0000
0000
0000
,
1000
0000
0000
0000
,
0100
0000
0000
0000
,
0010
0000
0000
0000
,
0001
0000
0000
0000
,
0100
0000
0000
0000
,
0100
0000
0000
0000
,
0010
0000
0000
0000
,
1000
0000
0000
0000
,
0001
0000
0000
0000
,
0010
0000
0000
0000
,
0001
0000
0000
0000
,
0010
0000
0000
0000
,
0100
0000
0000
0000
,
1000
0000
0000
0000
,
0100
0000
0000
0000
,
1000
0000
0000
0000
,
0010
0000
0000
0000
,
0100
0000
0000
0000
,
0001
0000
0000
0000
;
