#TITLE:アローラ!!;
#SUBTITLE:;
#ARTIST:サトシwithピカチュウ(CV:松本梨香/大谷育江);
#TITLETRANSLIT:ALOLA!!;
#SUBTITLETRANSLIT:;
#ARTISTTRANSLIT:SATOSHI with PIKACHU (CV.RICA MATSUMOTO/IKUE OTANI);
#CREDIT:DigiMindAxel;
#BANNER:ALOLA!!.png;
#BACKGROUND:ALOLA!!-bg.png;
#LYRICSPATH:ALOLA!!.lrc;
#CDTITLE:DigiMindAxel original simfile.png;
#MUSIC:ALOLA!!.ogg;
#METERTYPE:DDR X;
#OFFSET:-0.433;
#SAMPLESTART:59.776;
#SAMPLELENGTH:12.000;
#SELECTABLE:YES;
#BPMS:0.000=153.000;
#STOPS:;
#BGCHANGES:-1.000=ALOLA!!.avi=1.000=1=1=0,
99999=-nosongbg-=1.000=0=0=0 // don't automatically add -songbackground-
;

//---------------dance-single - ----------------
#NOTES:
     dance-single:
     :
     Easy:
     5:
     0.252,0.270,0.099,0.132,0.000: // measure 1
0000
0000
0000
0000
,  // measure 2
0000
0000
0000
0000
,  // measure 3
0000
0000
0000
0000
,  // measure 4
0000
0000
0000
0000
,  // measure 5
1000
0001
0000
0010
,  // measure 6
0100
0100
0100
1000
,  // measure 7
0002
0000
0103
0000
,  // measure 8
0020
0000
0130
0000
,  // measure 9
0001
1000
0000
0100
,  // measure 10
0010
0010
0010
0001
,  // measure 11
0200
0000
0320
0000
,  // measure 12
0200
0000
0330
0000
,  // measure 13
1001
0001
0001
0001
,  // measure 14
1000
0000
0000
0000
,  // measure 15
0100
0100
0100
0100
,  // measure 16
0010
0000
0000
0000
,  // measure 17
0001
0001
0001
0001
,  // measure 18
0100
0000
0000
0000
,  // measure 19
1001
0000
1001
0000
,  // measure 20
0001
0001
0001
0001
,  // measure 21
1000
0100
0010
0001
,  // measure 22
1000
0000
0000
0000
,  // measure 23
0001
0010
0100
1000
,  // measure 24
0001
0000
0000
0000
,  // measure 25
0100
0010
0100
0001
,  // measure 26
1000
0000
0100
0000
,  // measure 27
0010
0001
0100
0010
,  // measure 28
2000
0000
3000
0000
,  // measure 29
0001
0100
0001
1000
,  // measure 30
0001
0100
0001
0000
,  // measure 31
1000
0100
1000
0001
,  // measure 32
1000
0100
1000
0000
,  // measure 33
0010
0100
0010
1000
,  // measure 34
0010
0100
0010
0000
,  // measure 35
0100
0010
0100
0001
,  // measure 36
0100
0010
0100
0000
,  // measure 37
0220
0000
0000
0000
,  // measure 38
0330
0000
0000
0000
,  // measure 39
1001
0001
0100
0000
,  // measure 40
0010
1000
0001
0000
,  // measure 41
1000
1000
0001
0000
,  // measure 42
0010
0100
1000
1001
,  // measure 43
0001
0001
0100
0000
,  // measure 44
0010
1000
0100
0000
,  // measure 45
0010
0001
0100
0010
,  // measure 46
0100
0001
0010
0000
,  // measure 47
0220
0000
0330
0000
,  // measure 48
1001
1000
0002
0000
,  // measure 49
0003
0000
0000
0000
,  // measure 50
1001
0001
2000
0000
,  // measure 51
3001
0100
0010
1000
,  // measure 52
0000
0000
0000
0000
,  // measure 53
0001
1000
0000
0010
,  // measure 54
0100
0100
0100
0001
,  // measure 55
0010
0010
0010
0100
;

//---------------dance-single - ----------------
#NOTES:
     dance-single:
     :
     Medium:
     8:
     0.376,0.391,0.373,0.088,0.000:
0000
0000
0000
0000
,
0000
0000
0000
0000
,
0000
0000
0000
0000
,
0000
0000
0000
0000
,
1000
0000
0010
1000
0000
0001
1000
0000
,
0100
0000
0100
0000
0100
0000
0010
0001
,
0000
0000
0200
0000
0010
0000
0000
0310
,
0000
2000
0000
0000
0001
0000
3001
0000
,
1000
0000
0001
0100
0000
0001
1000
0000
,
0010
0010
0010
0100
,
0101
0000
0110
0000
,
1001
0000
0000
1001
0000
0000
0000
0000
,
0001
0001
0001
0001
,
0010
0010
0010
0010
,
0100
0100
0100
0100
,
1000
1000
1000
1000
,
0001
0001
0001
0001
,
0100
0100
0100
0100
,
0110
0000
0110
0000
,
1001
1001
1001
0000
,
0001
0100
1000
0100
,
0001
0001
0001
1000
,
0001
0010
1000
0010
,
0001
0001
0001
1000
,
0001
0100
1000
0100
,
0001
0100
1000
0100
,
0001
0000
1000
0000
0001
0000
1000
0002
,
0000
0100
0103
0000
,
0001
1000
0001
0000
1000
0100
1000
0000
,
0001
0010
0100
0000
,
0010
0001
0010
0000
0100
0010
0100
0000
,
1000
0010
0100
0000
,
0001
1000
0001
0000
1000
0100
1000
0000
,
0010
0100
0001
0000
,
0010
0001
0010
0000
0100
0010
0100
0000
,
1000
0010
0100
0000
,
0101
0000
0110
0000
,
2002
0000
0000
3003
,
0101
0101
1001
1001
,
1000
0010
0100
0000
0001
0000
0000
0000
,
1000
1001
0001
0101
,
0100
0010
0100
0010
1000
0000
0000
0000
,
1010
1010
1001
1001
,
0001
0010
0100
0000
1000
0000
0000
0000
,
0010
0110
0100
0101
,
0001
0000
1000
0010
1000
0000
0001
0020
,
0000
0100
0130
0000
,
1100
0000
1100
0000
1001
0000
0000
2002
,
0000
0000
0000
3003
,
0011
0011
1001
1001
,
1010
0000
0010
1000
0001
0000
1000
1000
,
0000
0001
1000
0000
1001
0000
0000
0000
,
0001
0000
0100
0001
0000
1000
0001
0000
,
0010
0000
0010
0000
0010
0100
1000
0010
,
0000
0000
0010
0000
0010
0100
0001
1000
;

//---------------dance-single - ----------------
#NOTES:
     dance-single:
     :
     Hard:
     9:
     0.503,0.515,0.417,0.154,0.044:
0000
0000
0000
0000
,
0000
0000
0000
0000
,
0000
0000
0000
0000
,
0000
0000
0000
0000
,
1000
0010
0100
0001
0000
0001
0100
0010
,
1000
0001
0010
0001
1000
0001
0010
0001
,
0000
0000
0100
0000
0020
0000
0000
0000
1000
0000
0000
1000
0000
0000
1030
0000
,
0000
0000
0010
0000
0200
0000
0000
0000
0001
0000
0000
0301
0000
0000
1000
0000
,
0001
0010
0100
1000
0000
1000
0100
0010
,
0001
1000
0010
1000
0001
1000
0010
0000
,
0100
0000
0000
0100
0000
0000
0100
0000
0001
0000
0000
0001
0000
0000
0001
0000
,
0010
0000
0000
0100
0000
0000
0110
0000
0000
0000
0000
0000
0000
0000
0000
0000
,
1010
0010
0010
0010
,
0100
0100
0100
0100
,
0001
0001
0001
0001
,
0010
0010
0010
0010
,
0100
0100
0100
0100
,
1000
0000
1000
0000
1000
0000
1000
0010
,
1010
0000
0000
0010
1010
0000
0000
1001
,
0000
0001
0010
0100
1000
0000
0000
0000
,
0001
1000
0100
0001
0100
1000
0001
0000
,
0010
0100
0010
0001
,
1000
0001
0100
1000
0100
0001
1000
0000
,
0010
0100
0010
1000
,
0001
1000
0010
0100
0010
0000
0010
0000
,
1000
0100
0010
0100
1000
0000
1000
0000
,
0100
1000
0010
0100
0001
0010
0000
1001
,
0000
1000
0100
0010
0001
0000
0000
0000
,
1000
0100
1000
0001
1000
0100
1000
0001
,
0010
0100
0010
0001
1000
0000
0001
0000
,
1000
0010
1000
0001
1000
0010
1000
0001
,
0010
0100
0010
0001
1000
0000
0001
0000
,
0010
0100
0010
0001
1000
0010
0000
0201
,
0000
0010
0010
0320
0000
0000
0030
1000
,
0010
0100
0010
1000
0001
0010
0000
1200
,
0000
1000
1000
2300
0000
0000
0000
0000
,
3010
0000
0000
0010
0000
0000
0010
0000
0100
0000
0000
0100
0000
0000
0100
0000
,
2002
0000
0000
3003
,
0110
0110
1001
1001
,
1000
0010
0001
0010
1000
0000
0100
0000
,
0011
0011
1001
1001
,
1000
0100
0001
0100
1000
0000
1001
0000
,
1010
1010
0101
0101
,
0100
0001
0010
1000
0010
0000
0001
0000
,
0101
0101
0110
0110
,
0100
1000
0010
0100
0001
1000
1000
2000
,
0000
0010
0010
0010
3010
0000
0000
0000
,
0110
0000
0000
0000
0110
0000
0000
0000
0100
0000
0000
0001
0000
0000
2002
0000
,
0000
0000
0000
3003
,
0011
0011
0110
0110
,
1100
0000
1000
0100
0010
0001
0100
0101
,
0000
0100
0101
0000
1001
0000
0000
0000
,
0001
0010
0100
1000
0000
1000
0100
0010
,
0001
0100
0001
1000
0001
0100
0001
2000
,
0000
3100
0010
0001
0010
0100
1000
0202
,
0000
0303
0000
0000
;

//---------------dance-single - ----------------
#NOTES:
     dance-single:
     :
     Challenge:
     12:
     0.653,0.636,0.548,0.132,0.263:
0000
0000
0000
0000
,
0000
0000
0000
0000
,
0000
0000
0000
0000
,
0000
0000
0000
0000
,
1000
0001
0010
0100
0000
0010
0100
1000
,
0001
0001
0100
0100
0010
0010
1000
1100
,
0000
0000
1000
0001
1000
0000
0010
0000
0100
0000
0001
0100
0000
0001
1000
0000
,
0000
0000
0001
1000
0001
0000
0010
0000
0100
0000
1000
0000
0001
0100
0001
0100
,
0001
1000
0100
0010
0000
0100
0010
0001
,
1000
1000
0010
0010
0100
0100
0001
0000
,
1001
0000
0000
0011
0000
0000
0100
0000
0110
0000
0000
1100
0000
0000
0010
0000
,
0110
0000
0000
0011
0000
0000
1001
0000
0000
0000
0000
0000
0000
0000
0000
0000
,
0100
0000
0000
0100
0001
0000
0000
0100
0001
0000
0000
0100
0001
0000
0000
0010
,
0100
0000
0000
0010
0100
0000
0000
0010
0100
0000
0000
0010
0100
0000
0000
1000
,
0100
0000
0000
1000
0100
0000
0000
1000
0100
0000
0000
1000
0100
0000
0000
1000
,
0001
0000
0000
1000
0001
0000
0000
1000
0001
0000
0000
1000
0001
0000
0000
0100
,
0001
0000
0000
0100
0001
0000
0000
0100
0001
0000
0000
0100
0001
0000
0000
0010
,
0100
0000
0000
0010
0100
0000
0000
0010
0100
0000
0000
0010
0100
0000
1100
0000
,
1001
0000
0000
1100
1001
0000
0000
1001
,
0000
0101
0100
0010
1000
0100
0010
0001
,
1000
0000
0001
0100
0001
0000
0100
0010
0100
0000
0010
1000
0010
0000
1000
0000
,
0001
0010
0100
1000
0001
0100
0001
0000
,
1000
0000
0100
1000
0100
0000
0010
0100
0010
0000
0001
0010
0001
0000
1000
0000
,
0001
0100
0010
1000
0100
0010
0100
0000
,
1000
0000
0001
0100
0001
0000
1000
0100
1000
0000
0100
0000
0010
0000
0001
0000
,
1000
0000
0100
1000
0100
0000
0010
0100
0010
0000
0001
0000
0100
0000
0010
0000
,
0100
0001
1000
0100
0010
0100
0000
1100
,
0000
1001
0001
0100
0110
0000
0000
0000
,
1000
0010
0001
0010
1000
0010
0100
1000
,
0100
0010
1000
0001
0200
0001
0301
0000
,
1000
0010
0001
0010
1000
0010
0100
1000
,
0100
0010
1000
0001
0200
0001
0301
0000
,
1000
0100
0001
0100
1000
0001
0000
0201
,
0000
0010
0010
0320
0000
1000
1030
0001
,
1000
0100
0001
0100
1000
0001
0000
0201
,
0000
0010
0010
0320
0000
1000
1030
0000
,
1001
0000
0000
1001
0000
0000
0010
0000
0011
0000
0000
0011
0000
0000
0100
0000
,
0220
0000
0000
0330
,
1010
0010
0110
0000
0101
0001
1000
0100
,
0010
0001
0010
1000
0010
0001
1000
0010
,
1000
0100
0010
0100
2000
0000
3010
0100
,
0001
0010
1000
0010
0001
1000
1001
0000
,
0101
0100
0110
0000
1010
1000
0001
0010
,
1000
0010
0001
0100
0010
0100
0001
0000
,
0010
0100
1000
0001
0100
0010
0100
0001
,
0000
0000
1000
0100
0010
0000
0001
0000
1000
0000
0010
0000
1000
0000
1010
0000
,
0000
0110
0100
0001
1001
0000
0000
0000
,
0101
0000
0000
0000
0101
0000
0000
0000
1001
0000
0000
1100
0000
0000
0012
0000
,
0000
0000
0000
1000
0000
1003
0000
0000
,
1100
1100
0011
1001
,
1100
0000
0100
1000
0010
0100
0001
1001
,
0000
0000
1001
0000
1100
0000
0000
0000
1001
0000
0000
0000
1000
0001
1000
0001
,
1000
0001
0010
0100
0000
0010
0100
1000
,
0001
0001
0100
0100
0010
0010
1000
1001
,
0000
0001
0001
0010
0010
0100
0100
2002
,
0000
3003
0000
0000
;

//---------------dance-single - ----------------
#NOTES:
     dance-single:
     :
     Beginner:
     1:
     0.088,0.181,0.110,0.000,0.000:
0000
0000
0000
0000
,
0000
0000
0000
0000
,
0000
0000
0000
0000
,
0000
0000
0000
0000
,
0001
0000
0000
0000
,
1000
0000
0000
0000
,
0001
0000
0000
0000
,
0010
0000
0000
0000
,
0100
0000
0000
0000
,
1000
0000
0000
0000
,
0001
0000
0000
0000
,
1000
0000
0000
0000
,
1001
0000
0000
0000
,
0000
0000
0000
0000
,
0001
0000
0000
0000
,
0000
0000
0000
0000
,
0010
0000
0000
0000
,
0000
0000
0000
0000
,
0100
0000
0000
0000
,
0000
0000
0000
0000
,
1001
0000
0000
0000
,
1000
0000
0000
0000
,
0001
0000
0000
0000
,
1000
0000
0000
0000
,
0001
0000
0000
0000
,
0100
0000
0000
0000
,
0010
0000
0000
0000
,
1000
0000
0000
0000
,
0001
0000
0000
0000
,
0001
0000
0000
0000
,
0010
0000
0000
0000
,
0010
0000
0000
0000
,
0100
0000
0000
0000
,
0100
0000
0000
0000
,
1000
0000
0000
0000
,
1000
0000
0000
0000
,
0001
0000
0000
0000
,
0000
0000
0000
0000
,
1001
0000
0000
0000
,
1000
0000
0000
0000
,
0100
0000
0000
0000
,
1000
0000
0000
0000
,
1001
0000
0000
0000
,
0001
0000
0000
0000
,
0100
0000
0000
0000
,
0001
0000
0000
0000
,
0000
0000
0000
0000
,
1001
0000
0000
0000
,
1001
0000
0000
0000
,
0110
0000
0000
0000
,
0110
0000
0000
0000
,
0000
1001
0000
0000
,
1001
0000
0000
0000
,
1000
0000
0000
0000
,
0001
0000
0000
0000
,
0100
0000
0000
0000
;
