#TITLE:アキネイション;
#SUBTITLE:;
#ARTIST:ビートまりお(COOL&CREATE);
#TITLETRANSLIT:AKI NATION;
#SUBTITLETRANSLIT:;
#ARTISTTRANSLIT:beatMARIO(COOL&CREATE);
#CREDIT:DigiMindAxel;
#BANNER:AKI NATION.png;
#BACKGROUND:AKI NATION-bg.png;
#LYRICSPATH:;
#CDTITLE:BeatStream.png;
#MUSIC:AKI NATION.ogg;
#METERTYPE:DDR X;
#OFFSET:-0.351;
#SAMPLESTART:62.592;
#SAMPLELENGTH:12.000;
#SELECTABLE:YES;
#BPMS:0.000=185.000;
#STOPS:;
#BGCHANGES:-4.000=AKI NATION.avi=1.000=1=1=0,
99999=-nosongbg-=1.000=0=0=0 // don't automatically add -songbackground-
;

//---------------dance-single - ----------------
#NOTES:
     dance-single:
     :
     Easy:
     6:
     0.341,0.372,0.108,0.251,0.000:
0000
0000
0000
0000
,
0000
0000
0000
0000
,
0000
0000
0000
0000
,
0000
0000
0000
0000
,
1000
0000
0001
0000
,
1000
0000
0001
0000
,
0110
0000
0110
0000
,
2002
0000
0000
3003
,
0001
0000
0100
0000
,
0010
0000
0100
0001
,
0100
0000
0010
0000
,
1000
0000
0001
0000
,
1000
0000
0100
0000
,
0010
0000
0100
1000
,
0100
0000
0010
0000
,
0001
1000
0001
0000
,
2000
0000
3100
0000
,
0020
0000
0031
0000
,
0200
0000
0320
0000
,
2030
0000
3002
0000
,
2003
0000
3100
0000
,
0020
0000
0130
0000
,
2000
0000
3002
0000
,
0023
0000
0000
0000
,
0230
0000
1300
0000
,
0020
0000
0130
0000
,
0002
0000
2003
0000
,
3200
0000
0320
0000
,
0032
0000
0103
0000
,
0020
0000
0130
0000
,
0002
0000
2003
0000
,
3100
0010
0001
1000
,
1001
0000
1001
0000
,
1001
0001
0001
0000
,
0010
0100
0010
0100
,
1000
0010
1000
0000
,
1001
0000
1001
0000
,
1001
1000
1000
0000
,
0001
0100
0010
0100
,
0001
0010
0100
0000
,
1000
0001
1000
0000
,
0010
1000
0010
0000
,
0100
0010
0100
0000
,
0001
0010
0100
0000
,
0010
0001
0010
0000
,
0100
0010
0100
0000
,
1000
0100
0010
0001
,
2000
0000
0000
3000
,
0001
0100
0010
0100
,
0001
0100
0010
0100
,
0001
1000
0100
0010
,
0001
0001
0001
0000
,
1000
0010
0100
0010
,
1000
0010
0100
0010
,
1000
0100
0010
0001
,
1000
0000
0000
0000
,
0010
0100
0010
1000
,
0010
0100
0010
1000
,
0001
0010
0100
1000
,
0001
0100
0001
1000
,
0100
0000
0010
0001
,
0010
0001
0100
0000
,
0010
1000
0010
1000
,
0100
0010
0001
0000
,
0100
0010
0100
0001
,
0100
0010
1000
0000
,
0010
1000
0010
0100
,
0010
1000
0100
0000
,
0010
0001
1000
0001
,
0010
0001
1000
0100
,
0010
0001
1000
0001
,
1000
0100
0010
0001
,
1000
0010
0100
0010
,
1000
0001
0010
0001
,
1000
0010
0100
0010
,
1000
0001
0010
0000
,
0001
1000
0100
1000
,
0001
1000
0100
1000
,
0001
0100
0010
1000
,
0010
0010
0010
0000
,
0220
0000
0000
0330
,
1001
0000
2002
0000
,
0000
0000
0000
0000
,
3003
0000
0000
0000
;

//---------------dance-single - ----------------
#NOTES:
     dance-single:
     :
     Medium:
     10:
     0.521,0.633,0.395,0.108,0.009:
0000
0000
0000
0000
,
0000
0000
0000
0000
,
0000
0000
0000
0000
,
0000
0000
0000
0000
,
1000
0100
0010
0100
,
1000
0100
0010
0000
,
0101
0000
1010
0000
,
1001
1001
1001
1001
,
0001
0100
0001
0000
0100
0010
0100
0000
,
0001
0100
0001
0000
0010
0000
1000
0000
,
0010
0001
0010
0000
0100
0010
0100
0000
,
1000
0010
0110
0000
,
1000
0100
1000
0000
0001
1000
0001
0000
,
1000
0100
1000
0000
0010
0000
0001
0000
,
0010
1000
1001
0010
,
0110
0110
0110
0000
,
0200
0000
0000
0000
1300
0000
0010
0100
,
0000
0010
0100
0000
0001
0000
0000
0000
,
1000
0100
1000
0000
0001
1000
0001
0000
,
1000
0100
0010
0000
,
0002
0000
0000
0000
0013
0000
0100
1000
,
0000
0100
1000
0000
0010
0000
0100
0000
,
0001
0000
0010
0100
0010
0000
0001
0100
,
0002
1000
1000
1003
,
1200
0000
0310
0001
,
0010
0100
1000
0001
,
1000
0100
1000
0000
0010
0100
0001
0000
,
1000
0100
0010
0000
0001
0000
1000
0000
,
1002
0000
0000
0000
0103
0000
0010
1000
,
0100
0000
0010
0000
0001
1000
0001
0000
,
0101
0100
0101
0100
,
0101
0010
0100
1000
,
1001
0000
1001
0000
,
1001
1001
1001
0000
,
0001
0000
0001
0100
0010
0100
0001
0000
,
1000
0100
0010
0000
0100
0000
0000
0000
,
1001
0000
1001
0000
,
1001
1001
1001
0000
,
1000
0000
1000
0010
0100
0010
1000
0000
,
0001
0010
0100
0000
0010
0000
0000
0000
,
0001
0000
0001
0100
0010
0000
0100
0010
,
1000
0001
0000
0001
1000
0000
0000
0000
,
0001
0000
0001
0010
0100
0010
0001
0000
,
0100
0010
1000
0000
0100
0000
0010
0000
,
0101
0110
0101
0110
,
1100
1001
1100
1001
,
1000
0100
0010
0001
,
2000
0000
0000
3000
,
0001
0000
1000
0100
0010
0100
1000
0000
,
0001
0000
1000
0100
0010
0100
1000
0000
,
0001
0000
1000
0010
0100
0000
0010
0100
,
0001
0001
1001
0000
,
2000
0000
0000
0000
3001
0000
1000
0100
,
0010
0100
0110
0000
,
1000
0010
0100
0000
0010
0100
0001
0000
,
1000
0000
0000
0001
0000
0000
1000
0000
0010
0000
0000
0000
0000
0000
0000
0000
,
1000
0000
0100
0010
0001
0010
0100
0000
,
1000
0000
0100
0010
0001
0010
0100
0000
,
1000
0010
0100
0000
0010
0100
0001
0000
,
1000
0010
0110
0000
,
1002
0000
0000
0000
0103
0010
0100
0010
,
1000
0001
1001
0000
,
1000
0001
0100
0000
0010
1000
0001
0000
,
0010
0000
0000
0100
0000
0000
1000
0000
0001
0000
0000
0000
0000
0000
0000
0000
,
0010
0001
0010
0000
0100
0010
0100
0000
,
1000
0100
1000
0000
0010
0000
0110
0000
,
0100
0001
0100
0000
0010
0100
0010
0000
,
1000
0001
0011
0000
,
0100
1000
0100
0000
0010
0100
0010
0000
,
0001
0010
0001
0000
1000
0000
0100
0010
,
0001
0100
0001
0000
0100
0010
0100
0000
,
0010
1000
0010
0000
1000
0000
0001
0000
,
1000
0100
1000
0000
0010
0100
0010
0000
,
0100
0001
0100
0000
0001
0000
0010
0100
,
1000
0010
1000
0000
0001
1000
0001
0000
,
0010
0100
1100
0000
,
1000
0001
1000
0000
0001
0100
0001
0000
,
0100
0010
0100
0000
0001
0000
1000
0100
,
0010
0000
0010
0001
1000
0000
0100
0000
,
0010
0000
0010
0000
0010
0100
0001
0000
,
2002
0000
0000
3003
,
1100
0000
0000
2000
0002
0000
0000
0000
,
0000
0000
0000
0000
,
3003
0000
0000
0000
;

//---------------dance-single - ----------------
#NOTES:
     dance-single:
     :
     Hard:
     13:
     0.757,0.744,0.655,0.242,0.157:
0000
0000
0000
0000
,
0000
0000
0000
0000
,
0000
0000
0000
0000
,
0000
0000
0000
0000
,
1000
0100
0010
0001
1000
0100
0010
0001
,
1000
0010
0100
0001
0010
0000
0110
0000
,
0100
1000
1000
0010
0100
0001
0001
1000
,
0100
0000
0010
0000
0100
0000
1000
0000
0001
0000
0000
0001
1000
0000
0010
0000
,
0100
0001
0010
1000
0001
1000
0010
0001
,
1000
0001
0100
1000
0100
0000
0101
0000
,
0001
1000
0100
0001
1000
0001
0100
1000
,
1001
0110
2002
3003
,
0001
0010
1000
0001
1000
0010
0001
1000
,
0100
0001
0100
1000
0010
0000
0100
0001
,
1001
0000
0001
0100
0110
0000
0010
1000
,
1001
0110
2002
3003
,
0002
0000
0000
0103
0010
0100
0001
0001
,
0000
1000
1000
0100
0020
0000
0000
0031
,
1000
0000
0000
0100
0000
0000
0001
0000
0100
0000
1000
0000
0001
0000
0100
0000
,
0001
0101
2002
3003
,
2000
0000
0000
3100
0010
0001
0100
0100
,
0000
0001
0001
1000
0100
0000
0010
0000
,
0011
0000
0001
0100
0010
1000
0100
0001
,
0100
1000
1100
0011
,
1002
0000
0000
1003
0001
0010
1000
0010
,
0000
0001
0010
0100
2000
0000
0000
3001
,
1000
0100
0010
0000
0001
0100
1000
0100
,
0001
0010
0100
0000
1010
0000
0101
0000
,
2001
0000
0000
3001
1000
0010
0001
0010
,
1000
0000
1010
0000
0100
0001
0010
0100
,
2100
3001
0012
1003
,
0001
0010
0100
1000
0001
0010
0100
1000
,
0010
0000
0010
0000
,
0110
0000
0110
0000
0110
0000
0100
0010
,
1001
0000
0000
0000
1001
0000
0000
0001
0100
0000
0001
0000
1000
0000
0100
0000
,
0010
0000
0100
0000
1000
0000
0001
0000
0100
0000
0000
0100
0010
0000
1000
0000
,
0010
0000
0010
0000
,
0110
0000
0110
0000
0110
0000
0100
0010
,
1001
0000
0000
0000
1001
0000
0000
1000
0010
0000
1000
0000
0001
0000
0010
0000
,
0100
0000
0010
0000
0001
0000
1000
0000
0010
0000
0000
0010
0100
0000
0001
0000
,
1001
0000
0000
0000
1001
0000
0000
1000
0001
0000
0010
0000
0100
0000
0010
0000
,
0001
1000
0000
1000
0010
0000
1010
0000
,
1001
0000
0000
0000
1001
0000
0000
0001
1000
0000
0100
0000
1000
0000
0010
0000
,
0100
0001
0010
1000
0010
0000
0011
0000
,
1001
0000
1001
0000
0001
0100
1000
0000
,
1001
0000
1001
0000
1000
0100
0001
0000
,
0110
0110
1100
0011
,
2002
0000
0000
0000
3003
0000
0001
1000
,
0010
0000
0010
0000
1000
0100
0010
0000
0001
0000
0001
0000
0100
0000
0000
0000
,
0010
0000
0010
0000
1000
0100
0010
0000
0001
0000
0001
0000
0100
0000
0000
0000
,
0010
0000
0010
0000
1000
0100
0010
0000
0001
0000
0001
0000
0100
0010
0100
0000
,
0001
0101
1010
1001
,
1002
0000
0000
0000
0000
0000
1003
0100
0010
0000
0100
0000
1000
0000
0001
0000
,
0100
0000
0010
0100
0010
0000
1000
0000
0100
0000
0000
0000
1100
0000
0000
0000
,
1001
0101
1010
1001
,
0001
0000
0000
0100
0000
0000
0001
0000
1000
0000
0000
0000
0100
0000
0010
0000
,
0100
0000
0100
0000
1000
0010
0100
0000
0001
0000
0001
0000
1000
0000
0000
0000
,
0100
0000
0100
0000
1000
0010
0100
0000
0001
0000
0001
0000
1000
0000
0000
0000
,
0100
0000
0100
0000
1000
0010
0100
0000
0001
0000
0001
0000
1000
0100
1000
0000
,
0010
0100
0010
1000
0001
0010
0100
0000
,
2001
0000
0000
3001
0100
1000
0100
0001
,
1000
0000
0100
0010
0100
0000
1000
0000
0001
0000
0000
0000
0000
0000
0000
0000
,
0101
0100
0010
0000
1010
0010
0100
0000
,
1001
0000
0000
0001
0000
0000
0100
0000
0110
0000
0000
0000
0000
0000
0000
0000
,
1000
0010
0001
0010
1000
0100
0001
0100
,
1000
0000
0010
0000
0001
0000
0010
0000
1000
0000
0000
1000
0001
0000
0100
0000
,
0001
0010
1000
0010
0001
0100
1000
0100
,
0101
1010
2002
3003
,
0001
0100
1000
0100
0001
0010
1000
0010
,
0001
0000
0100
0000
1000
0000
0100
0000
0001
0000
0000
0001
1000
0000
0010
0000
,
1000
0100
0001
0100
1000
0010
0001
0010
,
1000
0100
0001
0100
1100
0000
0110
0000
,
0001
0000
1000
0100
1000
0000
0001
0000
0100
0000
0010
0100
0010
0000
0100
0000
,
0001
0000
1000
0100
1000
0000
0001
0000
0010
0000
0000
0010
0100
0000
1000
0000
,
0001
0000
1000
0010
1000
0000
0001
0000
0010
0000
0100
0010
0100
0000
0010
0000
,
0001
0000
0000
0001
1000
0000
0010
0000
0200
0000
0000
0000
0000
0000
0300
0000
,
0001
0000
1000
0100
1000
0000
0001
0000
0100
0000
0010
0100
0010
0000
0100
0000
,
0001
0000
1000
0100
1000
0000
0001
0000
0010
0000
0000
0010
0100
0000
1000
0000
,
0002
0100
0103
0000
0020
1000
1030
0000
,
1001
0000
1010
0000
0101
0001
1000
0100
,
0220
0000
0000
0330
,
0101
0000
0000
1010
0000
0000
0010
0000
0220
0000
0000
0000
0000
0000
0000
0000
,
0000
0000
0000
0000
,
0330
0000
0000
0000
;

//---------------dance-single - ----------------
#NOTES:
     dance-single:
     :
     Challenge:
     16:
     0.912,0.856,0.448,0.305,0.498: // measure 1
0000
0000
0000
0000
,  // measure 2
0000
0000
0000
0000
,  // measure 3
0000
0000
0000
0000
,  // measure 4
0000
0000
0000
0000
,  // measure 5
1000
1000
0100
0010
0100
0100
0010
0001
,  // measure 6
1000
0000
1000
0000
0010
0000
0100
0000
0010
0000
0000
0010
1000
0000
0001
0000
,  // measure 7
0010
0000
0100
1000
0100
0000
1000
0000
0001
0000
0100
0010
0100
0000
0001
0000
,  // measure 8
0101
0000
0100
0000
0110
0000
0010
0000
1000
0000
0100
0010
0001
0000
0001
0000
,  // measure 9
1000
0000
0010
1000
0001
0000
0001
0000
1000
0000
0010
1000
0001
0000
0001
0000
,  // measure 10
1000
0000
0010
1000
0001
0000
0001
0000
0100
0000
0000
0100
0010
0000
1000
0000
,  // measure 11
0100
0000
0010
0001
1000
0000
1000
0000
0100
0000
0010
0001
1000
0000
1000
0000
,  // measure 12
1010
0000
0000
0010
0100
0000
0001
0000
1001
0000
0000
1000
0001
0000
1000
0000
,  // measure 13
0001
0000
0010
0001
1000
0000
1000
0000
0001
0000
0010
0001
1000
0000
1000
0000
,  // measure 14
0001
0000
0010
0001
1000
0000
1000
0000
0100
0000
0000
0100
0010
0000
0001
0000
,  // measure 15
2000
0010
3010
0100
0002
0010
0013
0100
,  // measure 16
1000
0000
0001
0100
0010
0000
0100
0000
0001
0000
0000
0001
1000
0000
0100
0000
,  // measure 17
0020
0000
0000
0000
0000
0000
0130
1000
0001
0000
0100
0000
0010
0000
2000
0000
,  // measure 18
0000
0000
3100
0000
0010
0000
0001
0000
0200
0000
0000
0000
0000
0000
0310
1000
,  // measure 19
0100
0000
0010
0001
0010
0000
0100
0000
1000
0000
0001
0000
0100
0000
0001
0000
,  // measure 20
1000
0000
0000
0010
0100
0000
0001
0000
0200
0000
0010
0000
0310
0000
1000
0000
,  // measure 21
0200
0000
0000
0000
0000
0000
0310
0100
1000
0000
0001
0000
0100
0000
0002
0000
,  // measure 22
0000
1003
0100
0010
0100
1000
0010
0000
,  // measure 23
0200
0000
0301
1000
0010
0001
0010
1000
,  // measure 24
0100
0000
0010
0000
0100
0000
1000
0000
1001
0000
0000
0001
1000
0000
0010
0000
,  // measure 25
0120
0000
0000
0000
0000
0000
0130
0001
1000
0000
0010
0000
0100
0000
0020
0000
,  // measure 26
0000
0000
1030
0000
0001
0000
0010
0000
0200
0000
0000
0000
0000
0000
0310
0001
,  // measure 27
0100
0000
0010
0100
0010
0000
1000
0000
0100
0010
0001
0000
1000
0000
0010
0000
,  // measure 28
1000
0000
0010
0100
0001
0000
1000
0000
0200
0000
0010
0000
0310
0000
0001
0000
,  // measure 29
2000
0000
0000
0000
0000
0000
3100
0010
0001
0000
0100
0000
0010
0000
0100
0000
,  // measure 30
0101
0000
0110
0000
1010
0010
1000
0100
,  // measure 31
0020
0001
0031
0100
0020
0100
0130
0001
,  // measure 32
1000
0000
0100
1000
0100
0000
0010
0100
0010
0000
0001
0100
0001
0000
0100
0000
,  // measure 33
0110
0000
0110
0000
,  // measure 34
1001
0000
1001
0000
1001
0000
0001
1000
,  // measure 35
1100
0000
0000
0000
1100
0000
0000
0100
0010
0000
0010
0000
0001
0000
0001
0000
,  // measure 36
1000
0000
0100
0010
0001
0000
1000
0000
0010
0000
0000
0010
0100
0000
0001
0000
,  // measure 37
1001
0000
1001
0000
,  // measure 38
0110
0000
0110
0000
0110
0000
1000
0001
,  // measure 39
0101
0000
0000
0000
0101
0000
0000
0100
0010
0000
0010
0000
1000
0000
1000
0000
,  // measure 40
0001
0000
1000
0010
0100
0000
0001
0000
1000
0000
0000
1000
0001
0000
0010
0000
,  // measure 41
0011
0000
0000
0000
0011
0000
0000
0010
0100
0000
1000
0000
0100
0000
0001
0000
,  // measure 42
0200
1000
0000
1300
0020
0000
0130
0001
,  // measure 43
1001
0000
0000
0000
1001
0000
0000
1000
0001
0000
0001
0000
0100
0000
0100
0000
,  // measure 44
0010
0000
1000
0100
0010
0000
0100
0000
1000
0000
0000
0010
0100
0000
0001
0000
,  // measure 45
0020
0100
0130
0000
2000
0100
3100
0000
,  // measure 46
0020
0001
0031
0000
0200
0010
0310
0000
,  // measure 47
1001
1001
0101
1010
,  // measure 48
0220
0000
0000
0000
0330
0000
0010
0100
,  // measure 49
1000
0000
1000
0000
0100
0010
0001
0010
0100
0000
1000
0000
1010
0000
0000
0000
,  // measure 50
0100
0000
0100
0000
0010
0001
1000
0100
0010
0000
0001
0000
0101
0000
0000
0000
,  // measure 51
0100
0000
0100
0000
0010
1000
0100
0010
0100
0000
1000
0000
0010
0100
0001
0100
,  // measure 52
0010
0000
0100
0000
0001
0000
1000
0000
0100
0000
0000
0010
0100
0000
1000
0000
,  // measure 53
0002
0000
0000
0000
0103
0000
0010
1000
0001
0000
0010
0100
1000
0000
0001
0000
,  // measure 54
0100
0000
0010
0100
0001
0000
0010
0000
0100
0000
1000
0000
1010
0000
0000
0010
,  // measure 55
0100
0000
0000
0100
0001
0000
0000
0001
2000
0000
0000
0000
3010
0000
0100
0001
,  // measure 56
0010
0000
0000
0100
0000
0000
1000
0000
1001
0000
0000
0000
0010
0000
0100
0000
,  // measure 57
0001
0000
0001
0000
0010
0100
1000
0100
0010
0000
0001
0000
0101
0000
0000
0000
,  // measure 58
0010
0000
0010
0000
0100
1000
0001
1000
0100
0000
0010
0000
0011
0000
0000
0000
,  // measure 59
0100
0000
0100
0000
1000
0001
0100
0001
1000
0000
0100
0000
0010
0001
0100
0010
,  // measure 60
1000
0000
1000
0000
0001
0000
0001
0000
0010
0000
0100
1000
0001
0000
0100
0000
,  // measure 61
0002
0000
0000
0000
1003
0000
0010
1000
0010
0100
0001
0100
0001
0000
1000
0000
,  // measure 62
0100
0000
0010
0001
1000
0000
0010
0000
0100
0000
0000
0001
1000
0000
0100
0000
,  // measure 63
0010
0000
0001
0100
0001
0000
0000
0000
1000
0000
0100
0000
0010
0000
0001
0000
,  // measure 64
0101
0000
0000
0101
0000
0000
0101
0000
1001
0000
0000
0000
1000
0000
0001
0000
,  // measure 65
0010
0000
0100
1000
0001
0000
0001
0000
0010
0000
0100
1000
0001
0000
0001
0000
,  // measure 66
0010
0000
0100
1000
0001
0000
0001
0000
0100
0000
0000
0100
0010
0000
1000
0000
,  // measure 67
0001
0000
0100
0001
1000
0000
1000
0000
0001
0000
0100
0001
1000
0000
0100
0000
,  // measure 68
0010
0000
0000
0010
0001
0000
0100
0000
0220
0000
0000
0000
0330
0000
0000
0000
,  // measure 69
1000
0000
0100
0010
0001
0000
0001
0000
1000
0000
0100
0010
0001
0000
0001
0000
,  // measure 70
1000
0000
0100
0010
0001
0000
0001
0000
0100
0000
0000
0100
0010
0000
1000
0000
,  // measure 71
0100
0000
0010
0001
1000
0000
1000
0000
0100
0000
0010
0001
1000
0000
1000
0000
,  // measure 72
0100
0000
0010
0001
1000
0000
0100
0000
0010
0000
0100
1000
0001
0000
0100
0000
,  // measure 73
0001
0000
1000
0010
0100
0000
0100
0000
0001
0000
1000
0010
0100
0000
0100
0000
,  // measure 74
0001
0000
1000
0010
0100
0000
0100
0000
0001
0000
0000
0001
1000
0000
0100
0000
,  // measure 75
0010
0000
0001
1000
0100
0000
0100
0000
0010
0000
0001
1000
0100
0000
0100
0000
,  // measure 76
0010
0000
0000
0010
0001
0000
1000
0000
0020
0000
0000
0000
0130
0000
0001
0000
,  // measure 77
0010
0000
0100
1000
0001
0000
0001
0000
0010
0000
0100
1000
0001
0000
0001
0000
,  // measure 78
0010
0000
0100
1000
0001
0000
0001
0000
0100
0000
0000
0100
0010
0000
1000
0000
,  // measure 79
0020
0100
0130
0000
0002
0100
0103
0000
,  // measure 80
1001
0000
1000
0000
1010
0000
0010
0000
0110
0000
0001
0010
0100
0000
1000
0000
,  // measure 81
0010
0100
0010
0100
0010
0100
0010
0100
0010
0100
0010
0100
0010
0100
0010
0000
,  // measure 82
1001
0000
0000
0101
0000
0000
0110
0000
2200
0000
0000
0000
0000
0000
0000
0000
,  // measure 83
0000
0000
0000
0000
,  // measure 84
3300
0000
0000
0000
;

//---------------dance-single - ----------------
#NOTES:
     dance-single:
     :
     Beginner:
     3:
     0.138,0.219,0.152,0.000,0.000:
0000
0000
0000
0000
,
0000
0000
0000
0000
,
0000
0000
0000
0000
,
0000
0000
0000
0000
,
1000
0000
0001
0000
,
1000
0000
0001
0000
,
1000
0000
1000
0000
,
0001
0000
0000
0000
,
0010
0000
0100
0000
,
0010
0000
0000
0000
,
0001
0000
0100
0000
,
0001
0000
0000
0000
,
0010
0000
0100
0000
,
0010
0000
0000
0000
,
0001
0000
0001
0000
,
1000
0000
0000
0000
,
1001
0000
0000
0000
,
0000
0000
0000
0000
,
0001
0000
0000
0000
,
0000
0000
0000
0000
,
0100
0000
0000
0000
,
0000
0000
0000
0000
,
0010
0000
0000
0000
,
1000
0000
0000
0000
,
1001
0000
0000
0000
,
0000
0000
0000
0000
,
0001
0000
0000
0000
,
1000
0000
0000
0000
,
0100
0000
0000
0000
,
0010
0000
0000
0000
,
0100
0000
0010
0000
,
0001
0000
0000
0000
,
1001
0000
0000
0000
,
0000
0000
0000
0000
,
1001
0000
1000
0000
,
1000
0000
0000
0000
,
1001
0000
0000
0000
,
0000
0000
0000
0000
,
1001
0000
0001
0000
,
0001
0000
0000
0000
,
0010
0000
0100
0000
,
0010
0000
0000
0000
,
0001
0000
1000
0000
,
0001
0000
0000
0000
,
1000
0000
0000
0000
,
0010
0000
0000
0000
,
0100
0000
0000
0000
,
1001
0000
0000
0000
,
1001
0000
0000
0000
,
1001
0000
0000
0000
,
1001
0000
0001
0000
,
1000
0000
0000
0000
,
1001
0000
0000
0000
,
0001
0000
0000
0000
,
0100
0000
0000
0000
,
0010
0000
0000
0000
,
1001
0000
0000
0000
,
1001
0000
0000
0000
,
1001
0000
0001
0000
,
1000
0000
0000
0000
,
1001
0000
0000
0000
,
0100
0000
0000
0000
,
0010
0000
0010
0000
,
0010
0000
0000
0000
,
1000
0000
0000
0000
,
0100
0000
0000
0000
,
0010
0000
0000
0000
,
0100
0000
0000
0000
,
1000
0000
0000
0000
,
0001
0000
0000
0000
,
0100
0000
0000
0000
,
0001
0000
0000
0000
,
1000
0000
0001
0000
,
1000
0000
0000
0000
,
0001
0000
0100
0000
,
0001
0000
0000
0000
,
1000
0000
0010
0000
,
1000
0000
0000
0000
,
0001
0000
0001
0000
,
1000
0000
0000
0000
,
1001
0000
0000
0000
,
0000
0000
0110
0000
;
