#TITLE:A MINSTREL;
#SUBTITLE:~ver.short-scape~;
#ARTIST:KANTASIA by S.S.D. PRODUCTS;
#TITLETRANSLIT:;
#SUBTITLETRANSLIT:~ver.short-scape~;
#ARTISTTRANSLIT:;
#CREDIT:DigiMindAxel;
#BANNER:A MINSTREL ~ver.short-scape~.png;
#BACKGROUND:A MINSTREL ~ver.short-scape~-bg.png;
#LYRICSPATH:A MINSTREL ~ver.short-scape~.lrc;
#CDTITLE:beatmania IIDX.png;
#MUSIC:A MINSTREL ~ver.short-scape~.ogg;
#METERTYPE:DDR X;
#OFFSET:-7.217;
#SAMPLESTART:75.872;
#SAMPLELENGTH:12.000;
#SELECTABLE:YES;
#BPMS:0.000=114.000;
#STOPS:;
#BGCHANGES:;

//---------------dance-single - ----------------
#NOTES:
     dance-single:
     :
     Easy:
     3:
     0.135,0.193,0.097,0.048,0.000:
1000
0000
0000
0100
,
0000
0000
1000
0000
,
0000
0002
0000
0000
,
1003
0000
0000
0010
,
0000
0000
0100
0000
,
0000
0001
0000
0000
,
0010
0000
0000
0100
,
0000
0000
1000
0000
,
0000
0001
0000
0000
,
1001
0000
0000
1000
,
0000
0000
1000
0000
,
0000
1000
0000
0000
,
0001
0000
0000
0001
,
0000
0000
0001
0000
,
0000
0001
0000
0000
,
0110
0000
0000
0100
,
0000
0000
0010
0000
,
0000
0100
0000
0000
,
0001
0000
0000
1000
,
0000
0000
0100
0000
,
0000
0010
0000
0000
,
1001
0000
0000
0001
0000
0000
1000
0000
,
0000
0000
0000
0000
0100
0000
0000
1000
,
0000
0100
0000
0000
,
0010
0000
0000
0100
0000
0000
0010
0000
,
0000
0000
0000
0000
0001
0000
0000
0010
,
0000
0001
0000
0000
,
0100
0000
0000
0010
,
0000
0000
0100
0000
,
0000
0010
0000
0000
,
1000
0000
0000
0010
0000
0000
1000
0000
,
0000
0001
0000
0000
0020
0000
0000
0000
,
0000
0000
0000
0000
0000
0030
0000
0000
,
0110
0100
0100
0010
,
0000
0000
1000
1000
,
1000
0001
0000
0000
,
0010
0010
0100
0000
,
1000
0000
1000
0000
0100
0000
0000
0010
,
0000
0001
0000
0000
,
0100
0100
0001
0010
,
0000
0100
0000
0000
1000
0000
1000
0000
,
0001
0000
0010
0000
0000
0100
0000
0000
,
0000
1000
1000
0010
,
0000
0100
0000
0000
0002
0000
0000
0000
,
0000
1003
0000
0000
,
1001
0000
0010
0110
,
0000
1000
1001
0000
,
0010
0110
0000
0000
,
1001
0000
0010
0110
,
0000
0001
1001
0000
,
0010
0110
0000
0000
,
2000
0000
0000
3200
,
0000
0000
0320
0000
,
0000
0031
0000
0000
;

//---------------dance-single - ----------------
#NOTES:
     dance-single:
     :
     Medium:
     7:
     0.266,0.300,0.024,0.048,0.060:
0010
0000
0100
0001
,
0000
0010
0100
0000
,
1000
0020
0000
0000
,
0130
0000
0001
0010
0100
1000
0001
0000
,
0000
0001
0000
0000
1000
0100
0010
0001
,
0000
1000
0000
0000
,
0000
0100
1000
0010
0100
0001
0010
0000
,
0000
0010
0000
0000
0001
0010
0100
1000
,
0000
0010
0000
0000
,
0110
0000
0100
0100
0000
0000
0000
0000
,
0001
0001
0000
0000
0000
0000
1000
1000
,
0000
0000
0100
0010
0100
0100
0000
0000
,
0000
0000
1000
1000
0000
0000
0000
0000
,
0001
0001
0000
0000
0000
0100
0001
0100
,
0001
1000
0100
0000
0000
0000
0000
0000
,
1001
0000
0001
0001
0000
0000
0000
0000
,
1000
1000
0000
0000
0000
0000
0010
0010
,
0000
0000
0100
0010
0100
0100
0000
0000
,
0000
0000
0001
0001
0000
0000
0000
0000
,
1000
1000
0000
0000
0000
0010
0100
0000
,
0010
0100
0001
0010
0100
1000
0000
0000
,
1001
0000
0000
0001
0000
0000
0000
0000
0000
0000
0000
0000
0010
0000
0100
0000
,
1000
0000
0010
0000
0000
0000
0000
0000
0100
0000
0000
0100
0000
0000
0000
0000
,
0000
0000
0001
0010
0100
0010
0000
0000
,
0001
0000
0000
0001
0000
0000
0000
0000
0000
0000
0000
0000
1000
0000
0100
0000
,
0010
0000
0100
0000
0000
0000
0000
0000
1000
0000
0000
1000
0000
0000
0000
0000
,
0001
0010
0100
1000
0001
0010
0000
0000
,
0001
0000
1000
0100
0000
0010
0100
0010
,
0100
0010
0000
0000
0001
0000
0100
0001
,
0000
0010
0200
0000
0000
0300
0000
0000
,
1000
0000
0000
0001
0000
0000
0100
0000
0000
0000
0000
0000
0001
0000
0000
0000
,
1000
0100
0010
0001
2000
0000
0000
0000
,
0000
0000
0000
0000
0000
3001
0000
0000
,
0100
0000
0000
0100
0000
0000
0100
0000
0000
0000
0000
0000
0001
0000
0010
0000
,
0100
0000
1000
0000
0000
0000
0000
0000
0010
0000
0000
0010
0000
0000
0010
0000
,
0000
0000
1000
0100
0010
0100
0000
0000
,
0000
0000
1000
0001
1000
0100
0000
0000
,
0010
0001
0010
0001
0100
0000
0000
0010
,
0000
0000
2000
0000
0000
3000
0000
0000
,
0001
0000
0000
0001
0000
0000
0001
0000
0000
0000
0000
0000
0010
0000
0001
0000
,
0010
0000
0100
0000
0000
0000
0000
0000
1000
0000
0000
1000
0000
0000
1000
0000
,
0000
0000
0100
0010
0001
0100
0000
0000
,
0000
0000
0001
0010
0100
1000
0001
0000
,
0100
0001
0000
1000
0200
0000
0000
0000
,
0000
1300
0000
0000
,
0010
0000
0000
0010
0000
0000
1000
0000
0100
0000
0010
0000
0001
0000
0000
0001
,
0000
0000
1000
0000
0100
0000
1000
0000
0010
0000
0000
0010
0000
0000
0100
0000
,
0001
0010
0100
0000
0000
0000
0000
0000
,
1000
0000
0000
1000
0000
0000
0010
0000
0100
0000
0001
0000
0010
0000
0000
0010
,
0000
0000
0100
0000
1000
0000
0010
0000
0100
0000
0000
0100
0000
0000
0001
0000
,
0010
0100
1000
0000
0000
0000
0020
0000
,
0130
0000
0001
0100
1000
0100
0001
0000
,
1000
0010
0001
0010
1000
0000
0001
0010
,
1000
0010
0001
0000
0000
0000
0000
0000
;

//---------------dance-single - ----------------
#NOTES:
     dance-single:
     :
     Hard:
     10:
     0.483,0.429,0.129,0.072,0.274: // measure 1
1000
0000
0000
1000
0000
0000
0001
0000
0010
0000
0100
0000
0010
0000
0000
0010
,  // measure 2
0000
0000
0001
0000
1000
0000
0100
0000
0010
0000
0000
0010
0000
0000
0001
0000
,  // measure 3
0100
0010
2000
0000
0000
3001
1000
0100
,  // measure 4
1000
0000
0010
0100
0001
0000
0001
0000
0100
0000
0100
0000
0010
0000
1000
0000
,  // measure 5
0100
0000
0010
0000
0000
0000
0001
0010
0100
0000
0100
0000
1000
0000
1000
0000
,  // measure 6
0010
0000
0001
0000
0010
0000
1000
0001
1000
0001
1000
0000
0001
0100
0001
0000
,  // measure 7
1000
0000
0010
0100
0001
0000
0001
0000
0100
0000
0100
0000
0001
0000
0010
0000
,  // measure 8
0100
0000
1000
0000
0000
0000
0100
0010
0001
0000
0001
0000
0100
0000
0200
0000
,  // measure 9
0000
0000
0301
0000
1000
0000
0100
0010
0100
0010
0002
0000
1000
0000
1000
0000
,  // measure 10
1003
0000
0000
0001
0100
0000
0001
0000
1000
0000
1000
0000
0000
0000
0000
0001
,  // measure 11
1000
0000
0100
0000
0010
0000
0010
0000
0000
0000
0000
0001
0100
0000
0010
0000
,  // measure 12
1000
1000
0100
0010
0001
0001
0000
0000
,  // measure 13
0000
0000
0000
1000
0100
0000
1000
0000
0010
0000
0010
0000
0100
0000
0001
0000
,  // measure 14
0010
0100
0000
1000
0001
1000
0001
0100
,  // measure 15
1000
0100
0001
1000
0010
0100
0010
0100
,  // measure 16
1001
0000
0000
0001
1000
0000
0010
0000
0100
0000
0100
0000
0000
0000
0000
0001
,  // measure 17
0100
0000
0010
0000
1000
0000
1000
0000
0000
0000
0000
0100
0010
0000
0001
0000
,  // measure 18
0100
0100
0001
1000
0001
0001
0000
0000
,  // measure 19
0000
0000
0000
1000
0010
0000
1000
0000
0001
0000
0001
0000
0010
0000
0100
0000
,  // measure 20
1000
0000
0010
0000
0000
0000
0100
0000
0010
0000
0000
1000
0001
0000
0010
0000
,  // measure 21
1000
0010
0001
1000
0001
0100
0000
0010
,  // measure 22
0100
0001
0000
0100
0001
0000
1000
0000
0100
0000
0001
0000
0100
0000
1000
0000
,  // measure 23
0010
0000
1000
0000
0000
0000
0100
0000
1000
0010
0000
1000
0010
0000
0100
0000
,  // measure 24
0001
0010
1000
0010
0001
1000
0000
0001
,  // measure 25
0010
0100
0000
0010
0100
0000
1000
0000
0001
0000
0010
0000
1000
0000
0010
0000
,  // measure 26
0001
0000
1000
0000
0000
0000
0100
0000
1000
0001
0000
1000
0001
0000
1000
0000
,  // measure 27
0010
0001
0010
1000
0100
0010
0000
0001
,  // measure 28
0001
0000
0000
0001
1000
0000
0100
0000
0000
0000
0100
0000
1000
0000
1000
0000
,  // measure 29
0001
0000
0001
0000
0000
0000
0010
0100
0010
0000
0000
1000
0000
1000
0001
0000
,  // measure 30
0010
0000
0100
0000
2000
0000
0000
0000
0000
0000
3000
0000
0000
0000
0001
0100
,  // measure 31
0001
0000
1000
0010
0000
0010
0100
0000
0000
0000
0001
1000
0100
0000
0000
0000
,  // measure 32
0100
0000
1000
0000
0010
0000
0001
0000
0020
0000
0000
1000
0000
0000
1000
0000
,  // measure 33
1000
1030
0100
0010
0001
0110
0000
0000
,  // measure 34
0100
0001
0000
0100
0000
0001
1000
0000
0010
0000
0001
0000
0010
0000
1000
0000
,  // measure 35
0001
0000
0100
0000
0000
0000
0010
0000
1000
0100
0000
1000
0000
0010
0100
0000
,  // measure 36
0001
0100
1000
0100
0001
0010
0001
0100
,  // measure 37
0010
0000
0000
0100
0001
0000
0010
0000
0100
0000
1000
0000
0010
0000
0000
0100
,  // measure 38
0001
0000
0010
0000
0100
0000
1000
0000
0010
0000
0000
0010
0100
0000
0100
0000
,  // measure 39
0001
0000
0010
0000
0100
0000
0000
1100
0000
0000
1001
0000
0000
0000
0000
0000
,  // measure 40
0001
1000
0000
0100
0000
1000
0010
0000
0100
0000
0001
0000
0010
0000
1000
0000
,  // measure 41
0010
0000
0001
0000
0000
0000
1000
0000
0100
0010
0000
0001
0000
0010
0100
0000
,  // measure 42
1000
0010
0001
0010
1000
0001
1000
0100
,  // measure 43
1000
0000
0000
0001
1000
0000
0010
0000
0100
0000
0001
0000
1000
0000
0000
0000
,  // measure 44
0100
0000
0010
0000
0001
0000
0010
0000
0200
0000
0000
1000
0000
0000
1300
0000
,  // measure 45
0000
0000
0010
0100
0020
0000
0000
0000
0100
0000
0100
0000
0000
0000
0100
0000
,  // measure 46
0130
0000
0000
1001
0000
0000
0001
0000
0100
0000
0010
0000
1010
0000
0000
1001
,  // measure 47
0000
0000
1000
0000
0100
0000
0010
0000
0011
0000
0000
1001
0000
0000
0001
0000
,  // measure 48
0100
0000
0010
0000
0200
0000
0000
0001
0000
0000
0001
0000
0001
0000
0301
0000
,  // measure 49
0110
0000
0000
1001
0000
0000
1000
0000
0001
0000
0010
0000
1100
0000
0000
1001
,  // measure 50
0000
0000
1000
0000
0010
0000
0100
0000
0101
0000
0000
1001
0000
0000
0001
0000
,  // measure 51
1000
0000
0100
0000
0020
0000
0000
0001
0000
0000
0031
0000
1000
0000
0100
0000
,  // measure 52
0010
0000
0000
0001
1000
0000
0100
0000
0010
0000
0100
0000
1000
0000
0000
0010
,  // measure 53
0100
0000
0001
0000
0010
0000
0001
0000
0100
0000
0000
0001
1000
0000
0100
0000
,  // measure 54
0010
0001
1010
0000
0000
0000
0000
0000
;

//---------------dance-double - ----------------
#NOTES:
     dance-double:
     :
     Easy:
     3:
     0.136,0.150,0.056,0.056,0.000:
10000000
00000000
00000000
00010000
,
00000000
00000000
10000000
00000000
,
00000000
00200000
00000000
00000000
,
01300000
00000000
00000000
00001000
,
00000000
00000000
00010000
00000000
,
00000000
00001000
00000000
00000000
,
00010000
00000000
00000000
00000100
,
00000000
00000000
00000010
00000000
,
00000000
00000001
00000000
00000000
,
00001001
00000000
00000000
00001000
,
00000000
00000000
00001000
00000000
,
00000000
00001000
00000000
00000000
,
00000100
00000000
00000000
00000100
,
00000000
00000000
00000100
00000000
,
00000000
00000100
00000000
00000000
,
00011000
00000000
00000000
00010000
,
00000000
00000000
00001000
00000000
,
00000000
00010000
00000000
00000000
,
00100000
00000000
00000000
01000000
,
00000000
00000000
10000000
00000000
,
00000000
00100000
00000000
00000000
,
01100000
00000000
00000000
01000000
00000000
00000000
00100000
00000000
,
00000000
00000000
00000000
00000000
10000000
00000000
00000000
01000000
,
00000000
10000000
00000000
00000000
,
00001000
00000000
00000000
00010000
00000000
00000000
00001000
00000000
,
00000000
00000000
00000000
00000000
00010000
00000000
00000000
00000010
,
00000000
00010000
00000000
00000000
,
00000200
00000000
00000000
00000300
00000000
00000000
00000020
00000000
,
00000000
00000030
00000000
00000000
00000002
00000000
00000000
00000003
,
00000000
00000000
00002000
00000000
00000000
00003000
00000000
00000000
,
00000001
00000000
00000000
00000010
00000000
00000000
00001000
00000000
,
00000000
00000100
00000000
00000000
00020000
00000000
00000000
00000000
,
00000000
00000000
00000000
00000000
00000000
00031000
00000000
00000000
,
01100000
01000000
00100000
10000000
,
00000000
00000000
00100000
01000000
,
00010000
00100000
00000000
00000000
,
00001000
00000100
00000010
00000000
,
00000100
00000000
00000010
00000000
00000001
00000000
00000000
00001000
,
00000000
00000001
00000000
00000000
,
00000010
00000001
00000100
00000010
,
00000000
00010000
00000000
00000000
00001000
00000000
01000000
00000000
,
00100000
00000000
10000000
00000000
00000000
01000000
00000000
00000000
,
00000000
10000000
01000000
00100000
,
00000000
00001000
00000000
00000000
00020000
00000000
00000000
00000000
,
00000000
00031000
00000000
00000000
,
00000110
00000000
00000001
00000010
,
00000000
00000100
00010000
00000000
,
00001000
01000000
00000000
00000000
,
01100000
00000000
10000000
01000000
,
00000000
00100000
00001000
00000000
,
00010000
00000010
00000000
00000100
,
00000001
00000010
00000000
00000100
,
00010000
00000000
00001000
01000000
,
00000000
01100000
00000000
00000000
;

//---------------dance-double - ----------------
#NOTES:
     dance-double:
     :
     Medium:
     7:
     0.270,0.300,0.032,0.040,0.060:
10000000
00000000
01000000
00100000
,
00000000
00001000
00010000
00000000
,
00000100
00000020
00000000
00000000
,
00000031
00000000
00001000
00000100
00000010
00000100
00001000
00000000
,
00000000
00000100
00000000
00000000
00010000
00001000
01000000
00100000
,
01000000
00100000
01000000
00000000
00000000
00000000
00000000
00000000
,
00000000
00010000
00100000
01000000
00100000
00010000
10000000
00000000
,
00000000
10000000
00000000
00000000
00100000
01000000
00010000
00100000
,
00001000
00010000
00001000
00000000
00000000
00000000
00000000
00000000
,
00000110
00000000
00000100
00000100
00000000
00000000
00000000
00000000
,
00000001
00000001
00000000
00000000
00000000
00000000
00000010
00000010
,
00000000
00000000
00000100
00001000
00010000
00010000
00000000
00000000
,
00000000
00000000
01000000
01000000
00000000
00000000
00000000
00000000
,
00100000
00100000
00000000
00000000
00000000
10000000
00100000
10000000
,
00100000
01000000
00001000
00000000
00000000
00000000
00000000
00000000
,
00011000
00000000
00010000
00010000
00000000
00000000
00000000
00000000
,
00000010
00000010
00000000
00000000
00000000
00000000
00000100
00000100
,
00000000
00000000
00000001
00001000
00000001
00000001
00000000
00000000
,
00000000
00000000
00000010
00000010
00000000
00000000
00000000
00000000
,
00000100
00000100
00000000
00000000
00000000
00010000
00001000
00000000
,
00010000
00001000
00100000
01000000
10000000
00100000
00000000
00000000
,
01100000
00000000
00000000
00100000
00000000
00000000
00000000
00000000
00000000
00000000
00000000
00000000
10000000
00000000
01000000
00000000
,
00100000
00000000
00010000
00000000
00000000
00000000
00000000
00000000
00001000
00000000
00000000
00001000
00000000
00000000
00000000
00000000
,
00000000
00000000
00000010
00000100
00000001
00000100
00000000
00000000
,
00000010
00000000
00000000
00000010
00000000
00000000
00000000
00000000
00000000
00000000
00000000
00000000
00010000
00000000
00001000
00000000
,
00100000
00000000
01000000
00000000
00000000
00000000
00000000
00000000
10000000
00000000
00000000
10000000
00000000
00000000
00000000
00000000
,
01000000
00100000
00010000
00100000
01000000
10000000
00000000
00000000
,
00100000
00000000
01000000
00001000
00000000
00010000
00001000
00010000
,
00001000
00010000
00000000
00000000
00000100
00000000
00000010
00000001
,
00000000
00000100
00000020
00000000
00000000
00000030
00000000
00000000
,
00010000
00000000
00000000
00001000
00000000
00000000
00010000
00000000
00000000
00000000
00000000
00000000
00001000
00000000
00000000
00000000
,
00100000
01000000
10000000
00100000
02000000
00000000
00000000
00000000
,
00000000
00000000
00000000
00000000
00000000
03100000
00000000
00000000
,
10000000
00000000
00000000
00010000
00000000
00000000
10000000
00000000
00000000
00000000
00000000
00000000
01000000
00000000
00100000
00000000
,
00010000
00000000
00001000
00000000
00000000
00000000
00000000
00000000
00000010
00000000
00000000
00000010
00000000
00000000
00000010
00000000
,
00000000
00000000
00000100
00000001
00000010
00000100
00000000
00000000
,
00000000
00000000
00010000
00001000
00100000
01000000
00000000
00000000
,
10000000
00100000
10000000
00100000
01000000
00000000
00000000
00001000
,
00000000
00000000
00020000
00000000
00000000
00030000
00000000
00000000
,
00000010
00000000
00000000
00000100
00000000
00000000
00000010
00000000
00000000
00000000
00000000
00000000
00000100
00000000
00000001
00000000
,
00001000
00000000
00000100
00000000
00000000
00000000
00000000
00000000
00001000
00000000
00000000
00010000
00000000
00000000
00001000
00000000
,
00000000
00000000
00010000
00100000
01000000
10000000
00000000
00000000
,
00000000
00000000
00100000
10000000
01000000
00100000
00001000
00000000
,
00010000
00000010
00000000
00000100
00000002
00000000
00000000
00000000
,
00000000
00001003
00000000
00000000
,
00000001
00000000
00000000
00000001
00000000
00000000
00000010
00000000
00000100
00000000
00001000
00000000
00010000
00000000
00000000
00010000
,
00000000
00000000
01000000
00000000
00100000
00000000
10000000
00000000
00010000
00000000
00000000
00010000
00000000
00000000
00100000
00000000
,
01000000
00100000
00001000
00000000
00000000
00000000
00000000
00000000
,
00010000
00000000
00000000
00010000
00000000
00000000
00000010
00000000
00000100
00000000
00000001
00000000
00001000
00000000
00000000
00001000
,
00000000
00000000
00000100
00000000
00010000
00000000
00001000
00000000
00100000
00000000
00000000
00100000
00000000
00000000
01000000
00000000
,
10000000
00100000
01000000
00000000
00000000
00000000
00010000
00000000
,
10010000
00000000
10000000
01000000
00100000
01000000
10000000
00000000
,
00001000
01000000
00100000
01000000
00001000
00000000
00010000
00000100
,
00000010
00000001
00000100
00000000
00000000
00000000
00000000
00000000
;

//---------------dance-double - ----------------
#NOTES:
     dance-double:
     :
     Hard:
     10:
     0.482,0.429,0.129,0.072,0.274:
10000000
00000000
00000000
10000000
00000000
00000000
01000000
00000000
00100000
00000000
00010000
00000000
00001000
00000000
00000000
00001000
,
00000000
00000000
00000010
00000000
00000100
00000000
00000001
00000000
00000010
00000000
00000000
00000010
00000000
00000000
00000100
00000000
,
00010000
00001000
02000000
00000000
00000000
03100000
01000000
00100000
,
10000000
00000000
00000000
00010000
00100000
00000000
00100000
00000000
00001000
00000000
00001000
00000000
00010000
00000000
00000100
00000000
,
00000010
00000000
00000001
00000000
00000000
00000000
00000100
00000001
00000100
00000000
00000100
00000000
00000010
00000000
00000010
00000000
,
00001000
00000000
00010000
00000000
00100000
00000000
01000000
00100000
01000000
00100000
01000000
00000000
10000000
00010000
10000000
00000000
,
01000000
00000000
00000000
10000000
00010000
00000000
00010000
00000000
01000000
00000000
01000000
00000000
00001000
00000000
00010000
00000000
,
00000100
00000000
00000010
00000000
00000000
00000000
00000001
00000100
00000001
00000000
00000001
00000000
00000010
00000000
00000020
00000000
,
00000000
00000000
00000100
00000000
00000130
00000000
00010000
00001000
00010000
00001000
00200000
00000000
01000000
00000000
01000000
00000000
,
01300000
00000000
00000000
10000000
00010000
00000000
00100000
00000000
00001000
00000000
00010000
00000000
00000000
00000000
00000000
00000100
,
00000010
00000000
00000001
00000000
00000100
00000000
00000001
00000000
00000000
00000000
00000000
00000010
00000100
00000000
00010000
00000000
,
00001000
01000000
00100000
01000000
00001000
00010000
00000000
00000000
,
00000000
00000000
00000000
00000010
00000100
00000000
00000001
00000000
00000010
00000000
00000100
00000000
00000010
00000000
00000001
00000000
,
00010000
00001000
00000000
01000000
00100000
01000000
00010000
10000000
,
01000000
00100000
00001000
00010000
00000100
00000010
00000100
00000100
,
00001001
00000000
00000000
00000001
00000100
00000000
00000001
00000000
00001000
00000000
00000100
00000000
00000000
00000000
00000000
00001000
,
00010000
00000000
01000000
00000000
00100000
00000000
01000000
00000000
00000000
00000000
00000000
00010000
10000000
00000000
00100000
00000000
,
01000000
00010000
00100000
01000000
00100000
00001000
00000000
00000000
,
00000000
00000000
00000000
00010000
00000010
00000000
00000100
00000000
00000001
00000000
00000100
00000000
00000010
00000000
00000100
00000000
,
00000001
00000000
00000010
00000000
00000000
00000000
00000100
00000000
00010000
00000000
00000000
00010000
00001000
00000000
10000000
00000000
,
01000000
10000000
00100000
01000000
00100000
10000000
00000000
01000000
,
00100000
00001000
00000000
00100000
00001000
00000000
00000100
00000000
00000010
00000000
00000001
00000000
00000100
00000000
00000001
00000000
,
00001000
00000000
00000100
00000000
00000000
00000000
00010000
00000000
00001000
01000000
00000000
00001000
01000000
00000000
00100000
00000000
,
10000000
01000000
00100000
00001000
00010000
00000100
00000000
00000010
,
00000001
00000100
00000000
00000001
00000100
00000000
00000010
00000000
00010000
00000000
00000100
00000000
00010000
00000000
00001000
00000000
,
00100000
00000000
01000000
00000000
00000000
00000000
10000000
00000000
01000000
00100000
00000000
01000000
00100000
00000000
00001000
00000000
,
01000000
00001000
00010000
00000100
00000010
00000100
00000000
00001000
,
00001000
00000000
00000000
00000001
00000100
00000000
00000001
00000000
00000000
00000000
00000010
00000000
00000100
00000000
00000100
00000000
,
00010000
00000000
00010000
00000000
00000000
00000000
00001000
00010000
00001000
00000000
00000000
01000000
00000000
01000000
00100000
00000000
,
10000000
00000000
01000000
00000000
00200000
00000000
00000000
00000000
00000000
00000000
00300000
00000000
00000000
00000000
00001000
00010000
,
00001000
00000000
00010000
00000010
00000000
00000010
00000100
00000000
00000000
00000000
00000001
00001000
00000001
00000000
00000000
00000000
,
00000010
00000000
00000100
00000000
00010000
00000000
00001000
00000000
00200000
00000000
00000000
01000000
00000000
00000000
01000000
00000000
,
01000000
01300000
10000000
01000000
00100000
10010000
00000000
00000000
,
00010000
01000000
00000000
00100000
00000000
01000000
00001000
00000000
00010000
00000000
00000100
00000000
00000010
00000000
00000001
00000000
,
00001000
00000000
00000001
00000000
00000000
00000000
00000010
00000000
00000100
00010000
00000000
00001000
00000000
00010000
00001000
00000000
,
01000000
00100000
01000000
00010000
00100000
10000000
00100000
00010000
,
10000000
00000000
00000000
00010000
00100000
00000000
00001000
00000000
00010000
00000000
00000100
00000000
00000010
00000000
00000000
00000001
,
00001000
00000000
00000010
00000000
00010000
00000000
00001000
00000000
00100000
00000000
00000000
00010000
10000000
00000000
01000000
00000000
,
00010000
00000000
01000000
00000000
10000000
00000000
00000000
11000000
00000000
00000000
01100000
00000000
00000000
00000000
00000000
00000000
,
00001000
01000000
00000000
00100000
00000000
01000000
00010000
00000000
00001000
00000000
00000010
00000000
00000100
00000000
00000001
00000000
,
00001000
00000000
00000001
00000000
00000000
00000000
00000100
00000000
00000001
00001000
00000000
00000100
00000000
00001000
00000001
00000000
,
00000010
00000100
00010000
00001000
01000000
00100000
01000000
00010000
,
00001000
00000000
00000000
00100000
01000000
00000000
01000000
00000000
10000000
00000000
00100000
00000000
10000000
00000000
00000000
00000000
,
01000000
00000000
00100000
00000000
00001000
00000000
00010000
00000000
00002000
00000000
00000000
00010000
00000000
00000000
00013000
00000000
,
00000010
00000000
00000100
00000010
00000200
00000000
00000000
00000000
00000001
00000000
00000001
00000000
00000000
00000000
00000001
00000000
,
00000301
00000000
00000000
00001001
00000000
00000000
00000010
00000000
00000100
00000000
00010000
00000000
00011000
00000000
00000000
01100000
,
00000000
00000000
01000000
00000000
00010000
00000000
10000000
00000000
10100000
00000000
00000000
01001000
00000000
00000000
00001000
00000000
,
00010000
00000000
00000100
00000000
00000020
00000000
00000000
00000001
00000000
00000000
00000001
00000000
00000001
00000000
00000031
00000000
,
00000110
00000000
00000000
00010010
00000000
00000000
00001000
00000000
00100000
00000000
01000000
00000000
11000000
00000000
00000000
01100000
,
00000000
00000000
01000000
00000000
00100000
00000000
00001000
00000000
00011000
00000000
00000000
00000110
00000000
00000000
00000100
00000000
,
00000010
00000000
00000001
00000000
00002000
00000000
00000000
00000010
00000000
00000000
00003010
00000000
00010000
00000000
00001000
00000000
,
00010000
00000000
00000000
00001000
10000000
00000000
01000000
00000000
00010000
00000000
01000000
00000000
10000000
00000000
00000000
00100000
,
01000000
00000000
00001000
00000000
00010000
00000000
00000100
00000000
00000010
00000000
00000000
00000001
00001000
00000000
00000010
00000000
,
00000001
00000010
00001001
00000000
00000000
00000000
00000000
00000000
;

//---------------dance-single - ----------------
#NOTES:
     dance-single:
     :
     Beginner:
     1:
     0.071,0.086,0.097,0.000,0.000:
1000
0000
0000
0100
,
0000
0000
1000
0000
,
0000
0001
0000
0000
,
1001
0000
0000
0000
,
0000
0000
0100
0000
,
0000
0000
0000
0000
,
0110
0000
0000
0000
,
0000
0000
0010
0000
,
0000
0000
0000
0000
,
1000
0000
0000
0000
,
0000
0000
0010
0000
,
0000
0000
0000
0000
,
0100
0000
0000
0000
,
0000
0000
0001
0000
,
0000
0000
0000
0000
,
1001
0000
0000
0100
,
0000
0000
1000
0000
,
0000
0000
0000
0000
,
0001
0000
0000
0100
,
0000
0000
0010
0000
,
0000
0000
0000
0000
,
1001
0000
0000
0000
,
0000
0000
1001
0000
,
0000
0000
0000
0000
,
0110
0000
0000
0000
,
0000
0000
0110
0000
,
0000
0000
0000
0000
,
0010
0000
0000
0000
,
0000
0000
0100
0000
,
0000
0000
0000
0000
,
0001
0000
0000
1000
,
0000
0000
0001
0000
,
0000
0000
0000
0000
,
1001
0000
0000
0000
,
0000
0000
0100
0000
,
0000
0000
0000
0000
,
0010
0000
0000
0001
,
0000
0000
0010
0000
,
0000
0000
0000
0000
,
1001
0000
0000
0000
,
0000
0000
0010
0000
,
0000
0000
0000
0000
,
0100
0000
0000
1000
,
0000
0000
0100
0000
,
0000
1000
0000
0000
,
0110
0000
0000
0100
,
0000
0000
0010
0000
,
0000
0100
0000
0000
,
1001
0000
0000
0001
,
0000
0000
1000
0000
,
0000
0001
0000
0000
,
0100
0000
0000
0010
,
0000
0000
0100
0000
,
0000
0110
0000
0000
;
