#TITLE:800nm;
#SUBTITLE:;
#ARTIST:Another Infinity (Ryu☆×Starving Trancer);
#TITLETRANSLIT:;
#SUBTITLETRANSLIT:;
#ARTISTTRANSLIT:;
#CREDIT:DigiMindAxel;
#BANNER:800nm.png;
#BACKGROUND:800nm-bg.png;
#LYRICSPATH:;
#CDTITLE:GuitarFreaksXG & DrumManiaXG.png;
#MUSIC:800nm.ogg;
#METERTYPE:DDR X;
#OFFSET:-5.584;
#SAMPLESTART:17.553;
#SAMPLELENGTH:12.000;
#SELECTABLE:YES;
#BPMS:0.000=180.000;
#STOPS:;
#BGCHANGES:;

//---------------dance-single - ----------------
#NOTES:
     dance-single:
     :
     Easy:
     4:
     0.217,0.270,0.119,0.258,0.000:
2000
0000
0000
0000
,
3002
0000
0000
0000
,
0023
0000
0000
0000
,
0230
0000
0000
0000
,
2300
0000
0000
0000
,
3002
0000
0000
0000
,
0203
0000
0000
0000
,
0320
0000
0000
0030
,
0220
0000
0000
0330
,
1001
0000
1000
0000
,
0001
0000
0010
0000
,
1001
0000
0001
0000
,
1000
0000
0100
0000
,
1001
0000
0001
0000
,
0010
0000
0100
0000
,
1001
0000
1000
0000
,
0200
0000
0000
0000
,
1300
0010
1000
0000
,
0001
0000
0100
0000
,
0010
0100
0010
0000
,
0100
0000
0001
0000
,
1000
0100
1000
0000
,
0100
0000
1000
0000
,
0001
0010
0001
0000
,
1001
0000
0000
0000
,
0002
0000
0000
0000
,
0023
0000
0000
0000
,
0230
0000
0000
0000
,
0000
0000
0300
0000
,
2000
0000
0000
0000
,
3020
0000
0000
0000
,
0230
0000
0000
0000
,
0000
0000
0300
0000
,
0002
0000
0000
0000
,
2003
0000
0000
0000
,
3002
0000
0000
0000
,
0023
0000
0000
0000
,
0230
0000
0000
0000
,
2300
0000
0000
0000
,
3002
0000
0000
0000
,
0200
0000
0000
0000
,
0303
0000
0000
0000
,
0000
0000
0000
0000
,
1001
0000
1000
0000
,
0001
0100
0001
0000
,
1001
0000
0001
0000
,
1000
0100
1000
0000
,
1001
0000
0001
0000
,
1000
0010
1000
0000
,
1001
0000
1000
0000
,
0010
1000
0010
0000
,
0100
0010
0100
0000
,
0010
1000
0100
0000
,
0010
0001
0010
0000
,
0001
0010
0100
0000
,
1000
0001
1000
0001
,
1000
0100
1000
0000
,
0001
1000
0001
1000
,
0001
0010
0001
0000
,
1001
0000
0001
0000
,
1000
0100
0010
0000
,
1001
0000
0001
0000
,
0010
0100
1000
0001
,
2000
0000
0000
0000
,
0000
0000
0000
0000
,
0000
0000
0000
0000
,
0000
0000
0000
0000
,
0000
0000
0000
0000
,
3000
0000
0000
0000
;

//---------------dance-single - ----------------
#NOTES:
     dance-single:
     :
     Medium:
     8:
     0.409,0.472,0.119,0.496,0.025: // measure 1
2002
0000
0000
0003
,  // measure 2
0200
0000
0000
3000
,  // measure 3
0020
0000
0000
0300
,  // measure 4
0002
0000
0000
0030
,  // measure 5
2000
0000
0000
0003
,  // measure 6
0020
0000
0000
3000
,  // measure 7
0200
0000
0000
0330
,  // measure 8
1001
0000
0000
1001
0000
0000
0000
0000
,  // measure 9
1001
0000
0000
1001
0000
0000
0000
0000
,  // measure 10
2000
3100
0020
0130
,  // measure 11
1000
0001
0010
0000
0200
0000
0310
0000
,  // measure 12
0002
0103
0020
0130
,  // measure 13
0001
0000
0001
1000
0010
0000
0100
0001
,  // measure 14
2000
3100
0020
0130
,  // measure 15
1000
0100
1000
0000
0020
0000
0130
0000
,  // measure 16
0002
0013
0200
0310
,  // measure 17
0001
0000
0000
0001
0000
0000
0001
0000
0100
0000
0000
0000
0010
0000
0000
0000
,  // measure 18
1000
0010
1000
0000
0001
0010
0001
0000
,  // measure 19
0020
0000
0230
0000
1300
0001
1000
0000
,  // measure 20
0001
0010
0001
0000
1000
0010
1000
0000
,  // measure 21
0100
0000
0010
0001
1000
0000
1000
0000
,  // measure 22
0001
0010
0001
0000
1000
0010
1000
0000
,  // measure 23
0002
0000
0023
0000
0130
1000
0100
0000
,  // measure 24
1000
0100
1000
0000
0001
0100
0001
0000
,  // measure 25
1000
0000
0000
1000
0000
0000
1000
0000
0100
0000
0000
0000
0010
0000
0000
0000
,  // measure 26
0002
0000
0103
0000
,  // measure 27
0020
0000
0130
0000
,  // measure 28
0002
0000
1000
0000
,  // measure 29
1000
0000
1003
0000
,  // measure 30
0200
0000
1300
0000
,  // measure 31
0020
0000
0130
0000
,  // measure 32
0002
0000
0010
0000
,  // measure 33
0010
0000
0013
0000
,  // measure 34
0200
0000
0000
0010
0000
0000
0020
0000
,  // measure 35
0000
0000
0000
0330
,  // measure 36
0002
0000
0000
1000
0000
0000
2000
0000
,  // measure 37
0000
0000
0000
3003
,  // measure 38
0022
0000
0000
0030
,  // measure 39
2000
0000
0000
3003
,  // measure 40
2200
0000
0000
0300
,  // measure 41
0002
0000
0000
0000
,  // measure 42
3003
0000
0000
0000
,  // measure 43
0100
0000
0000
0100
0000
0000
0200
0000
0000
0000
0000
0000
0300
0000
0000
0000
,  // measure 44
1002
0013
0200
0310
,  // measure 45
0001
0100
0001
0000
0010
0000
1100
0000
,  // measure 46
2000
3100
0020
0130
,  // measure 47
1000
0100
1000
0000
0100
0010
0001
0000
,  // measure 48
0200
0310
2000
3010
,  // measure 49
0100
0001
0010
0000
0100
0000
1100
0000
,  // measure 50
0010
0001
0010
0000
0100
0010
0100
0000
,  // measure 51
1000
0000
0000
1000
0000
0000
1000
0000
0001
0000
0000
0000
0100
0000
0000
0000
,  // measure 52
0010
1000
0001
0000
1000
0000
1000
0000
,  // measure 53
0100
0010
0001
0000
1000
0000
1000
0000
,  // measure 54
0010
0100
0001
0000
1000
0000
1000
0000
,  // measure 55
0100
0010
0001
0000
1000
0001
1000
0001
,  // measure 56
1000
0010
0100
0000
0001
1000
0001
0000
,  // measure 57
0010
0100
1000
0000
0001
1000
0001
0000
,  // measure 58
0100
0010
1000
0000
0001
0010
0001
0000
,  // measure 59
1000
0000
0000
1000
0000
0000
1000
0000
0010
0000
0100
0000
0010
0000
0000
0000
,  // measure 60
1002
0103
0020
0130
,  // measure 61
0001
0100
0010
0000
1000
0000
1010
0000
,  // measure 62
0200
0310
0002
1003
,  // measure 63
0001
0100
0010
0000
1000
0100
0010
0100
,  // measure 64
2000
0000
0000
0000
,  // measure 65
0000
0000
0000
0000
,  // measure 66
0000
0000
0000
0000
,  // measure 67
0000
0000
0000
0000
,  // measure 68
0000
0000
0000
0000
,  // measure 69
3000
0000
0000
0000
;

//---------------dance-single - ----------------
#NOTES:
     dance-single:
     :
     Hard:
     12:
     0.617,0.607,0.238,0.545,0.208:
0002
1000
0100
1003
,
0020
0100
1000
0130
,
0002
0100
0010
0103
,
0020
1000
0100
1030
,
0200
0010
1000
0310
,
0002
0100
0010
0103
,
0020
1000
0100
1030
,
1001
0000
0000
1001
0000
0000
2002
0000
0000
0000
0000
0000
3003
0000
0000
0000
,
0010
0100
0000
0010
0100
0000
0010
0200
0000
0000
0000
0000
0300
0000
0000
0000
,
1002
0103
2010
3001
,
1000
0010
0001
0010
1000
0000
1001
0000
,
0012
1003
2100
3001
,
1000
0010
0001
0100
0001
0010
1000
0001
,
0200
0310
2000
3001
,
1000
0100
0001
0100
1000
0000
1001
0000
,
1020
0130
0210
0301
,
1000
0000
0000
1000
0000
0000
0010
0000
0110
0000
0100
0000
0001
0000
0010
0000
,
0200
1000
1300
0000
0020
0001
0031
0000
,
1000
0010
0001
0010
1000
0000
1010
0000
,
0200
0001
0301
0000
2000
0100
3100
0000
,
0010
0001
1000
0010
0001
0010
1000
0100
,
0020
0001
0031
1000
0020
0100
0130
0000
,
0001
0100
0010
1000
0100
0001
0100
1000
,
0002
0100
0103
0010
2000
0100
3100
0000
,
0010
0000
0000
0010
0000
0000
0001
0000
1001
0000
1000
0000
0001
0000
0010
0000
,
0100
0000
1000
0000
0010
0000
0100
0000
0100
0000
0001
0000
,
1000
0000
1000
0000
0100
0000
0010
0000
0010
0000
0100
0000
,
2000
0000
0001
0000
,
0001
0000
0000
0000
0000
0000
0000
0000
3001
0000
0000
0000
0000
0000
1000
0010
,
2000
0000
0000
0002
0000
0000
0000
3003
,
0000
0120
0000
1030
0100
0001
0100
0000
,
1000
0000
0100
0000
0010
0000
0100
0000
0100
0000
0010
0000
,
0001
0000
0000
0000
0000
0000
0000
0000
0001
0000
0000
0000
0000
0000
0000
0000
0100
0000
0000
0000
0000
0000
0000
0000
0010
0000
0000
0000
0000
0000
0000
0000
0010
0000
0000
0000
0000
0000
0000
0000
0000
0000
1000
0000
0000
0001
0000
0000
,
2000
0000
0000
3020
0000
0000
0230
0000
,
0001
0000
0301
0000
,
2000
0000
0000
3200
0000
0000
0320
0000
,
0001
0000
0000
0000
0000
0000
0031
0000
0000
0000
1000
0100
,
2000
0000
0000
0000
0000
0000
0000
0000
0001
0000
0000
0000
0000
0000
3001
0100
,
0002
0000
0000
2000
0000
0000
3003
0000
,
1000
0001
1000
0001
1000
0001
1000
0000
0001
0000
0010
0000
0100
0000
1000
0000
,
0010
0000
0100
0000
0001
1000
0001
0000
0010
0000
0100
0000
1000
0000
0001
0100
,
0002
0000
0000
0000
,
0103
0010
0000
0100
0010
0000
0100
0020
0000
0000
0000
0000
0030
0000
0000
0000
,
2100
3001
0012
1003
,
0001
0100
1000
0100
0001
0000
0101
0000
,
0020
1030
0002
0103
,
0010
1000
0100
0001
0010
0001
0100
1000
,
0002
0010
0013
0000
0200
1000
1300
0000
,
0001
0010
1000
0010
0001
0000
0011
0000
,
0200
0010
0310
0000
2000
0001
3001
0000
,
0101
0000
0000
0100
0000
0000
0010
0000
0110
0000
0100
0000
0001
0000
1000
0000
,
0010
0000
1000
0001
0010
0000
0000
0000
0001
0000
0010
0000
1000
0000
0010
0000
,
0001
1000
0100
0001
0010
0001
0100
1000
,
0001
0000
0010
0100
1000
0000
0001
0000
0100
0000
0001
0000
1000
0000
0000
0000
,
1010
0010
0100
0001
0010
0100
0010
0001
,
0100
0000
0001
0010
0100
0000
0000
0000
1000
0000
0010
0000
0100
0000
0010
0000
,
1000
0001
0010
1000
0100
1000
0010
0001
,
1000
0000
0010
1000
0001
0000
0010
0000
0100
0000
1000
0000
0001
0000
0100
0000
,
0001
0000
0000
0001
0000
0000
0100
0000
0110
0000
0010
0000
1000
0000
0100
0000
,
0020
0000
0000
0000
0031
0000
0000
1000
0200
0000
0000
0000
1300
0000
0001
0000
,
0100
0100
0010
0010
1000
0000
1001
0000
,
0002
0000
0000
0000
0013
0000
0000
0100
0020
0000
0000
0000
0031
0000
0000
0000
,
1000
0010
0001
0100
0001
0010
1000
0100
,
0020
0000
0000
0000
,
0000
0002
0000
0000
,
0000
0000
0000
0000
,
0000
0000
0000
0000
,
0000
0000
0000
0000
,
0033
0000
0000
0000
;

//---------------dance-single - ----------------
#NOTES:
     dance-single:
     :
     Beginner:
     2:
     0.075,0.125,0.020,0.000,0.000:
1000
0000
0000
0000
,
0000
0000
0000
0000
,
1000
0000
0000
0000
,
0000
0000
0000
0000
,
1000
0000
0000
0000
,
0000
0000
0000
0000
,
1000
0000
0000
0000
,
1001
0000
0000
0000
,
0001
0000
0000
0000
,
1000
0000
0000
0000
,
0010
0000
0000
0000
,
0100
0000
0000
0000
,
0010
0000
0000
0000
,
1000
0000
0000
0000
,
0001
0000
0000
0000
,
0010
0000
0000
0000
,
0001
0000
0000
0000
,
1000
0000
0000
0000
,
0100
0000
0000
0000
,
1000
0000
0000
0000
,
0001
0000
0000
0000
,
1000
0000
0000
0000
,
0100
0000
0000
0000
,
1000
0000
0000
0000
,
0001
0000
0000
0000
,
0100
0000
0000
0000
,
0000
0000
0000
0000
,
0010
0000
0000
0000
,
0000
0000
0000
0000
,
1000
0000
0000
0000
,
0000
0000
0000
0000
,
0001
0000
0000
0000
,
0000
0000
0000
0000
,
0010
0000
0000
0000
,
0000
0000
0000
0000
,
0100
0000
0000
0000
,
0000
0000
0000
0000
,
0010
0000
0000
0000
,
0000
0000
0000
0000
,
0100
0000
0000
0000
,
0000
0000
0000
0000
,
1000
0000
0000
0000
,
0000
0000
0000
0000
,
0001
0000
0000
0000
,
0100
0000
0000
0000
,
0010
0000
0000
0000
,
0100
0000
0000
0000
,
0001
0000
0000
0000
,
1000
0000
0000
0000
,
0001
0000
0000
0000
,
0010
0000
0000
0000
,
0100
0000
0000
0000
,
1000
0000
0000
0000
,
0100
0000
0000
0000
,
1000
0000
0000
0000
,
0010
0000
0000
0000
,
0100
0000
0000
0000
,
0010
0000
0000
0000
,
0100
0000
0000
0000
,
0001
0000
0000
0000
,
0000
0000
0000
0000
,
1000
0000
0000
0000
,
0001
0000
0000
0000
,
1001
0000
0000
0000
;
