#TITLE:5.8.8.;
#SUBTITLE:;
#ARTIST:dj nagureo;
#TITLETRANSLIT:;
#SUBTITLETRANSLIT:;
#ARTISTTRANSLIT:;
#CREDIT:DigiMindAxel;
#BANNER:5.8.8..png;
#BACKGROUND:5.8.8.-bg.png;
#LYRICSPATH:;
#CDTITLE:beatmania IIDX.png;
#MUSIC:5.8.8..ogg;
#METERTYPE:DDR X;
#OFFSET:-7.980;
#SAMPLESTART:61.038;
#SAMPLELENGTH:12.000;
#SELECTABLE:YES;
#BPMS:0.000=95.000;
#STOPS:;
#BGCHANGES:;

//---------------dance-single - ----------------
#NOTES:
     dance-single:
     :
     Easy:
     2:
     0.125,0.143,0.059,0.000,0.000:
0000
0000
0000
1000
,
0001
0000
0001
0000
,
0001
0000
0001
1000
,
0100
0000
0100
0000
,
0100
0000
0100
1000
,
0001
0000
1000
0000
,
0100
0000
1000
0000
,
0001
0000
0010
0000
,
0100
0000
0010
0000
,
1001
0000
1000
0000
,
1001
0000
0001
0000
,
0110
0100
0100
0000
,
0010
0010
0010
0000
,
1001
0000
1000
0000
,
0100
0000
0010
0000
,
0001
0000
0100
0100
,
0001
0000
0010
0000
,
0100
0000
0010
0000
,
0100
0000
1000
0000
,
0001
1000
0001
1000
,
0100
0000
0100
0000
,
1001
0000
0001
0100
,
0001
0000
1000
0000
,
0010
0000
0100
0010
,
0100
0000
0001
0000
,
1000
0000
0000
0100
,
1000
0000
0001
0100
,
0001
0000
0010
0000
,
0100
0100
0100
0000
,
1001
0000
0000
0000
,
0000
0000
0000
0001
,
1000
0100
0000
0100
,
0010
0010
0010
0010
,
0110
0000
0000
1000
,
0001
0000
0000
0000
,
1000
0000
0000
0000
,
1000
0000
0000
0001
,
1000
0000
0010
0000
,
0100
0000
0010
0000
,
1000
0000
0100
0000
,
0010
0000
0100
0000
,
1000
1000
1000
0000
,
0001
0001
0001
0000
;

//---------------dance-single - ----------------
#NOTES:
     dance-single:
     :
     Medium:
     6:
     0.222,0.270,0.127,0.017,0.000:
0000
0000
0000
0001
,
1001
0000
1000
0000
,
1000
0000
1000
0110
,
0001
0001
0010
0010
,
0100
0000
0100
0000
1000
0000
0001
1000
,
0100
0000
1000
0100
0010
0000
0000
0001
,
1000
0001
0010
0100
,
1000
0010
1000
0000
0010
0100
0010
0000
,
0100
0001
0100
0000
0001
1000
0001
0000
,
0010
0000
0100
0000
0010
0000
0001
0100
,
0010
0000
0000
0000
0100
0000
0000
0010
,
1000
0100
0010
0001
,
1000
1001
0101
1010
,
1001
0000
0001
0010
0100
0000
0010
0001
,
0010
0000
0001
0010
0100
0000
0010
0001
,
0010
0000
0000
0100
0100
0000
1000
0000
,
0010
0000
0100
0000
0001
0000
1000
0100
,
0010
0010
0010
0010
,
0001
0001
0001
0001
,
1000
0100
0010
0001
,
1001
1001
0110
0110
,
1001
0000
0000
0001
1000
0000
0100
0000
,
0010
0100
1000
0000
0010
0100
0001
0000
,
0001
0000
0000
0100
0010
0000
0100
0000
,
0010
1000
0100
0000
0010
0001
1000
0000
,
1001
0000
0000
0001
,
1001
0000
0100
0000
0010
0001
0010
0000
,
1001
0000
0000
0100
1000
0000
0010
0000
,
0100
0001
0100
0000
0010
0100
0010
0000
,
2000
0000
0000
0000
,
0000
0000
0000
3001
,
0100
0000
0010
0100
0010
0000
1000
0001
,
0010
0010
0100
0100
,
1100
0000
0000
0000
0000
0000
0000
0010
,
0100
0000
0000
0000
,
0001
0000
0000
0000
,
1000
0000
0000
0100
,
0020
0000
0000
0000
,
0031
0000
0100
0000
,
0010
1000
0100
0010
,
0001
1000
0100
0010
,
0001
0100
0001
1000
0100
0000
0100
0000
,
1000
0100
0010
0001
0100
0000
0100
0000
;

//---------------dance-single - ----------------
#NOTES:
     dance-single:
     :
     Hard:
     8:
     0.330,0.325,0.228,0.059,0.017: // measure 1
0000
0000
0000
0000
0000
0000
1000
1000
,  // measure 2
0001
0100
0000
0000
0001
0100
0000
0000
,  // measure 3
0001
1000
0000
0000
0001
1000
0001
0001
,  // measure 4
1000
0100
0010
0001
1000
0100
0010
0001
,  // measure 5
1000
0010
0100
0001
1000
0010
0100
0100
,  // measure 6
1001
1000
0001
0010
0100
0000
0010
0001
,  // measure 7
1001
1100
1001
0101
,  // measure 8
0100
0100
0001
0001
1000
0010
0001
0010
,  // measure 9
1000
1000
0001
0001
0010
1000
0010
0001
,  // measure 10
1000
0000
0000
0000
0000
0001
0000
0000
1000
0000
0000
0100
0000
0000
0010
0000
,  // measure 11
0110
0000
0000
0000
0101
0000
0000
0001
,  // measure 12
1000
0000
0010
0000
0000
0100
0000
0000
0001
0000
0000
0010
0000
0000
0100
0000
,  // measure 13
0110
1100
0011
1100
,  // measure 14
1001
0001
0010
0100
1000
0001
1000
0000
,  // measure 15
1000
0100
0010
0001
1000
0001
1000
0000
,  // measure 16
1020
0000
0000
0100
0130
0000
0001
1000
,  // measure 17
1010
0000
0110
0000
0101
0000
1001
0001
,  // measure 18
1000
0100
0010
0000
0100
1000
0001
0000
,  // measure 19
0100
0001
1000
0000
0100
0010
0001
0000
,  // measure 20
1000
0001
0100
0001
1000
0001
0100
0001
,  // measure 21
1001
1010
0101
0110
,  // measure 22
1002
0000
0000
0010
0013
0000
0110
0000
,  // measure 23
0100
1000
0010
0001
0010
1000
0100
0010
,  // measure 24
0002
0000
0000
0100
0103
0000
0001
1000
,  // measure 25
0010
0001
0010
1000
0100
0010
0100
1000
,  // measure 26
0020
0000
0000
0000
0000
0000
0130
0100
,  // measure 27
0110
0010
1000
0100
0001
0100
1000
0001
,  // measure 28
0020
0000
0000
0100
0130
0000
1100
0000
,  // measure 29
0010
0010
0001
0001
0100
0010
1000
0001
,  // measure 30
2002
0000
0000
0000
,  // measure 31
0000
0000
0000
0000
3003
0000
1000
0001
,  // measure 32
0100
0000
0001
1000
0100
0001
0100
1000
,  // measure 33
0010
0010
0100
0100
0001
0010
0100
1000
,  // measure 34
1001
0000
0000
0000
0000
0000
0001
0001
,  // measure 35
0010
0100
1000
0001
,  // measure 36
0100
0001
1000
0100
1000
0001
0100
0000
,  // measure 37
0010
1000
0100
1000
0010
0100
0010
0010
,  // measure 38
1000
0000
0000
0000
0100
0000
0010
0001
,  // measure 39
1000
0000
0000
0000
1000
0000
0000
0001
,  // measure 40
1000
0100
0001
0100
,  // measure 41
1000
0010
0001
0010
,  // measure 42
1000
0001
0010
0100
1000
0001
0100
1000
,  // measure 43
0100
0001
1000
0100
0010
0001
1000
0010
;

//---------------dance-single - ----------------
#NOTES:
     dance-single:
     :
     Challenge:
     11:
     0.505,0.488,0.439,0.076,0.342: // measure 1
0000
0000
0000
0000
0000
0000
0000
0000
0000
0000
0000
0000
1000
0001
1000
0001
,  // measure 2
0100
0000
0001
1000
0000
0001
1000
0000
0001
1000
0000
0001
1000
0000
0100
0010
,  // measure 3
0000
0001
0100
0000
0001
0100
0000
0001
0100
0000
0001
1000
0100
0000
0100
0000
,  // measure 4
1000
0001
1000
0001
1000
0001
1000
0001
1000
0001
1000
0001
1000
0001
1000
0001
,  // measure 5
1000
0100
1000
0100
1000
0100
1000
0100
1000
0100
1000
0100
1000
0100
0010
0001
,  // measure 6
0100
0101
0001
1000
1100
0000
0010
0001
,  // measure 7
1001
1100
0110
0011
,  // measure 8
1001
0001
0011
0010
0110
0100
1000
0010
,  // measure 9
1010
1000
1001
0001
0011
0010
0100
1000
,  // measure 10
1001
0000
0000
0000
0001
1000
0000
1000
0100
0000
0010
0001
0000
0001
1000
0000
,  // measure 11
1001
0000
0010
0100
1001
0000
0100
0010
,  // measure 12
1001
0000
1000
0000
0001
0100
0000
0100
0010
0000
1000
0100
0000
0100
0010
0000
,  // measure 13
1001
0001
0101
0100
0110
0010
1010
1000
,  // measure 14
1001
0001
0010
0100
1100
1000
0010
0100
,  // measure 15
0101
0001
1000
0100
0110
0010
0001
1000
,  // measure 16
1010
0000
0010
0100
1001
0000
0011
0010
,  // measure 17
0110
0100
1000
0001
0100
1000
0100
0001
,  // measure 18
1001
0000
1000
0010
0000
0010
0100
0000
0010
0100
0000
0100
0001
0000
1000
0100
,  // measure 19
0000
0100
0010
0000
0001
0100
0000
0100
0010
0000
1000
0001
0000
0001
0010
0000
,  // measure 20
0100
0000
1000
0001
0000
0001
0010
0000
0100
1000
0000
1000
0010
0000
0100
0001
,  // measure 21
1000
0000
0000
1000
0000
0000
0001
0000
0000
0001
0000
0100
0010
0000
0000
0010
0000
0000
1000
0000
0000
1000
0000
0000
,  // measure 22
1002
0000
0013
0100
1100
0000
1001
0000
,  // measure 23
0001
0001
0100
0100
1000
1000
0100
0001
,  // measure 24
2001
0000
3001
1000
1100
0000
1001
0000
,  // measure 25
1000
1000
0100
0100
0001
0001
0100
1000
,  // measure 26
2002
0000
0000
0000
3003
0000
0100
0100
,  // measure 27
1001
0001
0101
0100
0010
1000
0100
0010
,  // measure 28
0012
0000
1003
0001
0101
0000
1001
0000
,  // measure 29
1000
0000
0000
1000
0000
0000
0001
0000
0000
0001
0000
0010
0100
0000
0000
0100
0000
0000
1000
0000
0000
0010
0000
0000
,  // measure 30
0110
0100
0001
0010
1000
0010
0001
0100
,  // measure 31
1000
0100
0001
0010
1000
0010
0011
0001
,  // measure 32
1001
0000
1010
0010
0110
0000
0101
0001
,  // measure 33
1000
0000
0000
1000
0000
0000
0001
0000
0000
0001
0000
0100
0010
0000
0000
0010
0000
0000
1000
0000
0000
0001
0000
0000
,  // measure 34
0011
0000
0010
0100
1000
0000
1100
0100
,  // measure 35
0120
0032
2003
3020
,  // measure 36
1030
1000
0100
0100
0001
0001
0100
1000
,  // measure 37
0001
0001
0100
0100
1000
0100
0101
0001
,  // measure 38
1001
0000
1000
0100
0000
1000
0100
0000
0010
0001
0000
0010
0001
0000
0100
0010
,  // measure 39
0000
0010
1000
0000
0100
0010
0000
0100
0010
0000
0001
0100
0000
0001
0100
0000
,  // measure 40
0001
0000
1000
0100
0000
1000
0100
0000
0010
0100
0000
0010
0100
0000
1000
0000
,  // measure 41
0010
0000
0100
0001
0000
0100
0001
0000
0010
0100
0000
0010
0100
0000
1000
0000
,  // measure 42
0001
0000
0010
0001
0000
0001
0100
0000
0100
0010
0000
0010
1000
0000
1000
0001
,  // measure 43
0000
0001
0010
0000
0010
0100
0000
0100
1000
0000
1000
0001
0000
0001
0100
0000
;

//---------------dance-single - ----------------
#NOTES:
     dance-single:
     :
     Beginner:
     1:
     0.052,0.089,0.042,0.000,0.000:
0000
0000
0000
0000
,
0001
0000
0000
0000
,
0000
0000
0000
0000
,
1000
0000
0000
0000
,
0000
0000
0000
0000
,
0010
0000
0000
0000
,
0010
0000
0000
0000
,
0010
0000
0000
0000
,
0010
0000
0000
0000
,
1000
0000
0000
0000
,
0001
0000
0000
0000
,
1000
0000
0000
0000
,
0100
0000
0000
0000
,
0010
0000
0000
0000
,
0100
0000
0000
0000
,
0010
0000
0000
0000
,
0001
0000
0000
0000
,
1000
0000
0000
0000
,
1000
0000
0000
0000
,
0001
0000
0000
0000
,
0001
0000
0000
0000
,
1001
0000
0000
0000
,
0000
0000
0000
0000
,
0110
0000
0000
0000
,
0000
0000
0000
0000
,
1001
0000
0000
0000
,
1000
0000
0000
0000
,
0001
0000
0000
0000
,
0100
0000
0000
0000
,
0001
0000
0000
0000
,
0000
0000
0000
0000
,
1000
0000
0000
0000
,
0010
0000
0010
0000
,
0110
0000
0000
0000
,
1000
0000
0000
0000
,
1000
0000
0000
0000
,
1000
0000
0000
0000
,
1001
0000
0000
0000
,
0001
0000
0000
0000
,
0001
0000
0000
0000
,
0010
0000
0000
0000
,
0100
0000
0000
0000
,
1000
0000
0000
0000
;
