#TITLE:4 Walls;
#SUBTITLE:;
#ARTIST:f(x);
#TITLETRANSLIT:;
#SUBTITLETRANSLIT:;
#ARTISTTRANSLIT:;
#CREDIT:DigiMindAxel;
#BANNER:4 Walls.png;
#BACKGROUND:4 Walls-bg.png;
#LYRICSPATH:4 Walls.lrc;
#CDTITLE:DigiMindAxel original simfile.png;
#MUSIC:4 Walls.ogg;
#METERTYPE:DDR X;
#OFFSET:-0.312;
#SAMPLESTART:37.139;
#SAMPLELENGTH:12.000;
#SELECTABLE:YES;
#BPMS:0.000=126.000;
#STOPS:240.000=0.23809
;
#BGCHANGES:0.000=4 Walls.avi=1.000=1=1=0,
99999=-nosongbg-=1.000=0=0=0 // don't automatically add -songbackground-
;

//---------------dance-single - ----------------
#NOTES:
     dance-single:
     :
     Easy:
     3:
     0.165,0.229,0.008,0.192,0.000:
0000
0000
0000
0000
,
0000
0000
0000
0000
,
0000
0000
0000
0000
,
0000
0000
0000
0000
,
1000
0000
0000
0000
,
0001
0000
0010
0000
,
0100
0000
0000
0000
,
0010
0000
0001
0000
,
1000
0000
0000
0000
,
0010
0000
1000
0000
,
0001
0000
0000
0000
,
0010
0000
0100
0000
,
0010
0000
0010
0000
,
0001
0000
0001
0000
,
0100
0000
0100
0000
,
0010
0000
0010
0000
,
1000
0000
1000
0000
,
0100
0000
0100
0000
,
0010
0000
0001
0000
,
1000
0000
0000
0000
,
0001
0001
0001
0001
,
0001
0000
1000
0000
,
0020
0000
0230
0000
,
0300
0000
0001
1000
,
0100
0100
0100
0100
,
0100
0000
0010
0000
,
0002
0000
2003
0000
,
3010
0000
0100
0000
,
0002
0000
0000
0000
,
2003
0000
0000
0000
,
3002
0000
0000
0000
,
2003
0000
0000
0000
,
3001
0000
0100
0000
,
0010
0000
0100
0000
,
0001
0000
1000
0000
,
0100
0000
1000
0000
,
0002
0000
0000
0000
,
0023
0000
0000
0000
,
0230
0000
0000
0000
,
2300
0000
0000
0000
,
3002
0000
0203
0000
,
0302
0000
2003
0000
,
3020
0000
2030
0000
,
3002
0000
0000
0000
,
1003
0000
0100
0000
,
1000
0000
0001
0000
,
1000
0000
0100
0000
,
1000
0000
0001
0000
,
1000
0000
1000
0000
,
0001
0000
0001
0000
,
1000
0000
1000
0000
,
0002
0000
0000
0000
,
0103
0010
0100
0010
,
0100
0000
0001
1000
,
0200
0000
0320
0000
,
0031
0000
0100
0000
,
0010
0100
0010
0100
,
0010
0000
1000
0001
,
0020
0000
0230
0000
,
1300
0001
1000
0000
,
0000
1001
0000
0000
0000
0001
0000
0100
,
0000
0010
0000
0100
0000
0000
0000
0001
,
0000
0000
0000
1000
0000
0000
0000
0100
,
0000
0010
0000
0100
0000
1000
0000
0000
;

//---------------dance-single - ----------------
#NOTES:
     dance-single:
     :
     Medium:
     7:
     0.346,0.458,0.384,0.144,0.000:
0000
0000
0000
0000
,
0000
0000
0000
0000
,
0000
0000
0000
0000
,
0000
0000
0000
0000
,
0000
1000
0000
0100
,
0000
0010
0000
0100
,
0000
1000
0000
0001
,
0000
0100
0001
1000
,
0001
0100
0000
0001
,
0000
1000
0000
0100
,
0000
1000
0000
0010
,
0000
0100
0010
0100
,
0001
0001
1000
1000
,
0100
0100
0010
0010
,
0100
0100
1000
1000
,
0010
0010
0100
0001
,
0010
0010
0001
0001
,
0100
0100
0010
0010
,
0100
0001
1000
0100
,
0020
0000
0000
0030
,
1001
1001
1001
1001
,
1001
0000
0000
0000
0001
0100
0010
0000
,
0200
0310
0200
0310
,
1000
0000
0000
0001
0100
0000
0001
0000
,
1001
1001
1001
1001
,
1001
0000
0000
0000
1000
0100
0010
0000
,
0200
0310
0200
0310
,
0002
0203
0320
1030
,
0001
0001
0001
0001
,
1000
1000
1000
1000
,
0001
0011
0001
0011
,
1000
1100
1000
1100
,
1001
0110
1001
0110
,
0101
1001
0101
1001
,
1100
1001
1100
1001
,
0011
0110
1100
0110
,
0020
0001
0000
0031
,
0200
0010
0000
0310
,
2000
0100
0000
3100
,
0010
1001
0010
1001
,
0001
0100
0001
0000
1000
0001
1000
0000
,
0010
1000
0010
0000
1000
0001
1000
0000
,
0100
0010
0100
0000
1000
0100
1000
0000
,
0100
1001
0100
1001
,
0001
0100
0010
0100
,
0001
0000
1000
0000
0100
0010
0100
1000
,
0010
0100
0001
0100
,
0010
0000
0100
0000
0001
1000
0100
0000
,
0010
0001
0010
0100
,
0010
0000
0001
0000
0100
0010
1000
0000
,
0001
0010
0001
1000
,
0002
0000
0000
0003
,
1001
1001
1001
1001
,
0001
0000
1000
0000
0100
0010
0100
1000
,
0020
0130
0020
0130
,
0001
0000
0100
0010
1000
0000
1010
0000
,
1001
1001
1001
1001
,
1001
0000
0001
0000
0010
0100
0010
0001
,
0200
0310
0200
0310
,
1100
1100
1100
1000
,
0000
0100
0010
0001
0000
0100
0010
0200
,
0000
0001
0000
0301
0000
1000
0100
1000
,
0000
0010
0100
0001
0000
0010
0100
0020
,
0000
0001
0000
0031
0000
0110
0000
0000
;

//---------------dance-single - ----------------
#NOTES:
     dance-single:
     :
     Hard:
     10:
     0.429,0.510,0.088,0.208,0.148:
0000
0000
0000
0000
,
0000
0000
0000
0000
,
0000
0000
0000
0000
,
0000
0000
0000
0000
,
1000
0010
0100
0010
,
1000
0100
1000
0001
,
1000
0001
0010
0001
,
1000
0000
0010
0000
0100
0010
0100
0010
,
1000
0100
1000
0001
,
1000
0100
1000
0001
,
0100
1000
0100
0001
,
0020
0230
2300
3001
,
1000
0000
0000
0010
0000
0000
1000
0000
0000
0010
0000
0000
0100
0000
0000
0001
,
0000
0020
0000
0000
0031
0010
0100
1000
,
0001
0000
0000
0010
0000
0000
0001
0000
0000
0100
0000
0000
0010
0000
0000
1000
,
0000
0200
0000
0000
1300
0010
1000
0010
,
0100
0000
0000
0001
0000
0000
0010
0000
0000
0100
0000
0000
1000
0000
0000
0001
,
0000
0200
0000
0000
0300
0010
0100
0001
,
0000
0010
0100
1000
0000
0100
1000
0001
,
0000
0000
0000
0100
0100
0000
0100
0000
,
0001
0100
1000
0100
0001
0100
1000
0100
,
0001
0000
0010
0000
0100
1000
0010
0100
,
0002
1003
0200
1300
,
0010
0000
0100
0001
0010
0100
1001
0000
,
1000
0100
0001
0100
1000
0100
0001
0100
,
1000
0000
0100
0000
0010
0001
1000
0100
,
0020
0130
2000
3010
,
0100
0001
0010
0001
0100
0000
0110
0000
,
0010
0000
0010
0100
0010
0000
1000
0001
,
1000
0001
1000
0100
1000
0000
0100
0010
,
0100
0000
0000
1000
0000
0000
0100
0000
0100
1000
0000
1000
,
0100
0000
0100
0010
0000
0010
0001
0000
0001
1000
0000
1000
,
0001
0100
0001
0100
0000
0000
0010
1000
0010
1000
0000
0000
,
0010
0100
0010
0100
0000
0001
2000
0000
0000
3010
0000
0000
,
0100
0001
0100
0001
0000
1000
0200
0000
0000
0310
0000
0000
,
0001
0010
0001
0010
0000
0001
2000
0000
0000
3010
0000
0000
,
1000
0010
0001
0010
,
1000
0100
0010
0000
0001
0010
0100
0000
,
1000
0010
0001
0010
,
1000
0000
1001
0000
0001
0100
0010
0000
,
1000
0001
1000
0001
1000
0100
1000
0100
,
1000
0001
1000
0001
1000
0100
1000
0100
,
0010
0001
0010
0001
0100
0010
0100
0010
,
1000
1001
0001
0101
,
0100
0000
0000
0010
0000
0000
1000
0000
0000
0100
0000
0000
0010
0000
0000
0001
,
0000
0200
0000
0000
0010
0010
0310
0000
,
1000
0000
0000
0100
0000
0000
1000
0000
0000
0001
0000
0000
0100
0000
0000
0001
,
0000
0020
0000
0000
0100
0000
0130
0000
,
1000
0000
0000
0100
0000
0000
1000
0000
0000
0001
0000
0000
0100
0000
0000
0001
,
0000
0020
0000
0000
0000
0130
1000
0001
,
0000
1000
0100
1000
0000
0100
1000
0001
,
1000
0000
0000
0010
0010
0000
0010
0000
,
1000
0100
0001
0100
1000
0100
0001
0100
,
1000
0000
0010
0000
0100
0001
0010
0100
,
2000
3010
0200
0310
,
1000
0000
0001
0100
0010
1000
1001
0000
,
1000
0100
0001
0100
1000
0100
0001
0100
,
1000
0000
0010
0000
0100
0001
0010
0100
,
2000
3001
0020
0130
,
2020
3030
0220
0330
0202
0303
1001
0000
,
0000
1001
1000
0001
0000
0001
1000
0100
,
0010
0100
0010
0001
1000
0001
1000
0010
,
0100
0010
0100
0010
0000
0100
0000
0001
,
0010
1000
0010
0001
0010
0100
1000
0000
;

//---------------dance-single - ----------------
#NOTES:
     dance-single:
     :
     Challenge:
     12:
     0.569,0.618,0.184,0.176,0.468: // measure 1
0000
0000
0000
0000
,  // measure 2
0000
0000
0000
0000
,  // measure 3
0000
0000
0000
0000
,  // measure 4
0000
0000
0000
0000
,  // measure 5
2000
0001
0100
3001
,  // measure 6
0200
0010
0320
1000
,  // measure 7
2030
0001
0010
3001
,  // measure 8
0020
0000
0000
0000
0001
0000
0000
0000
0031
1000
0000
0001
0000
0010
0000
0001
,  // measure 9
0200
0010
0001
0310
,  // measure 10
2000
0100
3200
0010
,  // measure 11
0320
0001
0100
0031
,  // measure 12
0100
0000
0000
0000
1100
0000
0000
0010
0000
0100
0000
0001
1000
0000
0000
0000
,  // measure 13
0001
0100
0001
0100
0001
1000
0001
1000
,  // measure 14
0100
1000
0100
0010
0001
0010
0001
0000
,  // measure 15
0100
0010
0100
0010
1000
0010
1000
0010
,  // measure 16
1000
0000
0001
0000
0011
0000
0000
0100
0000
0010
0000
1000
0001
0000
0000
0000
,  // measure 17
1000
0010
1000
0010
0100
0001
0100
0001
,  // measure 18
0010
0100
0010
0100
1000
0001
0100
0010
,  // measure 19
0100
0010
0100
0001
1000
0100
0010
0001
,  // measure 20
2000
0000
0000
0100
0100
0000
3100
0000
,  // measure 21
1000
0000
0001
0000
0100
0001
0100
0001
1000
0000
0000
0000
0100
1000
0100
1000
,  // measure 22
0010
0000
0100
0000
0000
0001
0000
0000
0010
0000
0000
0000
0100
0000
0010
0001
,  // measure 23
1000
0000
0010
0000
0100
0001
0100
0001
1000
0000
0000
0000
0100
0010
0100
0010
,  // measure 24
0001
0000
0100
0000
0000
0010
0000
0000
1000
0000
0000
0000
1001
0000
0000
0000
,  // measure 25
0001
0000
1000
0000
0010
0100
0010
0100
0001
0000
0010
0000
0100
1000
0100
1000
,  // measure 26
0001
0000
0100
0000
0000
0001
0000
0000
1000
0000
0010
0000
0100
0000
0010
1000
,  // measure 27
0001
0000
0010
0000
0100
1000
0100
1000
0010
0000
0100
0000
0001
0100
0001
0100
,  // measure 28
0010
0000
1000
0000
1010
0000
0000
0100
0000
0010
0000
0001
1000
0000
0000
0000
,  // measure 29
0001
0000
0000
0000
0001
0000
1000
0100
0010
0000
0000
0000
0001
0000
1000
0100
,  // measure 30
0010
0000
0001
0000
0000
0100
0000
0000
0001
0000
0000
0000
1000
0000
0001
0100
,  // measure 31
0010
0000
0000
0000
1000
0000
0001
0010
0100
0000
0000
0000
1000
0000
0001
0100
,  // measure 32
0010
0000
0000
1001
0000
1000
0001
0010
0001
1000
0000
0000
,  // measure 33
0001
0100
1000
0100
0001
1000
0001
0010
1000
0010
0001
1000
,  // measure 34
0100
0000
0100
0010
0000
0010
0001
0000
0000
1001
0000
0000
,  // measure 35
1000
0010
0100
0010
1000
0010
0100
0000
0000
1001
0000
0000
,  // measure 36
0001
1000
0010
1000
0001
1000
0010
0000
0000
1001
0000
0000
,  // measure 37
0002
0203
0302
0203
,  // measure 38
0302
0000
1003
0100
1000
0001
1000
0100
,  // measure 39
2000
3002
0203
0302
,  // measure 40
1003
0000
0000
0000
1100
0000
0000
0010
0000
0100
0000
0001
1000
0000
0000
0000
,  // measure 41
0001
0100
0001
0100
1000
0100
1000
0100
,  // measure 42
0001
1000
0001
1000
0001
0100
0001
0100
,  // measure 43
1000
0100
1000
0100
0001
1000
0001
1000
,  // measure 44
0100
0000
0010
0000
0110
0000
0000
1000
0000
0001
0000
0100
0001
0000
0000
0000
,  // measure 45
0100
0101
1000
1100
,  // measure 46
0001
0000
0000
0000
1001
0000
0000
0000
0010
0100
0010
0100
0010
0000
1000
0000
,  // measure 47
0001
0011
1000
1010
,  // measure 48
0001
0000
0000
0000
1001
0000
0000
0000
0100
0010
0000
0100
0010
0000
0001
0000
,  // measure 49
1000
0000
0000
0000
0100
0000
0000
0000
0010
0000
0000
0000
0100
0000
0000
1000
,  // measure 50
0001
0000
0000
0000
0100
0000
0000
0000
0010
0000
0000
0100
0001
0000
1000
0000
,  // measure 51
0001
0000
0000
0000
0100
0000
0000
0000
0010
0000
0000
0100
0001
0000
0010
0000
,  // measure 52
0200
0000
0000
1000
1000
0000
1300
0000
,  // measure 53
0100
0000
1000
0000
0010
0100
0010
0100
0001
0000
0010
0000
0100
0010
0100
0010
,  // measure 54
0001
0000
1001
0000
1000
0010
0000
1000
0001
0000
0100
0000
0001
0000
1000
0100
,  // measure 55
0010
0000
0100
0000
1000
0010
1000
0010
0100
0000
0010
0000
0100
0001
0100
0001
,  // measure 56
1000
0000
1001
0000
0001
0010
0000
0001
1000
0000
0100
0000
0010
0000
0000
0000
,  // measure 57
0001
0000
1000
0000
0100
0010
0100
0010
0001
0000
1000
0000
0010
0100
0010
0100
,  // measure 58
0001
0000
1001
0000
1000
0100
0000
1000
0001
0000
0010
0000
0100
0000
0010
0001
,  // measure 59
1000
0000
0010
0000
0100
0010
0100
0010
1000
0000
0001
0000
0010
0100
0010
0100
,  // measure 60
1000
0000
0010
0000
1010
0000
0000
1000
0000
0001
0000
0010
0001
0000
1000
0000
,  // measure 61
0000
0000
0001
0100
0010
0100
0001
0000
1000
0000
0100
0010
0001
0010
0100
0000
,  // measure 62
1100
0000
1000
0010
0000
0010
0100
0000
0101
0000
0001
1000
0000
1000
0100
0000
,  // measure 63
0010
0000
0001
0010
0100
0010
0001
0000
1000
0000
0010
1000
0100
1000
0010
0000
,  // measure 64
0110
0000
0100
0001
0000
0100
0000
0001
0000
1000
0020
0000
0200
0000
0000
0000
,  // measure 65
0000
0000
0000
0330
0000
0000
0000
0000
;

//---------------dance-single - ----------------
#NOTES:
     dance-single:
     :
     Beginner:
     1:
     0.072,0.102,0.000,0.000,0.000:
0000
0000
0000
0000
,
0000
0000
0000
0000
,
0000
0000
0000
0000
,
0000
0000
0000
0000
,
1000
0000
0000
0000
,
0010
0000
0000
0000
,
0100
0000
0000
0000
,
0001
0000
0000
0000
,
1000
0000
0000
0000
,
0010
0000
0000
0000
,
0100
0000
0000
0000
,
0001
0000
0000
0000
,
1000
0000
0000
0000
,
1000
0000
0000
0000
,
0100
0000
0000
0000
,
0100
0000
0000
0000
,
1000
0000
0000
0000
,
1000
0000
0000
0000
,
0001
0000
0000
0000
,
0001
0000
0000
0000
,
0100
0000
0010
0000
,
0100
0000
0000
0000
,
0010
0000
0100
0000
,
0010
0000
0000
0000
,
1000
0000
0001
0000
,
1000
0000
0000
0000
,
0001
0000
1000
0000
,
0001
0000
0000
0000
,
0010
0000
0000
0000
,
0000
0000
0000
0000
,
0100
0000
0000
0000
,
0000
0000
0000
0000
,
1000
0000
0000
0000
,
0001
0000
0000
0000
,
0100
0000
0000
0000
,
0001
0000
0000
0000
,
1000
0000
0000
0000
,
0000
0000
0000
0000
,
0001
0000
0000
0000
,
0000
0000
0000
0000
,
1000
0000
0000
0000
,
0100
0000
0000
0000
,
1000
0000
0000
0000
,
0001
0000
0000
0000
,
1000
0000
0000
0000
,
0000
0000
0000
0000
,
0100
0000
0000
0000
,
0000
0000
0000
0000
,
0010
0000
0000
0000
,
0000
0000
0000
0000
,
0001
0000
0000
0000
,
0000
0000
0000
0000
,
1000
0000
0010
0000
,
0100
0000
0000
0000
,
0010
0000
0100
0000
,
0001
0000
0000
0000
,
1000
0000
0100
0000
,
0010
0000
0000
0000
,
0100
0000
0010
0000
,
0001
0000
0000
0000
,
0000
1000
0000
0000
0000
0010
0000
0000
,
0000
1000
0000
0000
0000
0000
0000
0001
,
0000
0000
0000
0100
0000
0000
0000
0001
,
0000
0000
0000
0000
0000
1000
0000
0000
;
