#TITLE:2nd ADVENTURE;
#SUBTITLE:;
#ARTIST:Jimmy Weckl;
#TITLETRANSLIT:;
#SUBTITLETRANSLIT:;
#ARTISTTRANSLIT:;
#CREDIT:DigiMindAxel;
#BANNER:2nd ADVENTURE.png;
#BACKGROUND:2nd ADVENTURE-bg.png;
#LYRICSPATH:2nd ADVENTURE.lrc;
#CDTITLE:pop'n music.png;
#MUSIC:2nd ADVENTURE.ogg;
#METERTYPE:DDR X;
#OFFSET:-9.552;
#SAMPLESTART:51.254;
#SAMPLELENGTH:12.000;
#SELECTABLE:YES;
#BPMS:0.000=115.000;
#STOPS:;
#BGCHANGES:;

//---------------dance-single - ----------------
#NOTES:
     dance-single:
     :
     Easy:
     3:
     0.149,0.189,0.021,0.191,0.000:
1000
0100
0010
0000
,
0010
0000
0001
0000
,
0001
0010
0100
0000
,
0100
0000
1001
0000
,
1000
0000
0000
0000
,
0010
0000
0100
0000
,
0001
0000
0000
0000
,
0010
0000
0100
0000
,
1000
0000
0000
0000
,
0100
0000
0010
0000
,
0001
0000
0000
0000
,
0100
0000
0020
0000
,
0230
0000
0000
0000
,
0302
0000
0000
0000
,
2003
0000
0000
0000
,
3002
0000
0000
0003
,
1001
0000
0000
1000
,
0001
0000
0000
0010
,
0100
0000
0000
0000
,
1000
0001
1000
0001
,
2000
0000
3100
0000
,
0020
0000
0031
0000
,
0100
0000
0010
0000
,
1000
0000
0001
0000
,
2000
0000
3100
0000
,
0020
0000
0130
0000
,
1000
0000
0010
0000
,
0100
0000
0001
0000
,
0020
0000
0130
0000
,
2000
0000
3010
0000
,
0200
0000
0302
0000
,
2003
0000
3000
0000
,
0200
0000
0310
0000
,
0002
0000
0103
0000
,
0020
0000
2030
0000
,
3001
0001
0001
0001
,
1000
0100
0010
0000
,
0010
0000
0001
0000
,
0001
0010
0100
0000
,
0100
0000
1000
0000
;

//---------------dance-single - ----------------
#NOTES:
     dance-single:
     :
     Medium:
     7:
     0.311,0.359,0.180,0.202,0.149:
1000
0000
0000
0100
0000
0000
0000
0020
0000
0000
0000
0000
0000
0000
0000
0000
,
0032
0100
0203
0010
,
0310
0000
0000
1000
0000
0000
0000
0200
0000
0000
0000
0000
0000
0000
0000
0000
,
0310
0000
0000
0000
0000
0000
0000
0000
1001
0000
0000
0001
0000
0001
0000
0000
,
2000
0000
0000
0000
0000
0000
0000
0000
0000
0000
0000
0000
0000
3100
0000
0000
,
0000
0000
0000
0000
0000
0010
0000
0000
0000
0000
0000
0000
0000
0001
0000
0000
,
0200
0000
0000
0000
0000
0000
0000
0000
0000
0000
0000
0000
0000
0310
0000
0000
,
0000
0000
0000
0000
0000
1000
0000
0000
0000
0000
0000
0000
0000
0001
0000
0000
,
0020
0000
0000
0000
0000
0000
0000
0000
0000
0000
0000
0000
0000
0130
0000
0000
,
0000
0000
0000
0000
0000
1000
0000
0000
0000
0000
0000
0000
0000
0001
0000
0000
,
0020
0000
0000
0000
0000
0000
0000
0000
0000
0000
0000
0000
0000
0130
0000
0000
,
0000
0000
0000
0000
0000
1000
0000
0000
0000
0000
0000
0000
0000
0000
0000
0000
,
1002
1000
0100
0103
,
0020
0000
0000
0000
1030
0000
0100
0010
,
0002
0010
0100
0103
,
0020
0000
1030
0000
,
1001
0000
0001
0100
0010
0100
0001
0000
,
1000
0100
0010
0100
1000
0000
0010
0000
,
1001
0000
0001
1000
0100
1000
0001
0000
,
1100
1100
1100
1100
,
1002
0000
0010
0000
1003
0100
0010
0000
,
0001
0010
0100
1000
0001
0000
0100
0010
,
1000
0000
0010
1000
0100
0000
1000
0010
,
0100
0001
0010
0100
,
2001
0000
0100
0000
3001
0100
0010
0000
,
1000
0100
0010
0001
1000
0000
0001
0010
,
0100
0000
0010
0001
0100
0000
0001
0010
,
0100
0000
0010
0001
0100
0000
0000
0000
,
1002
0010
1003
0000
,
0001
0010
0100
0010
0001
0000
1000
0010
,
0100
0000
0010
1000
0100
0000
1000
0010
,
0100
0000
0010
1000
0100
0000
0010
0000
,
2001
0000
0100
0000
3001
0010
0100
0000
,
0010
0001
0100
0010
1000
0000
0100
0010
,
0001
0000
1000
0100
0010
0000
0100
0010
,
0001
1001
1001
1001
,
1010
0000
0000
0010
0000
0000
0000
0200
0000
0000
0000
0000
0000
0301
0000
0010
,
0000
0000
0100
0000
0000
0000
0000
0010
0000
0000
0100
0000
0000
0000
0000
0000
,
1100
0000
0000
1000
0000
0000
0000
0020
0000
0000
0000
0000
0000
0130
0000
0001
,
0000
0000
1000
0000
0000
0000
0000
0000
0200
0000
0000
1000
0000
1300
0000
0000
;

//---------------dance-single - ----------------
#NOTES:
     dance-single:
     :
     Hard:
     11:
     0.504,0.549,0.180,0.276,0.658: // measure 1
1000
0001
0000
0010
0000
0100
0000
0020
0000
0000
0000
0000
0000
0031
0010
0100
,  // measure 2
0000
0000
1000
0000
0000
0010
0000
0100
0000
0000
0001
0000
0000
0001
0000
0000
,  // measure 3
1000
0001
0000
0100
0000
0010
0000
0200
0000
0000
0000
0000
0300
0001
0010
0100
,  // measure 4
0000
0000
1000
0000
0000
0010
0000
0000
1001
0000
0000
0101
0000
0101
0000
0000
,  // measure 5
0001
0000
1000
0000
0000
0010
0000
0000
0001
0000
0000
0010
0000
1000
0000
0002
,  // measure 6
0000
0000
1003
0000
0000
0010
0000
0200
0000
0000
0301
0000
0000
1000
0000
0000
,  // measure 7
0001
0000
1000
0000
0000
0100
0000
0000
0001
0000
0000
0100
0000
1000
0000
0020
,  // measure 8
0000
0000
0130
0000
0000
0001
0000
0020
0000
0000
0130
0000
0000
1000
0000
0000
,  // measure 9
0001
0000
1000
0000
0000
0010
0000
0000
0001
0000
0000
0010
0000
1000
0000
0200
,  // measure 10
0000
0000
0310
0000
0000
0001
0000
0200
0000
0000
0301
0000
0000
1000
0000
0000
,  // measure 11
0001
0000
1000
0000
0000
0100
0000
0000
0001
0000
0000
0100
0000
1000
0000
0002
,  // measure 12
0000
0000
0103
0000
0000
0010
0000
0000
1000
0001
0000
0010
0000
0100
0000
0000
,  // measure 13
1020
0100
1000
0230
,  // measure 14
0302
0000
0000
0000
1000
0000
0000
0000
1003
0001
0000
0010
0000
0100
0000
2000
,  // measure 15
0000
0001
0100
3002
,  // measure 16
0203
0010
0001
0310
,  // measure 17
1001
0000
0001
0100
0001
0100
0000
0010
0000
1000
0000
0002
0000
0000
0003
0000
,  // measure 18
1001
0000
1000
0100
1000
0100
0010
0001
0000
0100
0000
0020
0000
0000
0030
0000
,  // measure 19
1001
0000
1000
0010
1000
0010
0000
0100
0000
0001
0000
1000
0000
0001
0010
0001
,  // measure 20
2000
3100
0020
0130
2000
3100
0020
0130
,  // measure 21
1001
0000
0001
0000
0100
0001
0000
1000
0000
0100
0010
0001
0000
0000
1000
0000
,  // measure 22
0001
0000
0100
0010
0000
0100
0000
0001
0000
1001
0000
0000
1000
0000
1000
0000
,  // measure 23
0100
0010
0001
0001
0010
0100
1000
1000
,  // measure 24
0100
0000
0010
0000
0001
1000
0010
1000
0000
0010
0000
0100
0000
0001
0010
0100
,  // measure 25
0010
0000
0001
0000
1000
0001
0000
0100
0000
0101
0000
0000
0000
0000
0001
0000
,  // measure 26
1000
0000
0100
0010
0000
0001
0000
0100
0000
0110
0000
0000
1000
0000
1000
0000
,  // measure 27
0010
0100
0001
0001
0100
0010
1000
1000
,  // measure 28
0010
0000
0100
0000
0001
0000
0001
0000
0010
0000
0100
0000
1000
0001
0000
1000
,  // measure 29
0010
0000
1000
0000
0100
0010
0000
0001
0000
1001
0000
0000
0000
0000
0001
0000
,  // measure 30
1000
0000
0010
0100
0000
0010
0000
1000
0000
0000
0000
0000
0001
0000
0001
0000
,  // measure 31
1000
0100
0010
0010
0100
1000
0001
0001
,  // measure 32
0100
0000
0010
0000
0100
0001
1000
0000
0001
0000
0001
0000
0100
0010
0000
0010
,  // measure 33
1000
0000
0100
0000
0010
0100
0000
1000
0000
1010
0000
0000
0000
0000
1000
0000
,  // measure 34
0001
0100
1000
0100
0001
0010
0100
0100
,  // measure 35
0010
0001
0100
0100
0010
1000
0100
0100
,  // measure 36
0010
0001
0010
0000
0001
1000
0001
0000
0010
0001
0010
0000
0001
1000
0001
0000
,  // measure 37
1000
0010
0000
0100
0000
0001
0000
0200
0000
0000
0000
0000
0000
0301
0010
0200
,  // measure 38
0000
0000
1300
0000
0000
0010
0000
0200
0000
0000
0301
0000
0000
1001
0000
0000
,  // measure 39
1000
0010
0000
0100
0000
0001
0000
0020
0000
0000
0000
0000
0000
0130
1000
0020
,  // measure 40
0000
0000
0130
0000
0000
0000
0000
0000
0011
0000
0000
1001
0000
1001
0000
0000
;

//---------------dance-single - ----------------
#NOTES:
     dance-single:
     :
     Beginner:
     1:
     0.079,0.105,0.106,0.000,0.000:
1000
0000
0000
0000
,
0001
0000
0000
0000
,
0100
0000
0000
0000
,
0010
0000
0110
0000
,
1000
0000
0000
0000
,
0100
0000
0000
0000
,
0010
0000
0000
0000
,
0001
0000
0000
0000
,
1000
0000
0000
0000
,
0010
0000
0000
0000
,
0100
0000
0000
0000
,
0001
0000
0000
0000
,
1001
0000
0000
0000
,
0100
0000
0000
0000
,
0010
0000
0000
0000
,
0100
0000
0000
0000
,
1001
0000
0000
0000
,
1000
0000
0000
0000
,
0001
0000
0000
0000
,
1001
0000
0000
0000
,
0100
0000
0000
0000
,
0010
0000
0000
0000
,
0001
0000
0000
0000
,
1000
0000
0000
0000
,
1001
0000
0000
0000
,
0010
0000
0000
0000
,
0100
0000
0000
0000
,
1000
0000
0000
0000
,
0110
0000
0000
0000
,
0010
0000
0000
0000
,
0100
0000
0000
0000
,
0001
0000
0000
0000
,
1001
0000
0000
0000
,
1000
0000
0000
0000
,
0001
0000
0000
0000
,
0110
0000
0000
0000
,
1001
0000
0000
0000
,
0001
0000
0000
0000
,
0010
0000
0000
0000
,
0100
0000
0110
0000
;
