#TITLE:with you;
#SUBTITLE:-X-Sota Mix-;
#ARTIST:Remixed by good-cool;
#TITLETRANSLIT:;
#SUBTITLETRANSLIT:;
#ARTISTTRANSLIT:;
#CREDIT:DigiMindAxel;
#BANNER:with you -X-Sota Mix-.png;
#BACKGROUND:with you -X-Sota Mix--bg.png;
#LYRICSPATH:;
#CDTITLE:Konami original REMIX.png;
#MUSIC:with you -X-Sota Mix-.ogg;
#METERTYPE:DDR X;
#OFFSET:-7.757;
#SAMPLESTART:21.937;
#SAMPLELENGTH:12.000;
#SELECTABLE:YES;
#BPMS:0.000=135.000;
#STOPS:;
#BGCHANGES:;

//---------------dance-single - ----------------
#NOTES:
     dance-single:
     :
     Easy:
     4:
     0.198,0.232,0.032,0.112,0.000:
1000
0100
0010
0000
,
0100
0010
0001
0000
,
1000
0100
0010
0000
,
0001
0000
0100
0000
,
0010
0100
0001
0000
,
0100
0010
1000
0000
,
0010
0100
0001
0000
,
1001
0000
0000
0000
,
1000
0000
0100
0000
,
1000
0000
0100
0000
,
1000
0000
0001
0000
,
1000
0001
1000
0000
,
0010
0000
0100
0000
,
0010
0000
0100
0000
,
0001
0010
0100
0000
,
0010
0000
0001
0000
,
0200
0000
0310
0000
,
2000
0000
3001
0000
,
1000
0100
0010
0000
,
0002
0203
0310
0000
,
1000
0100
1000
0000
,
0001
1000
0001
0000
,
0010
0001
0010
0000
,
0100
0100
0100
0100
,
1001
0000
0001
0000
,
1000
0100
0010
0000
,
0001
0000
0100
0000
,
0010
0100
0010
0000
,
2000
0000
3000
0000
,
0002
0000
0003
0000
,
1000
0100
0010
0001
,
0100
0100
0100
0000
,
0001
0010
0100
0000
,
0010
0100
1000
0000
,
0010
0100
0001
0000
,
0100
0010
1000
0000
,
0001
1000
0100
0000
,
0010
0001
1000
0000
,
0010
0100
0010
0000
,
0100
0010
0100
0000
,
0002
0000
1003
0100
,
1000
0010
0000
0100
,
0001
0000
0010
0000
,
0100
0000
1000
0000
,
0001
0100
0001
0000
,
1000
0001
1000
0000
,
0100
1000
0100
0010
,
0002
0000
0000
0000
,
1003
0100
0010
0000
,
0100
0010
0001
0000
,
1000
0100
0010
0000
,
0001
0000
0100
0000
,
0010
0100
0001
0000
,
0100
0010
1000
0000
,
0010
0100
0001
0001
,
1000
0100
0010
0001
,
2000
0000
0000
0000
,
0000
0000
0000
0000
,
3020
0000
0000
0000
,
0000
0000
0000
0030
,
2001
0000
0000
0000
,
0000
0000
0000
0000
,
3002
0000
0000
0000
,
0000
0000
0000
0000
0000
0003
0000
2002
,
0000
0000
3003
0000
;

//---------------dance-single - ----------------
#NOTES:
     dance-single:
     :
     Medium:
     9:
     0.403,0.437,0.335,0.303,0.000:
0001
0100
0001
0100
0010
0000
1010
0000
,
0100
0001
0100
0001
1000
0000
1001
0000
,
0100
1000
0100
1000
0001
0000
0101
0000
,
0110
0110
0110
1001
,
1000
0100
1000
0100
0010
0000
0100
0000
,
0010
0001
0010
0001
0100
0000
0010
0000
,
1000
0100
1000
0100
0010
0001
0100
0000
,
0220
0000
0000
0330
,
0200
0000
2300
0000
3001
0100
0000
0000
,
0020
0000
0230
0000
0301
1000
0000
0000
,
0200
0000
0320
0000
0031
0100
0010
0000
,
1000
0000
0100
0000
0001
0100
1000
0000
,
2002
3003
0022
0033
,
2002
3003
2200
3300
,
0010
0001
1000
0001
0010
0000
0100
0000
,
1000
0010
0001
0010
,
2000
0000
3200
0000
0310
0001
0000
0000
,
2000
0000
3020
0000
0130
0001
1000
0000
,
0001
0000
0100
0000
1000
0100
0001
0000
,
0010
0100
1000
0100
0010
0000
0000
0000
,
0001
1000
0100
0000
0020
0000
0000
0000
,
0031
0000
0010
0000
0100
0000
0010
0001
,
1000
0000
0010
0000
1000
0001
0010
0000
,
0001
1001
1000
1001
,
0011
0000
0011
0000
0100
1000
0000
0000
,
0100
0010
0100
0010
0001
0000
0000
0000
,
0101
0101
0010
1000
,
1100
1100
0010
0000
,
0102
0000
0103
0010
,
2010
0000
3010
0100
,
0001
1000
0001
0000
1000
0100
1000
0000
,
0001
0100
0001
0100
0001
0000
1001
0000
,
1000
0100
0010
0000
0002
0000
0000
0000
,
0013
0100
1000
0000
0020
0000
0000
0000
,
1030
0001
0010
0000
0200
0000
0000
0000
,
0310
0001
1000
0010
1000
0000
1010
0000
,
0100
0001
0010
0000
0200
0000
0000
0000
,
1300
0100
0010
0000
0002
0000
0000
0000
,
0013
0100
1000
0000
0020
0000
0000
0000
,
0130
0001
0100
0000
0001
1000
0100
0000
,
0020
0000
0000
0000
0031
1000
0001
1000
,
0100
0000
0011
0000
0000
0100
1000
0000
,
0010
0100
0000
0100
0000
0100
0000
0000
,
0002
0000
0000
1003
0100
0000
0010
0000
,
1001
0000
1000
0100
0010
0000
0100
0000
,
1000
0001
0010
0001
1000
0000
0010
0000
,
0100
0001
0010
0000
0100
1000
0010
0000
,
0100
0110
0010
0110
,
1001
0000
0011
0000
0100
1000
0001
0000
,
1001
0000
1100
0000
0010
0001
1000
0000
,
1010
0000
0110
0000
0100
0001
0010
0000
,
0100
0010
0100
0000
1000
0010
0100
0000
,
1001
0000
1010
0000
0100
0001
0010
0000
,
1001
0000
1100
0000
0010
0001
1000
0000
,
1100
0000
0011
0000
0100
0100
0100
0000
,
1000
0010
1000
0010
0100
0001
0010
0001
,
0200
0000
0010
0000
,
0010
0000
0310
0000
,
0020
0000
1000
0000
,
1000
0000
1030
0000
,
2002
0000
0000
0000
,
0000
0000
0000
0003
,
0020
0000
0000
0000
,
0000
0000
0000
0000
0000
3030
0000
0220
,
0000
0000
0330
0000
;

//---------------dance-single - ----------------
#NOTES:
     dance-single:
     :
     Hard:
     12:
     0.567,0.566,0.168,0.311,0.287: // measure 1
1000
0100
0001
0100
1000
1000
0100
0000
,  // measure 2
0010
0100
1000
0010
0001
0010
1000
0000
,  // measure 3
0001
0100
1000
0100
0001
0001
0010
0000
,  // measure 4
1200
0000
0320
0000
0031
0100
0010
1000
,  // measure 5
0100
0001
0100
1000
0001
0001
0010
0000
,  // measure 6
0100
0010
0001
0100
1000
0100
0001
0000
,  // measure 7
1000
0100
0001
0100
1000
1000
0010
0100
,  // measure 8
1002
0000
0000
0000
0000
1000
1003
0000
,  // measure 9
0102
0000
0000
0000
2003
0000
0000
0000
3100
0000
0010
0000
0000
0001
1000
0000
,  // measure 10
0200
0000
0000
0000
0320
0000
0000
0000
0130
0000
1000
0000
0000
0100
0010
0000
,  // measure 11
0002
0000
2003
0000
3001
0100
1000
0100
,  // measure 12
0001
0000
0010
0100
0010
0100
0010
0200
0000
0000
1300
0000
0010
0000
0100
0000
,  // measure 13
0202
0000
0000
0303
0000
0001
1000
0000
0100
0000
0010
0000
0000
0100
1000
0000
,  // measure 14
2002
0000
0000
3003
0000
1000
0001
0000
0100
0000
0001
0000
0000
0010
0100
0000
,  // measure 15
1000
0010
0001
0010
0100
0001
1000
0100
,  // measure 16
0020
0000
0000
0001
0000
0001
0000
0031
0000
0000
0000
0000
1001
0000
1000
0000
,  // measure 17
1020
0000
0230
0000
0301
0010
0100
0010
,  // measure 18
0002
0000
0103
0100
0010
1000
0100
0001
,  // measure 19
0100
0000
1000
0010
0000
0100
0000
0010
0000
0100
0001
0000
0001
0000
0000
0000
,  // measure 20
1000
0010
0001
0010
1000
0100
0010
0000
,  // measure 21
0100
1000
0001
0100
0001
2000
0000
3100
,  // measure 22
0010
0000
0200
0000
0000
0000
1300
0000
0001
0000
0010
0100
0000
0010
0100
0000
,  // measure 23
1000
0010
1000
0000
0100
0010
0001
1000
,  // measure 24
0010
0000
0010
0000
0100
0001
1000
0000
0100
0000
0010
0000
0001
1000
0010
1000
,  // measure 25
0002
0000
0000
0000
1000
0000
0000
0000
1003
0000
0010
0100
0000
0001
0100
0001
,  // measure 26
1000
0000
0010
0000
0001
0000
0010
0000
1000
0000
0000
0000
0000
0100
0010
0000
,  // measure 27
0001
0100
0010
0100
0100
0001
0010
0100
,  // measure 28
2000
0000
0000
0000
0010
0000
3010
0100
0000
0000
0000
0000
0000
0001
0100
0000
,  // measure 29
0020
0000
0000
0000
0100
0000
0000
0000
0130
0000
0000
0000
0001
0010
0100
0000
,  // measure 30
2000
0000
0010
0000
3010
0100
0110
0000
,  // measure 31
0010
0100
0010
1000
0100
0001
0100
1000
,  // measure 32
0010
0010
0010
0010
0110
0000
0101
0000
,  // measure 33
0001
1000
0100
0000
0010
0000
0100
0000
1000
0000
0010
0000
0000
0010
0100
0000
,  // measure 34
0001
0000
1000
0000
0100
0000
0010
0001
0000
0010
0001
0000
0100
0000
0000
0000
,  // measure 35
0000
0010
1000
0000
0100
0000
0010
0000
0001
0000
2000
0000
0000
0000
3010
0000
,  // measure 36
1000
0000
0010
0000
0100
0000
0001
1000
0000
0000
0000
0000
1001
0000
0000
0000
,  // measure 37
0001
0010
0100
0000
0010
0000
0001
0000
1000
0000
0020
0000
0000
0000
0030
0000
,  // measure 38
0000
0100
0001
0000
0010
0000
0100
0000
1000
0000
0002
0000
0000
0000
0103
0000
,  // measure 39
0001
0000
0100
0010
0000
0100
0010
0000
1000
0000
0200
0000
0000
0000
0300
0000
,  // measure 40
1000
0000
0100
0000
0010
0100
0010
0000
0001
0000
0010
0000
0100
0010
0100
0000
,  // measure 41
1000
0000
0002
0000
0000
0000
0013
0000
0100
0000
1000
0001
0000
0100
0000
0001
,  // measure 42
0000
0000
1000
0000
0100
1000
0100
0000
0010
0000
0001
0000
0100
0000
0000
0000
,  // measure 43
0001
1000
0010
1000
0001
1000
0010
0100
,  // measure 44
0001
0000
0010
0000
0000
0100
0010
0000
0001
0000
1000
0000
0000
0000
1020
0000
,  // measure 45
0000
0000
0130
0000
0010
0000
0100
0000
0001
0000
0010
0100
0000
0010
0100
0000
,  // measure 46
1000
0000
0010
0000
1000
0000
0100
0000
0010
0000
0001
0000
0000
0100
0010
0000
,  // measure 47
1000
0000
0010
0100
0010
0000
1000
0000
0001
0000
0010
0001
0010
0000
0100
0000
,  // measure 48
1000
0001
0000
1000
0001
0000
0100
0010
0000
0100
0010
0000
1000
0010
0000
1000
,  // measure 49
0010
0000
0100
0000
0001
0000
0010
0000
0100
0010
0100
0000
0110
0000
0000
0000
,  // measure 50
1000
0000
0010
0000
0100
0000
0010
0000
1000
0001
1000
0000
1001
0000
0000
0000
,  // measure 51
0100
0000
0010
0000
0001
0000
1000
0000
0010
1000
0010
0000
1010
0000
0000
0000
,  // measure 52
0100
0001
0010
1000
0010
0001
1000
0100
,  // measure 53
0011
0000
0001
0000
0100
0000
0010
0000
1000
0001
1000
0000
1001
0000
0000
0000
,  // measure 54
0100
0000
1000
0000
0010
0000
0100
0000
0001
0010
0001
0000
0011
0000
0000
0000
,  // measure 55
0010
0100
1000
0010
0100
0100
1001
0000
,  // measure 56
0010
0001
0000
0010
0001
0000
1000
0010
0000
1000
0010
0000
0100
0010
0000
0100
,  // measure 57
0020
0000
0000
0000
1000
0000
0000
1000
0000
0000
1000
0000
0000
0000
0230
0000
,  // measure 58
0000
0000
0000
0000
0001
0000
0000
0001
0000
0000
0001
0000
0000
0000
0302
0000
,  // measure 59
0000
1000
0000
0000
1000
0000
0000
1000
0000
0000
1000
0000
0000
0000
0203
0000
,  // measure 60
0000
0000
0000
0000
0010
0000
0000
0010
0000
0000
0010
0000
0000
0000
0310
0000
,  // measure 61
0220
0000
0000
0000
,  // measure 62
0000
0000
0000
0300
,  // measure 63
2000
0000
0000
0000
,  // measure 64
0000
0000
0000
0000
0000
3030
0000
2002
,  // measure 65
0000
0000
3003
0000
;

//---------------dance-single - ----------------
#NOTES:
     dance-single:
     :
     Challenge:
     14:
     0.693,0.746,0.319,0.279,0.598: // measure 1
1000
0000
0001
0100
0001
0100
0001
0000
1000
0000
1100
0000
1001
0000
0000
0000
,  // measure 2
0001
0000
0100
0000
0010
0100
0010
0000
1000
0000
1001
0000
0011
0000
0000
0000
,  // measure 3
0100
0000
1000
0001
1000
0001
1000
0000
0010
0000
0110
0000
0101
0000
0000
0000
,  // measure 4
0001
0000
0000
0001
0010
0000
0000
0010
0100
0000
0000
0100
1000
0000
0000
0000
,  // measure 5
0010
0000
0100
0001
0100
0001
0100
0000
0010
0000
1010
0000
1001
0000
0000
0000
,  // measure 6
0001
0000
1000
0000
0100
1000
0100
0000
0010
0000
0011
0000
1001
0000
0000
0000
,  // measure 7
1010
0000
0010
0100
0010
0000
0100
0001
0100
0000
0001
1000
0001
0000
1000
0100
,  // measure 8
0020
0000
0000
0000
0030
1001
1001
0000
,  // measure 9
0001
0000
0100
0000
1000
0000
0100
0000
0001
0000
0101
0000
0000
0100
0010
0000
,  // measure 10
1000
0000
0100
0000
0001
0000
0100
0000
1000
0000
1100
0000
0000
0010
0001
0000
,  // measure 11
1000
0010
0001
0010
1000
0001
0100
0100
,  // measure 12
0010
0000
1000
0100
0010
0001
1000
0002
0000
0000
0103
0000
0010
1000
0100
0000
,  // measure 13
1002
0000
0000
0000
0003
0010
0100
0000
1000
0000
1100
0000
0000
0010
0001
0000
,  // measure 14
2001
0000
0000
0000
3000
0100
0010
0000
0001
0000
0011
0000
0000
0100
1000
0000
,  // measure 15
0010
0010
0100
0100
0002
0000
0013
0100
,  // measure 16
1000
0001
0000
0100
0000
0001
0000
0100
0000
0000
0010
0000
1000
0100
0010
0000
,  // measure 17
0201
0000
0320
0000
1030
0100
0010
0100
,  // measure 18
2000
0000
0000
0000
3001
0000
0100
0000
0010
0000
1000
0100
0000
0100
0010
0000
,  // measure 19
0001
0000
1000
0010
0000
0100
0000
0001
0000
1000
0010
0000
1010
0000
0000
0000
,  // measure 20
0100
0001
0100
0000
0010
0100
0010
0000
1000
0100
0010
0100
1000
0000
0000
0000
,  // measure 21
0001
1000
0010
0000
0100
0000
0001
0000
0010
0000
0200
0000
0000
0000
1300
0000
,  // measure 22
0010
0000
0200
0000
0000
0000
0301
0000
0010
0000
0100
0010
0000
0010
0001
0000
,  // measure 23
0100
0000
0020
0000
0000
0000
0130
0000
0000
0001
0010
0000
0100
0000
1000
0000
,  // measure 24
0001
1000
0001
0000
0100
0001
1000
0000
0100
0010
0001
0000
0100
0010
0100
0001
,  // measure 25
1000
0000
0000
1000
0010
0000
0000
0010
0100
0000
0001
1000
0000
0001
1000
0100
,  // measure 26
0010
0000
0010
0000
0001
0000
0001
0000
0100
0000
0000
0000
0000
0010
0100
0001
,  // measure 27
0010
0100
1000
1000
0010
0010
0100
0001
,  // measure 28
0020
0000
0000
0000
0130
0000
1000
0100
0000
0000
0000
0000
0000
0010
0001
1000
,  // measure 29
0020
0000
0000
0100
0000
0000
0130
0000
0000
0000
0000
0000
0001
0010
0100
0000
,  // measure 30
2000
0000
0000
0010
0000
0000
3010
0000
0000
0000
0100
0000
0110
0000
0000
0000
,  // measure 31
0010
1000
0100
0001
0100
1000
0001
0100
,  // measure 32
0110
0110
0110
0110
1001
0000
0011
0000
,  // measure 33
0100
1000
0020
0000
0100
0000
0130
0000
0001
0000
0010
0000
0000
0100
0010
0000
,  // measure 34
0001
0000
0001
0000
0100
0000
0010
1000
0000
0010
1000
0000
0001
0000
0000
0000
,  // measure 35
0000
0100
0010
0000
0100
0000
0001
0000
0010
0000
0200
0000
0000
0000
1300
0000
,  // measure 36
0100
0000
0010
0000
0100
1000
0100
1000
0001
0000
0100
0000
1001
0000
0000
0000
,  // measure 37
0001
0100
0010
0000
0100
0000
0001
0000
0010
0000
0200
0000
0000
0000
0300
0000
,  // measure 38
0000
1000
0010
0000
1000
0000
0100
0000
0010
0000
0002
0000
0000
0000
1003
0000
,  // measure 39
0001
0000
0100
0001
0000
0100
0001
0000
0010
0000
0200
0000
0000
0000
0300
0000
,  // measure 40
1000
0001
1000
0000
0010
0100
0010
0000
1000
0010
1000
0010
0100
0000
0001
0000
,  // measure 41
1001
0000
2100
0000
0000
0000
3001
0000
1000
0000
0010
0100
0000
0001
0000
0020
,  // measure 42
0000
0000
0130
0000
1000
0100
0010
0000
0000
0001
0100
0010
0100
0002
0000
0000
,  // measure 43
1003
0200
1000
2300
0001
3002
0100
0103
,  // measure 44
0110
0000
1020
0000
0000
0130
0001
0000
0100
0010
1000
0000
0000
0000
1020
0000
,  // measure 45
0000
0000
0130
0000
0001
0000
0010
0000
0100
0000
1000
0001
0000
1000
0001
0000
,  // measure 46
0010
0000
0200
0000
0000
0000
0310
0000
0001
1000
0001
0000
0000
0010
0100
0000
,  // measure 47
1000
0001
0100
0000
0010
1000
0010
0000
0100
0001
1000
0100
0010
0001
0100
0000
,  // measure 48
0010
1000
0000
1000
0100
0000
0100
0010
0000
0010
0001
0000
0001
0100
0000
0100
,  // measure 49
0010
0000
1000
0001
1000
0001
1000
0000
0100
1000
0010
0100
0001
0000
1000
0000
,  // measure 50
0010
0000
0100
0001
0100
0001
0100
0000
0001
0010
0100
1000
0010
0000
1000
0000
,  // measure 51
0001
0000
0010
0001
0010
0001
0010
0000
0100
1000
0010
0100
0001
0000
1000
0000
,  // measure 52
0100
0000
0000
0100
0010
0000
0000
0010
0001
0000
0000
0001
0100
0000
0000
0000
,  // measure 53
1001
0000
1000
0010
1000
0010
1000
0000
0001
0010
0100
1000
0010
0000
1000
0000
,  // measure 54
0001
0000
0010
0001
0010
0001
0010
0000
0100
1000
0010
0100
0001
0000
0100
0000
,  // measure 55
0010
0000
1000
0001
1000
0001
1000
0000
0110
0000
0110
0000
1001
0000
0000
0000
,  // measure 56
0001
0100
0001
0100
0010
1000
0010
1000
0100
0010
0100
0010
0001
1000
0001
1000
,  // measure 57
0001
0010
0000
0001
0010
0000
0100
1000
0000
0100
1000
0000
0010
0000
0100
0000
,  // measure 58
0001
1000
0000
0001
1000
0000
0010
0100
0000
0010
0100
0000
0001
0000
0010
0000
,  // measure 59
0100
0010
0000
0100
0010
0000
0001
0100
0000
0001
0100
0000
0010
0000
1000
0000
,  // measure 60
0100
0010
0000
0100
0010
0000
0100
1000
0000
0100
1000
0000
0001
0000
0100
0000
,  // measure 61
2002
0000
0000
3000
,  // measure 62
0200
0000
0000
0300
,  // measure 63
0020
0000
0000
0030
,  // measure 64
2000
0000
0000
0000
0000
3003
0000
0220
,  // measure 65
0000
0000
0330
0000
;

//---------------dance-single - ----------------
#NOTES:
     dance-single:
     :
     Beginner:
     2:
     0.091,0.153,0.080,0.000,0.000:
1000
0000
0000
0000
,
0100
0000
0000
0000
,
0010
0000
0000
0000
,
0001
0000
0001
0000
,
1000
0000
0000
0000
,
0010
0000
0000
0000
,
0100
0000
0100
0000
,
1001
0000
0000
0000
,
0100
0000
0000
0000
,
0010
0000
0000
0000
,
0100
0000
0000
0000
,
0010
0000
0000
0000
,
0001
0000
0000
0000
,
1000
0000
0000
0000
,
0001
0000
0000
0000
,
1000
0000
0000
0000
,
1001
0000
0000
0000
,
0001
0000
0000
0000
,
0100
0000
0000
0000
,
0010
0000
0000
0000
,
0100
0000
0000
0000
,
0001
0000
0000
0000
,
0100
0000
0000
0000
,
0010
0000
0000
0000
,
1001
0000
0000
0000
,
1000
0000
0000
0000
,
0001
0000
0000
0000
,
1000
0000
0000
0000
,
0100
0000
0000
0000
,
0100
0000
0000
0000
,
0010
0000
0000
0000
,
1001
0000
0000
0000
,
0001
0000
0000
0000
,
0100
0000
0000
0000
,
0001
0000
0000
0000
,
1000
0000
0000
0000
,
0100
0000
0000
0000
,
0010
0000
0000
0000
,
0100
0000
0000
0000
,
0010
0000
0000
0000
,
0001
0000
0000
0000
,
1000
0000
0000
0000
,
0010
0000
0000
0000
,
1000
0000
0000
0000
,
0001
0000
0000
0000
,
0010
0000
0000
0000
,
0100
0000
0100
0000
,
0100
0000
0000
0000
,
1001
0000
0001
0000
,
1000
0000
0100
0000
,
1000
0000
0100
0000
,
0010
0000
0000
0000
,
1001
0000
1000
0000
,
0001
0000
1000
0000
,
0010
0000
0100
0000
,
0110
0000
0000
0000
,
1001
0000
0000
0000
,
0000
0000
0000
0000
,
0001
0000
0000
0000
,
0000
0000
0000
0000
,
1001
0000
0000
0000
,
0000
0000
0000
0000
,
1000
0000
0000
0000
,
0000
0000
0000
0000
0000
0000
0000
1001
;
