#TITLE:waxing and wanding;
#SUBTITLE:;
#ARTIST:青龍;
#TITLETRANSLIT:;
#SUBTITLETRANSLIT:;
#ARTISTTRANSLIT:SEIRYU;
#CREDIT:DigiMindAxel;
#BANNER:waxing and wanding.png;
#BACKGROUND:waxing and wanding-bg.png;
#LYRICSPATH:;
#CDTITLE:beatmania IIDX.png;
#MUSIC:waxing and wanding.ogg;
#METERTYPE:DDR X;
#OFFSET:-5.456;
#SAMPLESTART:12.946;
#SAMPLELENGTH:12.000;
#SELECTABLE:YES;
#BPMS:0.000=191.000,149.000=95.500,181.000=191.000;
#STOPS:20.000=0.9424083769
;
#BGCHANGES:;

//---------------dance-single - ----------------
#NOTES:
     dance-single:
     :
     Easy:
     7:
     0.329,0.294,0.042,0.051,0.000: // measure 1
1001
0000
0000
0000
,  // measure 2
0001
0001
1000
1000
,  // measure 3
1001
0000
0010
0000
,  // measure 4
0010
0100
0010
0100
,  // measure 5
0001
0010
0100
1000
,  // measure 6
0001
1000
0100
1000
,  // measure 7
0100
0010
0010
0100
,  // measure 8
0100
0010
0001
0010
,  // measure 9
0000
0001
0100
0010
,  // measure 10
0100
0001
1000
0001
,  // measure 11
1000
0100
0100
0010
,  // measure 12
0010
0001
0100
0001
,  // measure 13
0100
0010
1000
1000
,  // measure 14
1000
0100
0010
0001
,  // measure 15
1000
0100
0010
0001
,  // measure 16
0000
1000
1000
0010
,  // measure 17
0000
0100
0001
0010
,  // measure 18
0100
1000
0010
0100
,  // measure 19
0001
1000
0010
0100
,  // measure 20
0000
0001
0001
0010
,  // measure 21
0000
0001
0010
0100
,  // measure 22
1000
0010
0100
0010
,  // measure 23
0100
0001
1000
0001
,  // measure 24
1000
0100
1000
0100
,  // measure 25
1000
0001
0010
0100
,  // measure 26
0010
0001
0100
0001
,  // measure 27
0100
0010
1000
0010
,  // measure 28
1000
0001
0010
0001
,  // measure 29
0010
0100
1000
0100
,  // measure 30
1000
0001
0010
0100
,  // measure 31
1000
0001
0010
0100
,  // measure 32
0000
0010
0001
1000
,  // measure 33
0010
0100
0001
1000
,  // measure 34
0000
0010
1000
0001
,  // measure 35
0010
0100
0010
0001
,  // measure 36
0000
0010
0001
0100
,  // measure 37
0010
1000
0100
0010
,  // measure 38
0000
2002
0000
0000
,  // measure 39
0000
0000
0000
3003
,  // measure 40
0000
0220
0000
0000
,  // measure 41
0000
0000
0000
0330
,  // measure 42
0000
0001
0000
0010
,  // measure 43
0000
0100
0000
1000
,  // measure 44
0000
0010
0000
0100
,  // measure 45
0000
0010
0000
1000
,  // measure 46
0000
0001
1000
0001
,  // measure 47
0010
0100
0100
0100
,  // measure 48
0000
0010
0001
0100
,  // measure 49
0010
1000
1000
1000
,  // measure 50
0000
0100
0010
0100
,  // measure 51
1000
0010
0010
0010
,  // measure 52
0000
0100
0001
0010
,  // measure 53
0100
1000
0001
1000
,  // measure 54
0000
0100
1000
0100
,  // measure 55
0010
0001
0001
0001
,  // measure 56
0100
0010
1000
0100
,  // measure 57
0010
0001
0001
0001
,  // measure 58
0000
0010
0100
1000
,  // measure 59
0010
0100
0100
0100
,  // measure 60
0001
1000
0100
0010
,  // measure 61
0001
0100
0100
0100
,  // measure 62
0000
0010
0100
0001
,  // measure 63
0000
1000
1000
0001
,  // measure 64
0001
0010
0100
1000
,  // measure 65
0000
0010
0100
0100
,  // measure 66
0100
0001
0010
0100
,  // measure 67
0000
0010
0010
0001
,  // measure 68
0001
0100
0010
1000
,  // measure 69
0000
0100
0010
0001
,  // measure 70
1000
0010
0010
0100
,  // measure 71
0100
0001
0010
0100
,  // measure 72
1000
0010
0010
0100
,  // measure 73
0100
0001
0010
0100
,  // measure 74
0010
0001
0001
0100
,  // measure 75
0100
0010
1000
0100
,  // measure 76
0000
0010
0010
0001
,  // measure 77
0001
0100
0010
2002
,  // measure 78
0000
3003
0000
0000
;

//---------------dance-single - ----------------
#NOTES:
     dance-single:
     :
     Medium:
     12:
     0.597,0.556,0.677,0.169,0.000: // measure 1
1001
0000
0000
0000
,  // measure 2
1000
0100
1000
0001
0010
0001
1000
0000
,  // measure 3
1001
0000
0011
0000
,  // measure 4
1100
1100
1100
1100
,  // measure 5
1001
0000
0101
0000
0001
1000
0100
0010
,  // measure 6
0001
0011
1100
0011
,  // measure 7
1100
0000
0010
0001
0010
1000
0100
1000
,  // measure 8
0010
0101
1010
0101
,  // measure 9
1010
0100
0110
0110
,  // measure 10
0110
1100
0011
1100
,  // measure 11
0011
0000
0100
1000
0100
0001
0010
0001
,  // measure 12
0100
1010
0101
1010
,  // measure 13
0101
0110
0110
1001
,  // measure 14
1001
0000
1000
0100
0010
0000
0100
1000
,  // measure 15
0010
0000
0100
0001
0010
0100
1000
0001
,  // measure 16
0000
0000
0010
0000
0100
0010
0100
0000
,  // measure 17
1000
0010
0101
1001
,  // measure 18
1010
0000
0100
0001
0010
0000
0001
0010
,  // measure 19
0100
0000
1000
0100
0010
0001
1000
0010
,  // measure 20
0000
0000
0100
0000
0001
0010
0001
0000
,  // measure 21
0100
0110
0110
1001
,  // measure 22
1001
0000
0010
0001
1000
0000
1000
0001
,  // measure 23
0010
0000
0100
1000
0010
0000
0010
1000
,  // measure 24
0100
0000
0010
0100
1000
0000
1000
0100
,  // measure 25
0010
0000
0100
0010
0001
0010
0001
0010
,  // measure 26
0100
0000
0010
0001
1000
0000
1000
0001
,  // measure 27
0010
0000
0100
1000
0010
0000
0010
1000
,  // measure 28
0100
0000
1000
0100
0010
0000
0010
0100
,  // measure 29
1000
0000
0001
0100
0010
0100
0010
0100
,  // measure 30
0001
0000
1000
0100
1000
0100
0010
0000
,  // measure 31
0010
0000
0001
0100
0001
0100
0010
0000
,  // measure 32
0010
0000
0100
0001
0100
0001
1000
0000
,  // measure 33
1000
0000
0100
0010
0100
0010
0001
0000
,  // measure 34
0010
0000
0010
0001
0010
0001
0100
0000
,  // measure 35
0100
0000
0010
1000
0010
1000
0001
0000
,  // measure 36
0010
0000
0010
0100
0010
0100
1000
0000
,  // measure 37
1000
0000
0001
0100
0001
0100
0010
0000
,  // measure 38
0000
2001
3002
0203
,  // measure 39
0302
2003
3200
0320
,  // measure 40
0000
0030
1002
0000
0023
0000
0032
0000
,  // measure 41
0203
0320
0230
0302
,  // measure 42
0000
0003
1000
0100
0001
0000
0100
1000
,  // measure 43
0100
0000
0001
0010
1000
0000
0010
0001
,  // measure 44
0010
0000
1000
0100
0001
0100
1000
0100
,  // measure 45
0010
0000
0001
0010
1000
0010
0001
0010
,  // measure 46
0100
0000
0010
0001
0010
0001
0100
0000
,  // measure 47
0110
0000
1000
0001
0100
0001
1000
0001
,  // measure 48
0000
0000
0010
0100
0010
0100
1000
0000
,  // measure 49
1100
0000
0010
0001
0100
0001
0010
0000
,  // measure 50
0100
0000
1000
0010
1000
0010
0100
0000
,  // measure 51
0110
0000
0001
0010
0100
0010
0001
0100
,  // measure 52
0000
1010
0010
1001
,  // measure 53
0010
1100
1100
1100
,  // measure 54
0000
0000
0010
0001
0010
0001
0100
0000
,  // measure 55
0101
0000
0010
1000
0100
1000
0010
1000
,  // measure 56
0000
0000
0010
0100
0010
0100
0001
0000
,  // measure 57
0101
0000
0010
1000
0100
1000
0010
0000
,  // measure 58
0100
0000
0001
1000
0001
1000
0100
0000
,  // measure 59
1100
0000
0010
0001
1000
0001
0010
0001
,  // measure 60
0000
0011
0100
1010
,  // measure 61
0100
1001
1001
1001
,  // measure 62
0000
0000
1000
0000
0001
0010
0200
0000
,  // measure 63
0000
1300
0110
0001
,  // measure 64
0110
0000
1000
0000
0001
0100
0020
0000
,  // measure 65
0000
1030
0110
0100
,  // measure 66
0110
0000
0001
0000
1000
0100
0020
0000
,  // measure 67
0000
0031
0110
1000
,  // measure 68
0110
0000
0001
0000
1000
0010
0200
0000
,  // measure 69
0000
0301
0110
0110
,  // measure 70
0110
0000
1000
0100
1000
0001
1000
0100
,  // measure 71
1000
1001
0110
1001
,  // measure 72
0000
0000
0001
0010
0001
1000
0001
0010
,  // measure 73
0001
1001
0110
1001
,  // measure 74
1000
0000
0010
0100
0010
1000
0010
0100
,  // measure 75
0010
1001
0110
1001
,  // measure 76
0000
0011
0100
1010
,  // measure 77
0100
1001
0110
2002
,  // measure 78
0000
3003
0000
0000
;

//---------------dance-single - ----------------
#NOTES:
     dance-single:
     :
     Hard:
     14:
     0.671,0.588,0.338,0.271,0.013: // measure 1
0202
0000
0000
0303
,  // measure 2
0010
1000
0100
0000
0010
0001
0100
0000
,  // measure 3
0220
0330
2002
3003
,  // measure 4
0110
1100
1100
1100
,  // measure 5
0110
0000
0000
0000
0011
0000
0000
0000
0001
0000
0100
0000
0010
1000
0010
1000
,  // measure 6
0010
0000
1000
0100
0010
0001
2000
0000
,  // measure 7
0000
0000
3001
1000
0100
0000
0010
0001
,  // measure 8
0100
0000
0001
1000
0100
0010
0002
0000
,  // measure 9
0000
0103
1010
0101
,  // measure 10
1010
0000
0010
0100
0001
0010
0200
0000
,  // measure 11
0000
0000
0310
0001
1000
0000
0100
1000
,  // measure 12
0001
0000
1000
0010
0100
0001
2000
0000
,  // measure 13
0000
3100
0011
1001
,  // measure 14
0001
1000
0001
0100
1000
0100
0001
0010
,  // measure 15
0100
0010
0001
0100
1000
0100
0001
0010
,  // measure 16
0000
0000
0001
0010
0100
1000
0020
0000
,  // measure 17
0000
0130
0011
1100
,  // measure 18
0001
0010
0001
0010
1000
0010
0001
1000
,  // measure 19
0010
0100
0001
0010
1000
0010
0001
1000
,  // measure 20
0000
0000
0100
0010
0001
1000
0020
0000
,  // measure 21
0000
0130
0101
1010
,  // measure 22
0101
0000
0001
1000
0100
1000
0100
0010
,  // measure 23
0100
0010
0001
0100
1000
0100
0001
0010
,  // measure 24
0100
1000
0001
0010
0001
0010
0100
0010
,  // measure 25
0100
1000
0001
0010
1000
0010
0001
0010
,  // measure 26
0100
1000
0100
0010
0001
1000
0100
0010
,  // measure 27
0100
1000
0001
0100
1000
0100
0001
0010
,  // measure 28
0100
1000
0001
0010
0100
0010
0001
1000
,  // measure 29
0010
1000
0001
0010
1000
0010
0001
0010
,  // measure 30
0100
0000
0100
1000
0001
1000
0100
1000
,  // measure 31
0001
1000
0100
0000
1100
0000
1001
0000
,  // measure 32
0000
0010
0100
0001
0010
0100
0010
0001
,  // measure 33
0010
0100
0001
1000
0100
0010
0001
0000
,  // measure 34
1000
0100
0010
0001
1000
0010
1000
0001
,  // measure 35
0010
0001
1000
0000
1010
0000
1001
0000
,  // measure 36
0000
0001
1000
0010
0100
1000
0100
0010
,  // measure 37
1000
0001
0100
0001
1000
0100
0010
0000
,  // measure 38
0100
2001
3020
0032
,  // measure 39
0023
0230
0302
2000
,  // measure 40
0000
3003
0102
0000
0203
0000
2300
0000
,  // measure 41
3200
0320
2030
0002
,  // measure 42
3003
1000
0001
0010
1000
0010
0001
0100
,  // measure 43
0001
0000
1000
0010
0001
0010
1000
0100
,  // measure 44
1000
0001
0100
1000
0100
0010
1000
0001
,  // measure 45
1000
0000
0001
0010
1000
0001
0010
0100
,  // measure 46
0001
0000
1000
0001
1000
0000
0100
0000
0001
0000
0100
0000
1000
0000
0010
0000
,  // measure 47
1000
0001
0100
0010
0001
0010
0100
0010
,  // measure 48
0000
0001
1000
0010
0001
0010
1000
0001
,  // measure 49
0010
0100
0010
0001
1000
0010
1000
0000
,  // measure 50
0001
1000
0001
0100
1000
0100
0001
0100
,  // measure 51
0010
0001
0010
0100
0001
1000
0010
0100
,  // measure 52
0000
0001
1000
0100
0010
0100
1000
0001
,  // measure 53
0100
0001
0101
0000
1001
0000
1010
0000
,  // measure 54
1000
0001
1000
0010
0001
0010
1000
0100
,  // measure 55
0010
0100
1000
0100
0001
0100
1000
0001
,  // measure 56
0000
0100
0001
0010
1000
0010
0001
1000
,  // measure 57
0100
1000
0001
0100
0010
1000
0100
0000
,  // measure 58
0010
0100
0010
0001
0010
1000
0010
0001
,  // measure 59
0100
0010
1000
0010
0100
0010
1000
0001
,  // measure 60
0000
0010
0100
1000
0001
0100
1000
0100
,  // measure 61
0001
0010
0011
0000
1001
0000
1100
0000
,  // measure 62
0000
0000
1000
0100
0010
0001
0200
0000
,  // measure 63
0000
0310
1001
0010
,  // measure 64
1001
0000
0001
0010
0100
1000
0020
0000
,  // measure 65
0000
0130
1001
0100
,  // measure 66
1001
0000
0001
0100
0010
1000
0200
0000
,  // measure 67
0000
0000
0310
0001
1000
0000
0100
1000
,  // measure 68
0001
0000
0010
0100
1000
0001
0200
0000
,  // measure 69
0000
0301
0110
0110
,  // measure 70
1001
0001
1000
0010
0001
0010
0100
0001
,  // measure 71
1000
0100
0010
0100
1000
0001
0100
0001
,  // measure 72
0000
1000
0001
0100
1000
0100
0010
1000
,  // measure 73
0001
0100
0010
0001
0010
0100
0001
0000
,  // measure 74
0100
0010
1000
0010
0001
0010
0100
0001
,  // measure 75
1000
0010
0100
1000
0100
0010
1000
0001
,  // measure 76
0000
0010
0100
1000
0001
0100
1000
0100
,  // measure 77
0010
1000
1001
0010
0100
0010
2002
0000
,  // measure 78
0000
3003
0000
0000
;

//---------------dance-single - ----------------
#NOTES:
     dance-single:
     :
     Beginner:
     4:
     0.144,0.162,0.017,0.000,0.000: // measure 1
1000
0000
0000
0000
,  // measure 2
0000
0000
0000
0000
,  // measure 3
0001
0000
1000
0000
,  // measure 4
0001
0000
0010
0000
,  // measure 5
0100
0000
1000
0000
,  // measure 6
0000
0010
0000
0010
,  // measure 7
0000
0100
0000
0000
,  // measure 8
0000
0001
0000
0001
,  // measure 9
0000
1000
0000
0000
,  // measure 10
0000
0100
0000
0100
,  // measure 11
0000
1000
0000
0000
,  // measure 12
0000
0010
0000
0010
,  // measure 13
0000
0100
0000
0000
,  // measure 14
0000
0001
0000
1000
,  // measure 15
0000
0001
0000
0000
,  // measure 16
0000
1000
0000
0100
,  // measure 17
0000
0010
0000
0000
,  // measure 18
0000
0100
0000
1000
,  // measure 19
0000
0100
0000
0000
,  // measure 20
0000
0010
0000
0001
,  // measure 21
0000
0100
0000
0000
,  // measure 22
0000
0001
0000
0100
,  // measure 23
0000
0001
0000
0100
,  // measure 24
0000
0001
0000
0100
,  // measure 25
0000
0001
0000
0100
,  // measure 26
0000
0010
0000
1000
,  // measure 27
0000
0010
0000
1000
,  // measure 28
0000
0010
0000
1000
,  // measure 29
0000
0010
0000
1000
,  // measure 30
0000
0001
0000
0010
,  // measure 31
0000
0100
0000
0000
,  // measure 32
0000
0010
0000
0100
,  // measure 33
0000
1000
0000
0000
,  // measure 34
0000
0010
0000
0100
,  // measure 35
0000
0001
0000
0000
,  // measure 36
0000
0100
0000
0010
,  // measure 37
0000
1000
0000
0000
,  // measure 38
0000
1001
0000
0000
,  // measure 39
0000
0000
0000
0000
,  // measure 40
0000
0000
0000
0000
,  // measure 41
0000
0000
0000
0000
,  // measure 42
0000
0001
0000
0100
,  // measure 43
0000
0001
0000
1000
,  // measure 44
0000
0100
0000
1000
,  // measure 45
0000
0010
0000
0100
,  // measure 46
0000
0001
0000
0001
,  // measure 47
0000
0001
0000
0000
,  // measure 48
0000
1000
0000
1000
,  // measure 49
0000
1000
0000
0000
,  // measure 50
0000
0010
0000
0010
,  // measure 51
0000
0100
0000
0000
,  // measure 52
0000
0001
0000
0001
,  // measure 53
0000
1000
0000
0000
,  // measure 54
0000
0100
0000
0010
,  // measure 55
0000
0100
0000
0010
,  // measure 56
0000
0001
0000
0100
,  // measure 57
0000
0001
0000
0100
,  // measure 58
0000
0010
0000
1000
,  // measure 59
0000
0010
0000
1000
,  // measure 60
0000
0001
0000
0001
,  // measure 61
0000
1000
0000
0100
,  // measure 62
0000
0010
0000
0000
,  // measure 63
0000
0010
0000
0000
,  // measure 64
0000
0100
0000
0000
,  // measure 65
0000
0100
0000
0000
,  // measure 66
0000
1000
0000
0000
,  // measure 67
0000
1000
0000
0000
,  // measure 68
0000
0001
0000
0000
,  // measure 69
0000
0001
0000
0000
,  // measure 70
0000
0100
0000
0010
,  // measure 71
0000
0100
0000
0000
,  // measure 72
0000
0001
0000
0100
,  // measure 73
0000
0001
0000
0000
,  // measure 74
0000
1000
0000
0001
,  // measure 75
0000
1000
0000
0000
,  // measure 76
0000
0100
0000
0010
,  // measure 77
0000
0100
0000
0110
;
