#TITLE:virkatoの主題によるperson09風超絶技巧変奏曲;
#SUBTITLE:;
#ARTIST:Wakhmaninov Akhutaninov;
#TITLETRANSLIT:virkato no shudai ni yoru person09 fuu chouzetsu gikou hensoukyoku;
#SUBTITLETRANSLIT:;
#ARTISTTRANSLIT:;
#GENRE:;
#CREDIT:t7r VS DigiMindAxel;
#MUSIC:virkato no shudai ni yoru person09 fuu chouzetsu gikou hensoukyoku.ogg;
#BANNER:virkato no shudai ni yoru person09 fuu chouzetsu gikou hensoukyoku.png;
#BACKGROUND:virkato no shudai ni yoru person09 fuu chouzetsu gikou hensoukyoku-bg.png;
#CDTITLE:NOSTALGIA.png;
#SAMPLESTART:1.333;
#SAMPLELENGTH:15.000;
#SELECTABLE:YES;
#OFFSET:0.000;
#BPMS:0.000=180.000
,161.000=170.000
,162.000=160.000
,163.000=150.000
,164.500=165.000
,165.000=180.000
,210.500=172.000
,211.000=164.000
,211.500=156.000
,212.000=180.000
,258.000=177.000
,258.500=174.000
,259.000=171.000
,259.500=168.000
,260.000=165.000
,260.500=162.000
,261.000=159.000
,261.500=156.000
,262.000=180.000
,300.000=177.000
,301.000=174.000
,302.000=171.000
,303.000=168.000
,304.000=160.000
,304.333=157.000
,304.667=154.000
,305.000=151.000
,305.333=148.000
,305.667=145.000
,306.000=180.000
,374.000=175.000
,375.000=168.000
,376.000=161.000
,377.000=154.000
,378.000=147.000
,379.000=137.000
,380.000=125.000
,381.000=111.000
,382.000=77.000
;
#STOPS:;
#MENUCOLOR:;
#METERTYPE:DDR X;
#LISTSORT:;
#BGCHANGES:;
#FGCHANGES:;

//--------------- dance-single - DigiMindAxel ----------------
#NOTES:
     dance-single:
     DigiMindAxel:
     Beginner:
     8:
     0.308,0.313,0.27,0,0:
0000
0000
0000
0000
,
0000
0000
0000
0000
,
0000
0000
0000
0000
,
0000
0000
0000
0000
,
0000
0000
0000
0000
,
0001
0000
0100
0000
,
0010
0100
0010
0010
,
1000
0000
0100
0000
,
0010
0001
0010
0001
,
1001
0000
0000
0000
,
0000
0000
0000
0100
,
0110
0000
0110
0000
,
1001
0000
1001
0000
,
0110
0000
0000
0000
,
0000
0000
0000
0001
,
1001
0000
1001
0000
,
0110
0000
0110
0000
,
1001
0000
0100
0000
,
0010
0000
0001
0001
,
1000
0100
1000
0100
,
0010
0001
0010
0001
,
0100
0010
0100
0010
,
1000
0001
1000
0001
,
0100
0001
0100
0001
,
1000
0000
0100
0000
,
0010
0000
0001
0000
,
1000
1001
0000
1001
,
0000
0110
0000
0110
,
0000
1001
0000
1001
,
0000
0110
0010
0100
,
0010
0110
0000
1001
,
0000
0110
0000
1001
,
0000
0110
0000
1001
,
0000
0110
0100
0000
,
1001
0100
1000
0100
,
1000
0010
0000
0010
,
1000
0100
0010
0001
,
0010
0001
0100
0010
,
0100
0001
0010
0100
,
1000
0001
0010
0100
,
1000
0001
0001
0001
,
1000
0000
0000
1000
0000
0000
1000
0000
,
0000
1000
0000
0000
1000
0000
0000
0010
,
0000
0000
0010
0000
0000
0010
0000
0000
,
0010
0000
0000
0100
0000
0000
0100
0000
,
0000
0100
0000
0000
0100
0000
0000
0001
,
0000
0000
0001
0000
0000
0001
0000
0000
,
0001
0000
0000
0010
0000
0000
0100
0000
,
0000
1000
0000
0000
0001
0000
0000
0010
,
0000
0000
0100
0000
0000
1000
0000
0000
,
0001
0000
1000
0010
,
0000
0100
0001
0000
,
0010
0100
0000
0000
,
1001
0000
0001
0000
,
0001
0000
0001
0000
,
0001
1000
0100
0000
,
1000
0001
0010
0000
,
0001
1000
0010
0000
,
1000
0001
0100
0001
,
1000
0100
0010
0000
,
0001
0010
0100
0000
,
1000
0100
0010
0000
,
0001
0010
0100
1000
,
0001
0000
0000
0100
,
0000
0000
0010
0000
,
0000
0000
1001
0000
,
1000
0000
1000
0000
,
1000
1000
1000
0001
,
0010
0000
0001
0010
,
0100
0000
0010
0001
,
0100
0010
1000
0100
,
1000
0000
0010
0000
0000
0100
0000
0100
,
0000
0100
0000
0100
0000
0010
0000
0010
,
0000
0010
0000
0010
0000
1000
0000
1000
,
0000
1000
0000
1000
0000
0000
1001
0000
,
0000
0000
0000
0000
,
0000
0000
1001
0000
,
0000
0000
0000
1001
,
0010
0100
1000
0001
,
0100
0001
1000
0100
,
0010
0001
1000
0100
,
1000
0010
1000
0001
,
0010
0100
1000
0001
,
0100
0001
1000
0100
,
0010
0001
0100
0010
,
0100
0001
0100
0010
,
0100
0001
0100
0100
,
0010
0010
0100
0100
,
0010
0010
1000
0000
,
1000
0000
0001
0000
,
0001
0000
1000
1001
,
0000
0110
0000
1001
,
0000
0110
0001
1000
,
1000
0010
0010
0100
,
0010
0100
0110
0000
,
0010
0000
1001
0000
;

//--------------- dance-single - t7r ----------------
#NOTES:
     dance-single:
     t7r:
     Easy:
     12:
     0,0,0,0,0:
0000
0000
0000
0000
,
0000
0000
0000
0000
,
0000
0000
0000
0000
,
0000
0000
0000
0000
,
0000
0000
0000
0000
,
0020
0000
0000
0030
,
0200
0000
0000
0300
,
0002
0000
2003
0000
,
3010
0100
0010
1000
,
1001
1000
0100
0010
,
0001
0100
0010
1000
,
1010
0000
0100
0001
0010
0000
0100
1000
,
0010
0000
0100
0001
1000
0000
0110
0000
,
1001
0001
0010
0100
,
1000
0010
0100
0110
,
1001
0000
0001
1000
0010
0000
1000
0001
,
0100
0000
0001
1000
0100
1000
0001
0010
,
0001
1000
0100
0001
,
0100
0010
0001
1001
,
0110
0001
0010
0100
,
1000
0000
0001
0100
0001
0000
1000
0000
,
0001
0010
1000
0010
,
0001
0100
1000
0100
,
0001
0010
0100
1000
,
0010
0102
0013
2100
,
3010
1001
0110
1001
,
0010
2100
3010
0102
,
1003
1020
0130
0102
,
0013
0001
0200
0000
0310
1000
0200
0000
,
0310
0001
2000
0000
3100
0010
0002
0000
,
1003
0120
1030
0210
,
0301
0012
1003
2010
,
3001
0120
1030
0210
,
0301
0102
0103
0201
,
0310
0000
0000
0100
0000
0001
0100
0000
0000
0010
0000
1000
,
0010
1000
0001
0100
,
0001
0000
0000
0010
0000
0001
0010
0000
0000
0100
0000
1000
,
0100
0000
0000
1000
0000
0001
1000
0000
0000
0001
0000
0000
,
1000
0010
0001
0010
,
1000
0100
0001
0100
,
1000
1100
0101
1100
,
1000
0100
0010
0001
0100
0000
0001
0010
,
0100
1000
0010
0000
1000
0010
0100
0001
,
1000
0000
0001
0010
0100
1000
0001
0000
,
1000
0100
0010
0100
1000
0000
0001
0010
,
0100
0010
0001
0000
1000
0010
0001
0010
,
1000
0000
0001
0010
1000
0010
0001
0000
,
1000
0000
0010
0100
0000
0001
0010
0000
,
0100
1000
0000
0001
0100
0000
0010
1000
,
0000
0001
0010
0000
1000
0010
0000
0001
,
1000
0100
0010
0001
0100
0100
0001
0010
,
0100
1000
0100
0100
1000
0010
0100
0010
,
1000
1000
0001
0010
0100
0010
0001
0001
,
2002
0000
0000
0000
,
0000
0000
0000
3003
,
1000
0100
0100
1000
0001
0000
0011
0000
,
0001
0100
0100
0001
1000
0000
1010
0000
,
1000
0100
0100
0010
0001
0000
0110
0000
,
0001
1010
1001
0110
,
1000
1010
0001
0011
,
1000
0101
0010
1100
,
0010
0000
0101
0000
0010
1000
0100
0010
,
0001
1100
0011
1001
,
0001
0100
0001
1000
0100
1000
0001
0010
,
0001
1000
0010
1000
0002
0000
0023
0000
,
2030
3010
2002
0000
,
0000
0000
0000
0000
,
0000
0000
3003
0000
1000
0100
0010
0100
,
1000
0010
2000
0000
3001
0010
0100
0010
,
0001
1000
0002
0000
1003
0100
0010
0100
,
1000
0100
0020
0000
0031
0000
1100
0000
,
0101
0000
1001
0000
0001
0100
0000
0101
,
0000
1010
0000
1100
0000
0011
0000
1001
,
0000
0110
0000
1010
0000
1100
0000
0011
,
0000
1001
0000
0010
0100
0000
2002
0000
,
0000
0000
0000
0000
,
0000
3003
0110
0020
,
2030
3200
0302
0203
,
1300
0010
1000
0000
1100
0000
1000
0010
,
1000
0000
0001
0010
0002
0000
1000
0000
,
0100
0000
1003
0000
0110
0000
0001
0010
,
0001
0000
1000
0100
2000
0000
0001
0000
,
0010
0000
3001
0000
0110
0000
1000
0010
,
1010
0000
0001
0010
0011
0000
0001
0100
,
0010
0100
0001
1000
0001
0010
0001
1000
,
0100
0000
1100
0000
1000
0010
0100
0001
,
0100
0000
0101
0000
0001
0010
0100
0010
,
0001
0000
0011
0000
1000
0010
0100
0010
,
1000
0000
0001
1000
1001
0000
1000
1000
,
0020
0000
0130
0100
0020
0000
1030
1000
,
0200
0000
0310
0010
0001
0100
0010
0100
,
0001
0000
0110
0000
1000
0010
0100
0010
,
1000
0000
0110
0000
1001
0000
1000
0100
,
2100
0000
3001
0010
0011
0000
1001
0000
,
0101
0000
1001
0000
2010
0000
3010
0100
,
0102
0000
0013
0001
2002
0000
0000
0000
,
0000
0000
3003
0000
;

//--------------- dance-single - DigiMindAxel ----------------
#NOTES:
     dance-single:
     DigiMindAxel:
     Medium:
     14:
     0.663,0.739,0.474,0.292,0.193:
0000
0000
0000
0000
,
0000
0000
0000
0000
,
0000
0000
0000
0000
,
0000
0000
0000
0000
,
0000
0000
0000
0000
,
2000
0000
3020
0000
,
0130
0001
1000
1000
,
0002
0000
0023
0000
,
0130
1000
0100
0000
0010
0001
0010
0100
,
1001
0100
0010
0001
,
1000
0100
0010
0101
,
1001
0000
1000
0100
0010
0000
0100
1000
,
0010
0000
0100
0001
0010
0100
1000
0001
,
0100
0001
0010
0100
,
1000
0001
0010
1100
,
1001
0000
0001
0100
0010
0000
0100
0001
,
0010
0000
0001
0010
0100
0010
0001
1000
,
0010
0100
0001
1000
,
0010
0100
0001
1100
,
1001
0000
0001
0100
0001
0000
1000
0010
,
1000
0000
0002
0000
0013
0100
2000
0000
,
3100
0010
0002
0000
0013
0100
2000
0000
,
3010
0100
0001
0100
0010
0100
0001
0100
,
0010
1000
0100
0010
0100
0000
1000
0000
,
1001
0000
0000
0001
0000
1000
0100
0000
0000
1000
0000
0010
,
0100
0000
0000
0001
0000
0100
0010
0000
0000
1010
0000
0000
,
0100
0000
0001
0010
0000
0000
0100
0000
1000
0010
0000
0000
,
0100
0000
0001
0010
0000
0000
0100
0000
1000
0010
0000
0000
,
0100
0000
0001
1000
0000
0000
0100
0000
0010
0001
0000
0000
,
0100
0000
0000
0000
0001
0000
1000
0000
0000
0000
0000
0000
0100
0000
0000
0010
0000
0000
0002
0000
0000
0000
0000
0000
,
0103
0000
0010
2000
0000
0000
3100
0000
0010
0002
0000
0000
,
1003
0000
0100
0020
0000
0000
0031
0000
0100
0020
0000
0000
,
0130
0000
0001
0020
0000
0000
0130
0000
1000
0020
0000
0000
,
0130
0000
0000
0000
0001
0000
1000
0000
0100
0000
1000
0000
0100
0000
0000
0010
0000
0000
0001
0000
0000
0000
0000
0000
,
1001
0000
0000
0001
0100
0001
1000
0100
1000
0100
0000
0010
,
0100
1001
0010
1001
,
0001
1000
0001
1000
0010
0100
0010
0100
0010
0100
0001
1000
,
0001
0000
0001
1000
0000
1000
0100
0000
0100
0010
0000
0000
,
1001
0200
0320
0032
,
2003
3020
0230
0302
,
1003
1100
0110
0011
,
0001
0010
0100
1000
0000
0001
0100
0000
,
1000
0100
0000
0001
0100
0010
1000
0100
,
0000
1000
0100
0000
0001
0100
0000
1000
,
0010
0100
0001
0010
0000
0001
0010
0000
,
1000
0010
0000
0001
1000
0100
0010
0001
,
0000
1000
0010
0000
0001
0010
1000
0001
,
0200
0000
0310
0200
0000
0310
2000
0000
,
3100
0020
0000
0031
0020
0000
0130
0020
,
0000
0031
2000
0000
3010
1000
0100
0010
,
0002
0000
0000
1003
0010
0100
0020
0000
,
0000
1030
0001
0010
0200
0000
0000
0310
,
0001
1000
0020
0000
0000
0130
0001
1000
,
1001
0001
1001
0001
,
1001
0001
1001
0001
,
1000
0100
0010
0001
1000
0100
0010
0000
,
0100
1000
0010
0100
0001
0010
0100
0000
,
1000
0100
0001
0100
1000
0100
0010
0000
,
0101
0110
1010
1001
,
0001
1000
0100
0010
0100
1000
0001
0000
,
0010
0001
0100
0010
1000
0100
0010
0000
,
0100
1000
0001
0100
0001
0010
0100
0000
,
0011
0110
1100
1001
,
0001
0010
0100
1000
0100
0010
0001
0100
,
1000
0100
0001
1000
0020
0000
0000
0000
,
0000
0000
0000
0030
1001
0000
1000
0000
,
1001
1000
1001
1000
,
1001
0000
1000
0000
0010
1000
0100
0010
,
0100
1000
0010
0010
0100
0001
0010
1000
,
0010
0001
1000
1000
0100
0010
0001
1000
,
0010
0100
0010
0010
1001
0000
1010
0000
,
0101
0000
1001
0000
0000
0001
0010
0001
,
1000
0001
0010
0001
1000
0010
0100
0010
,
1000
0010
0100
0010
1000
0100
0001
0100
,
1000
0100
0010
0001
0100
0000
0220
0000
,
0000
0000
0000
0000
,
0000
0330
0202
0000
,
0000
0000
0303
1001
,
0001
1000
0001
0000
1000
0100
1000
0000
0010
0000
0000
0000
1001
0000
0010
0000
,
0100
0000
0000
0000
1001
0000
0100
0000
0010
0000
0000
0000
1000
0001
1000
0000
,
0001
0100
0001
0000
1000
0000
0100
0000
0010
0000
0000
0000
1001
0000
0100
0000
,
0010
0000
0000
0000
1001
0000
0010
0000
0100
0000
0000
0000
0001
0010
0000
0001
,
0010
0000
0100
1000
0000
0100
1000
0000
0001
0000
0000
0000
1001
0000
0010
0000
,
0100
0000
0000
0000
1001
0000
0100
0000
0010
0000
0000
0000
1000
0010
1000
0000
,
0001
1000
0001
0000
1000
0000
0100
0000
0010
0000
0001
0000
0011
0000
0000
0000
,
0100
0010
0110
0000
1000
0100
1100
0000
,
0001
1000
1001
0000
0100
0001
0101
0000
,
0010
1000
1010
0000
0001
1000
1001
0000
,
0001
0000
0010
0000
0100
0000
0100
0000
0110
0000
0000
0000
0001
1000
0001
1000
,
0001
0000
0000
0000
1000
0001
1000
0001
1000
0000
0000
0000
0010
0100
0010
0100
,
0010
0000
0000
0000
0100
0010
0100
0010
0100
0000
0001
0000
1001
0000
0000
0000
,
0010
1000
1001
0000
0010
0001
1001
0000
,
0100
1000
0001
0010
1100
0000
1000
0001
,
0101
0000
0010
1000
1100
0000
1001
0000
,
0011
0000
1001
0000
0110
0000
0001
1000
,
1001
0000
0100
1000
2200
0000
0000
0000
,
0000
0000
3300
0000
;

//--------------- dance-single - DigiMindAxel ----------------
#NOTES:
     dance-single:
     DigiMindAxel:
     Hard:
     18:
     0.994,1,0.496,0.343,1:
0000
0000
0000
0000
,
0000
0000
0000
0000
,
0000
0000
0000
0000
,
0000
0000
0000
0000
,
0000
0000
0000
0000
0000
0000
1000
0100
,
0020
0000
0031
0010
0200
0000
1300
0100
,
0020
0031
0100
0110
,
2000
0000
3001
0100
0020
0000
1030
0010
,
0100
0000
0001
0100
0002
0000
0000
0000
0013
0000
0100
0000
1000
0000
0001
0000
,
1001
0000
0000
1000
0010
1000
0001
0010
0001
1000
0010
1000
,
0001
0010
0001
0100
0010
0100
0001
0010
0001
1000
0100
0010
,
0002
0000
0000
0000
1003
0010
1000
0010
1000
0000
0000
0000
0001
1000
0001
1000
,
0001
0000
0000
0000
0100
0001
0100
0001
0100
0000
0010
0000
1000
0000
0100
0000
,
0011
0000
0000
0001
0100
0001
1000
0100
1000
0001
0100
0001
,
1000
0100
1000
0010
0100
0001
1000
0010
0100
0001
1000
0100
,
2000
0000
0000
0000
3001
0010
0001
0010
0001
0000
0000
0000
1000
0001
1000
0001
,
1000
0000
0000
0000
0100
1000
0100
1000
0100
0000
0010
0000
0001
0000
0100
0000
,
0010
0100
0001
1000
0100
0001
0100
1000
0100
0001
0100
1000
,
0001
0100
1000
0100
0001
0100
0010
0000
0000
1010
0000
0000
,
1001
0000
0001
0010
0001
1000
0001
0010
,
0001
1000
0002
0000
0013
0100
2000
0000
,
3100
0010
0002
0000
0013
0100
2000
0000
,
3001
0100
0001
0000
0010
0000
0100
0000
1000
0010
1000
0000
0100
0000
0010
0000
,
0001
1000
0001
0000
0100
0000
0010
0000
1000
0001
1000
0000
1010
0000
0000
0000
,
1001
0000
0000
0001
0100
0010
2000
0000
0000
3100
0010
0001
,
0200
0000
0000
0310
1000
0100
0020
0000
0000
0031
0000
0000
,
1001
0000
1000
1100
0000
0000
0010
0000
0001
0101
0000
0000
,
0010
0000
1000
1100
0000
0000
0010
0000
0001
1001
0000
0000
,
0100
0000
1000
1010
0000
0000
0100
0000
0001
0011
0000
0000
,
0100
0000
0000
0000
1000
0000
1001
0000
0000
0000
0000
0000
0001
0000
0000
0010
0000
0000
0100
0000
0000
1000
0000
0000
,
0001
0000
0100
0001
0010
0100
1000
0000
0010
1000
0100
0010
,
0001
0000
1000
0010
0100
0001
1000
0000
0010
0100
0001
0010
,
0100
0000
1000
0100
0001
0100
1000
0000
0001
0100
1000
0100
,
0001
0000
0000
0000
0000
0000
0000
0000
0010
0000
0000
0000
0100
0000
0000
0000
1000
0000
0000
0000
0001
0000
0000
0000
0100
0000
0000
0000
0000
0000
0010
0000
0000
0100
0000
0000
0020
0000
0000
0000
0000
0000
0000
0000
0000
0000
0000
0000
,
1030
0000
0000
0001
0010
0001
0100
1000
0100
0001
0010
0100
,
1000
0001
1000
0200
0000
0000
1300
0010
0100
0002
0000
0000
,
1003
0100
1000
0010
0100
0001
1000
0100
1000
0010
0100
0001
,
1000
0100
0001
0100
1000
0001
0010
1000
0010
0001
0000
0000
,
1001
0000
0000
0002
0000
0100
0203
0000
0010
0320
0000
1000
,
2030
0000
0001
3002
0000
0100
0203
0000
0010
0320
0000
1000
,
1030
0000
0001
0011
0000
0100
1100
0010
0001
2001
0000
0000
,
3001
0100
0001
0010
0100
1000
0001
0000
0001
0000
1000
0000
0010
0000
0010
0000
,
1000
0000
0001
0000
0001
0000
1000
0000
0001
0010
0001
1000
0010
0100
0001
0000
,
0001
1000
0100
0100
1000
0010
0010
0100
,
0001
1000
0001
0010
0100
1000
0010
0000
0010
0000
1000
0000
0001
0000
0001
0000
,
0010
0000
0100
0000
0100
0000
0010
0000
0001
0100
0010
1000
0100
0010
0001
0000
,
0001
1000
0010
0010
0100
0001
0001
1000
,
1010
0000
0000
0010
0100
0000
0002
0000
0000
0103
0010
0000
2000
0000
0000
3001
,
0010
0000
0200
0000
0000
0310
0001
0000
2000
0000
0000
3010
0100
0000
0002
0000
,
0000
0103
0010
0000
2000
0000
0000
3001
0010
0000
0100
0000
1000
0010
0100
0001
,
1000
0100
0001
0100
1000
0010
0110
0001
,
1000
0100
0001
0100
1100
0010
0001
0100
,
1000
0100
0101
0010
1000
0100
0011
0110
,
1001
0000
0001
1000
1001
0000
1000
0001
,
1001
0000
0001
1000
1001
0000
1000
0001
,
0100
0001
0100
0001
1000
0100
1000
0100
0010
0001
0010
0001
1000
0000
1000
0000
,
0100
1000
0100
1000
0010
0100
0010
0100
0001
1000
0001
1000
0010
0000
0010
0000
,
0100
0001
0100
0001
1000
0100
1000
0100
0010
0001
0100
0000
0010
1000
0100
0000
,
1000
0100
0010
0000
0001
0010
0100
0000
1000
0100
0010
0000
0001
0010
0100
0000
,
1000
0001
0100
0000
0001
0000
1001
0000
1000
0100
0010
0000
0001
0000
0101
0000
,
0010
1000
0100
0000
0010
0000
0011
0000
0100
1000
0010
0000
0100
0001
0010
0000
,
0001
0010
0100
1000
0001
0010
0100
0010
0001
0100
0010
0100
0001
0000
0001
0000
,
0010
0100
1000
0000
0100
0010
0001
0000
0010
0100
1000
0000
1002
0000
0000
0000
,
1003
0010
0100
0000
0010
0000
1000
0001
0010
0000
0100
0000
1000
0100
0010
0001
,
1000
0100
0010
0001
1000
0010
0000
1000
0010
0000
1000
0001
0000
1000
0001
0000
,
0100
0010
0100
0001
0010
0100
1000
0100
0010
0000
0000
0000
0001
0000
1000
0000
,
1001
0000
1000
0001
1001
0000
0001
1000
,
1001
0000
0000
0000
1000
0000
0001
0000
0100
0001
0100
0001
0010
0100
0010
0100
,
1000
0010
0100
0001
1000
0000
1000
0000
0100
0010
0100
0010
0001
0100
0001
0100
,
0001
0010
0100
1000
0010
0000
0010
0000
0100
0001
0100
0001
1000
0100
1000
0100
,
0010
0001
0010
0001
1000
0000
1000
0000
0001
0100
0010
0000
0100
0010
1000
0000
,
0001
0100
0010
0000
0100
0010
1000
0000
0000
0000
0001
0000
0010
0000
1000
0000
,
0010
0001
0010
1000
0010
0001
0100
1000
,
0100
0001
0100
1000
0100
0001
0010
1000
,
0010
0001
1000
0100
0010
0000
2002
0000
,
0000
0000
0000
0000
,
0000
0000
0000
0000
0000
0000
3003
0000
1001
0000
0000
0000
1000
0010
1000
0010
,
0100
0001
0100
0001
1000
0100
0010
0001
0100
0010
1000
0010
0100
0000
0000
0000
,
0001
0010
0100
1000
0001
0010
0100
0000
1010
0000
0000
0000
1001
0000
0100
0000
,
0011
0000
0000
0000
1001
0000
0010
0000
1100
0000
0000
0000
1000
0010
0100
0001
,
1000
0100
0010
0100
1000
0001
0010
0100
1000
0000
0000
0000
1010
0000
0100
0000
,
1001
0000
0000
0000
0101
0000
0010
0000
1001
0000
0000
0000
0001
0100
0001
0100
,
0010
1000
0010
1000
0100
0010
0001
0000
1001
0000
0000
0000
0110
0000
1000
0000
,
0101
0000
0000
0000
0110
0000
0001
0000
1100
0000
0000
0000
0010
0001
1000
0010
,
0100
0001
1000
0100
0010
0001
0010
0100
1000
0001
1000
0000
0001
0100
0001
0000
,
1000
0010
1000
0000
0001
1000
0001
0000
0010
0001
0100
0000
0010
1000
0100
0000
,
0010
0100
1000
0000
0001
0010
0100
0000
1000
0001
0100
0000
0001
1000
0010
0000
,
1000
0001
0010
0000
0100
1000
0001
0000
0010
0001
0100
0000
0010
1000
0100
0000
,
1000
0100
0010
0000
0101
0000
0100
0000
0110
0000
0000
0000
0010
1000
0100
1000
,
0010
0000
0000
0000
0100
0001
0010
0001
0100
0000
0000
0000
0001
0010
0100
0010
,
0001
0000
0000
0000
0010
0100
1000
0100
0010
0001
1000
0001
0010
0000
0000
0000
,
0100
1000
0001
1000
0100
0000
0000
0000
0010
0001
1000
0001
0010
0000
0000
0000
,
0001
0100
0010
1000
0100
0010
0001
1000
0010
0000
0000
0000
1001
0000
1000
0000
,
1100
0000
0011
0001
2002
3003
2020
3030
,
0202
0303
2020
3030
0202
0303
1001
1100
,
0011
0000
1001
0101
2020
0000
0000
0000
,
0000
0000
3030
0000
;

//--------------- dance-single - t7r ----------------
#NOTES:
     dance-single:
     t7r:
     Challenge:
     19:
     0,0,0,0,0:
0000
0000
0000
0000
,
0000
0000
0000
0000
,
0000
0000
0000
0000
,
0000
0000
0000
0000
,
0000
0000
0000
0000
0000
0000
0010
0001
,
0102
0000
0013
0100
2000
0000
3010
0100
,
0001
0110
1001
0011
,
1200
0000
1300
0100
0020
0000
0031
1000
,
0100
0000
1000
0001
0020
0000
0000
0000
0031
1000
0001
1000
0010
0100
0010
0100
,
0010
0000
1000
0001
0010
0100
1000
0010
0100
0001
0100
0010
,
1000
0000
0000
0000
0100
0000
0000
0000
0010
0000
0000
0000
0001
0000
0000
0000
0010
0000
0000
0000
1000
0000
0000
0000
0001
0000
0000
0000
0100
0000
0000
0000
1000
0000
0000
0000
0001
0000
0000
1000
0000
0000
0100
0000
0000
1000
0000
0000
,
0001
0000
0100
0001
1000
0001
0010
0001
0100
0000
0001
1000
0010
1000
0001
1000
,
0100
0000
0010
0100
1000
0100
0010
0001
1000
0000
0010
0000
0110
0000
0101
0000
,
1001
0000
0001
1000
0100
0010
0001
0100
0010
1000
0010
0100
,
0001
0000
0000
0000
0010
0000
0000
0000
0100
0000
0000
0000
1000
0000
0000
0000
0100
0000
0000
0000
0001
0000
0000
0000
1000
0000
0000
0000
0010
0000
0000
0000
0001
0000
0000
0000
1000
0000
0000
0001
0000
0000
0100
0000
0000
0001
0000
0000
,
1000
0000
0100
1000
0010
1000
0100
0010
0001
0000
0100
0001
0010
0001
0100
0001
,
1000
0000
0010
0100
0001
0100
0010
1000
0001
0000
0010
0000
0110
0000
1100
0000
,
1001
0000
1000
0001
0010
1000
0001
0100
1000
0001
0010
0100
,
0001
0000
0000
0000
0100
0000
0000
0000
0010
0000
0000
0000
0001
0000
0000
0000
0100
0000
0000
0000
1000
0000
0000
0000
0100
0000
0000
0000
0000
0000
0000
0000
0000
0000
0000
0000
0010
0000
0000
1000
0000
0000
0001
0000
0000
1000
0000
0000
,
0010
1000
0100
0001
0100
1000
0010
0001
,
0010
0100
0001
0010
1000
0010
0100
1000
,
0001
0100
0010
1000
0001
0010
0100
1000
,
0001
0100
0010
1000
0001
0000
1000
0000
0001
0010
0100
1000
0001
0000
1000
0000
,
0001
0000
1000
0000
0100
0000
0010
0000
0001
0000
0000
0000
1000
0000
0000
0000
0010
0100
0000
0000
0000
0000
0000
0000
0110
0000
0000
0000
0000
0000
0000
0000
,
0102
0000
0000
1003
0100
0001
0200
0000
0000
1300
0010
0001
,
0010
1000
0010
1000
0001
0100
0001
0100
0010
0000
0000
0000
1010
0000
0000
0000
,
0001
0010
0100
1000
0001
0000
1000
0000
0001
0100
0010
1000
0001
0000
1000
0000
,
0001
0010
1000
0010
0001
0000
1000
0000
0001
0100
1000
0100
0001
0000
1000
0000
,
0001
0010
1000
0010
0100
0000
1000
0000
0001
0100
1000
0100
0010
0000
1000
0000
,
0001
0010
0001
0100
1000
0000
0100
0000
0001
0100
0001
0010
1000
0000
0010
0000
,
0001
0000
0000
0000
0100
0010
2000
0000
0000
0000
3001
0000
0010
0000
0000
0000
0100
0010
0002
0000
0000
0000
1003
0000
,
0010
0000
0000
0000
0100
0010
2000
0000
0000
0000
3010
0000
0100
0000
0000
0000
0001
0010
0200
0000
0000
0000
0310
0000
,
0001
0000
0000
0000
1000
0100
0020
0000
0000
0000
0031
0000
0100
0000
0000
0000
0001
0010
0200
0000
0000
0000
1300
0000
,
0001
0000
0000
0000
0000
0000
0000
0000
0100
0000
0001
0000
1000
0000
0000
0000
0001
0000
0000
0000
0010
0000
0000
0000
0001
0000
0000
0000
0000
0000
0100
0000
0000
0010
0000
0000
2000
0000
0000
0000
0000
0000
0000
0000
0000
0000
0000
0000
,
3001
0000
1000
0010
1000
0001
1000
1000
1000
0100
0100
0100
,
0010
0010
0010
0001
0001
0001
0100
0100
0100
0010
0010
0010
,
1000
0100
0001
0100
1000
0010
1000
0010
0001
0010
1000
0100
,
0001
0100
0010
0001
0010
0100
1000
0010
0100
1000
0100
0010
,
1000
0000
0000
1010
0000
0001
0100
0001
0010
0011
0000
1000
,
0100
1000
0010
0110
0000
0001
1000
0010
0100
0110
0000
0010
,
1000
0000
0000
0000
0010
0100
0001
0000
0000
0000
0010
0100
1000
0000
0100
0000
0001
0000
0200
0000
0000
0000
0000
0000
,
1300
0100
1000
0100
0010
0001
1000
0000
0001
0000
1001
0000
0010
0000
1100
0000
,
0101
0000
0010
0000
0101
0000
1100
0000
0001
0010
0001
0010
0100
1000
0001
0000
,
1000
1001
0100
1010
0011
0100
0011
1010
,
0001
0010
1000
0010
0001
0100
0010
0000
1000
0000
1010
0000
0001
0000
0101
0000
,
1100
0000
0010
0000
1100
0000
0101
0000
1000
0010
0001
0010
1000
0100
0010
0000
,
0001
0101
1000
0011
1010
0100
1010
0011
,
0200
0000
0000
0001
1000
0000
0000
0000
0000
1000
0301
0000
0020
0000
0000
0001
,
1000
0000
0000
0000
0000
1000
0031
0000
2000
0000
0000
0010
0100
0000
0000
0000
,
0000
0100
3010
0000
0002
0000
0000
0010
0100
0000
0000
0000
0000
0100
0013
0000
,
1000
0100
0010
0001
0100
1000
0100
0001
0010
0000
0110
0000
0001
0010
0100
1000
,
0010
0001
0010
1000
0100
0000
0110
0000
0001
0010
0100
1000
0100
0001
0100
1000
,
0010
0000
0110
0000
1000
0010
0100
0001
0010
1000
0010
0001
1000
0000
1001
0000
,
0110
0000
0010
0010
0110
0000
0010
0010
,
0110
0000
0010
0010
0110
0000
0010
0010
,
1000
0100
1000
0100
0010
0100
0010
0100
0010
0001
0010
0001
1000
0000
1001
0000
,
0001
0010
0001
0010
0100
0010
0100
0010
0100
1000
0100
1000
0010
0000
0110
0000
,
1000
0010
1000
0010
0100
0001
0100
0001
1000
0100
0010
0001
1000
0000
1001
0000
,
0110
0000
0010
1000
0100
0000
0010
0001
0100
0000
0010
1000
0001
0000
1000
0001
,
1000
0100
1000
0100
0010
0000
0110
0000
0001
0100
0001
0100
0010
0000
0110
0000
,
1000
0010
1000
0010
0100
0000
0110
0000
0001
0010
0001
0010
0100
0000
0110
0000
,
1000
0010
0001
0010
0100
0000
0110
0000
0001
0010
1000
0010
0100
0000
0110
0000
,
0011
0000
0010
0001
0100
1000
0100
0001
0010
0100
1000
0010
0001
0010
1000
0001
,
1000
0100
1000
0100
0010
0100
0010
0100
0010
0001
0010
0001
1000
0100
0010
0001
,
0010
0100
1000
0001
0010
1000
0010
0100
1000
0100
0001
0100
0010
0001
0100
0010
,
1000
0010
0100
1000
0100
0001
1000
0010
0200
0000
0000
0000
0310
0000
0010
0000
,
0110
0000
0000
0000
0010
1000
0010
1000
0001
0010
0001
0010
1000
0010
1000
0010
,
0001
0100
0001
0100
1000
0100
1000
0100
0001
0010
0100
1000
0001
0010
0100
1000
,
0001
0100
0010
1000
0001
0000
1001
0000
1000
0010
0100
0001
1000
0010
0100
0001
,
1000
0100
0010
0001
1000
0000
1001
0000
0001
0010
1000
0010
0001
0010
1000
0010
,
0001
0100
0010
1000
0001
0000
1001
0000
1100
0000
0100
1000
0010
0000
0100
0001
,
0010
0000
0100
1000
0001
0000
0100
0001
1000
0000
1100
0000
0100
0000
0110
0000
,
0010
0011
0001
1001
1000
1010
0010
0110
,
0100
0000
0101
0000
0001
0000
1001
0000
1000
0100
0001
0100
1000
0100
0001
0100
,
1000
0010
0001
0010
1000
0010
0001
0010
0100
0000
0000
0000
0220
0000
0000
0000
,
0000
0000
0000
0000
,
0000
0000
0000
0000
0000
0000
0000
0000
0000
0330
0000
0000
1001
0000
0000
0000
0000
0000
0010
0000
1000
0000
0001
0000
,
1000
0000
0000
0000
0010
0000
0000
0000
0001
0000
0000
0000
1000
0000
0000
0000
0100
0000
0000
0000
0001
0000
0000
0000
1000
0000
0000
0000
0010
0000
0000
0000
0001
0000
0000
0000
0010
0000
0000
0100
0000
0000
0010
0000
0000
0100
0000
0000
,
0001
0010
0100
0010
0001
0100
0010
1000
0001
0000
0010
0001
0100
0000
0101
0000
,
0110
0000
0100
0010
1000
0000
1010
0000
1100
0000
1000
0000
0001
0010
0001
0010
,
0100
1000
0100
1000
0001
0100
0010
1000
0001
0000
0100
0001
0010
0000
0011
0000
,
1001
0000
0100
1000
0010
0000
1010
0000
1001
0000
1000
0000
0001
0010
1000
0001
,
0100
1000
0001
0010
1000
0001
0100
0010
1000
0000
0010
1000
0100
0000
1100
0000
,
1010
0000
0100
0001
0010
0000
0011
0000
1001
0000
0001
0000
1000
0010
1000
0010
,
0100
0001
0100
0001
1000
0100
0001
0100
1000
0100
0010
0001
1000
0100
0010
0001
,
1000
0010
0001
0010
1000
0010
0001
0010
1000
0010
0100
0001
1000
0010
0100
0001
,
1000
0100
0001
0100
1000
0100
0001
0100
1000
0010
0001
0010
1000
0010
0001
0010
,
1000
0100
0001
0100
1000
0100
0001
0100
1000
0010
0001
0010
1000
0100
0001
0100
,
1000
0010
0100
0001
1000
0000
1001
0000
2100
0000
0000
0000
3001
0010
0100
1000
,
0020
0000
0000
0000
0130
0001
1000
0010
0200
0000
0000
0000
0310
1000
0001
0100
,
0020
0000
0000
0000
0000
0000
0000
0000
0000
0000
0000
0000
1030
0000
0000
0100
0000
0000
1000
0000
0010
0000
0100
0000
0001
0000
0000
0100
0000
0000
0010
0000
0000
1000
0000
0000
0001
0000
0000
0010
0000
0000
0001
0000
0000
0010
0000
0000
,
0001
0000
0000
1000
0000
0000
0001
0000
0100
0000
0010
0000
1000
0000
0000
0010
0000
0000
1000
0000
0000
0010
0000
0000
1000
0000
0000
0001
0000
0000
1000
0000
0100
0000
0010
0000
0001
0000
0000
0100
0000
0000
0001
0000
0000
0100
0000
0000
,
0001
0010
0001
0010
0100
1000
0100
1000
0001
0010
0100
1000
0002
0000
0000
0003
0000
0000
0101
0000
0000
0110
0000
0000
,
2020
3030
1100
0110
0022
0033
2002
3003
,
0220
0330
2020
3030
2002
3003
0101
1100
,
0202
0303
1100
0011
2002
0000
0000
0000
,
0000
0000
3003
0000
;
