#TITLE:veil;
#SUBTITLE:;
#ARTIST:須田景凪;
#TITLETRANSLIT:;
#SUBTITLETRANSLIT:;
#ARTISTTRANSLIT:KEINA SUDA;
#CREDIT:DigiMindAxel;
#BANNER:veil.png;
#BACKGROUND:veil-bg.png;
#LYRICSPATH:veil.lrc;
#CDTITLE:DigiMindAxel original simfile.png;
#MUSIC:veil.ogg;
#METERTYPE:DDR X;
#OFFSET:-1.230;
#SAMPLESTART:52.180;
#SAMPLELENGTH:12.000;
#SELECTABLE:YES;
#BPMS:0.000=75.000,16.000=150.000;
#STOPS:;
#BGCHANGES:-1.500=veil.avi=1.000=1=1=0,
99999=-nosongbg-=1.000=0=0=0 // don't automatically add -songbackground-
;

//---------------dance-single - ----------------
#NOTES:
     dance-single:
     :
     Easy:
     4:
     0.212,0.254,0.145,0.145,0.000:
0000
0000
0000
0000
,
0000
0000
0000
0000
,
0002
0103
0000
0001
,
0020
0130
0000
0000
,
1000
0001
1000
0000
,
0001
1000
0001
0000
,
0010
0001
0010
0000
,
0001
0010
0001
0000
,
0100
0010
0100
0000
,
0010
1000
0010
0000
,
0100
0010
0100
0000
,
0002
0000
0000
0000
,
1003
0000
0100
0000
,
0010
0010
0010
0000
,
0100
0000
1000
0000
,
0001
0001
0001
0000
,
0100
0000
0010
0000
,
0100
0100
0100
0000
,
0001
0000
1000
0000
,
0100
1000
0100
0000
,
2002
0000
0000
0000
,
3003
0000
0000
0000
,
0220
0000
0000
0000
,
0330
0000
0000
0000
,
2002
0000
0000
0000
,
3003
0000
0000
0000
,
0220
0000
0000
0000
,
0330
0000
0000
0000
,
0001
0100
0001
1000
,
0100
0000
0100
0000
,
0010
0001
0010
0001
,
1000
0000
1000
0000
,
1001
0000
0110
0000
,
1001
0000
0000
0000
,
0001
0010
0100
0000
,
0010
0001
0010
0000
,
0100
1000
0100
1000
,
0001
0000
1001
0000
,
0100
0010
0100
0010
,
1000
0000
1001
0000
,
0110
0000
0010
0000
,
0110
0000
0100
0000
,
1001
0001
1000
0000
,
0001
1000
0100
0000
,
0010
0001
0010
0001
,
0100
0000
0100
0000
,
0010
1000
0010
1000
,
0001
0000
0000
1000
0000
0000
2002
0000
,
0000
0000
0000
0000
,
0000
0000
0000
0000
,
0000
0000
3003
0000
;

//---------------dance-single - ----------------
#NOTES:
     dance-single:
     :
     Medium:
     8:
     0.352,0.423,0.167,0.156,0.000:
0000
0000
0000
0000
,
0000
0000
0000
0000
,
2000
0000
3100
0100
0000
0000
0010
0000
,
0002
0000
0013
0010
0100
0000
0000
0000
,
1000
0001
1000
0000
0100
0000
0010
0000
,
0001
0100
0001
0000
0010
0000
0100
0000
,
0010
0001
0010
0000
0100
0000
1000
0000
,
0001
0100
0001
0000
1000
0000
0100
0000
,
0010
0001
0010
0000
0001
1000
0001
0000
,
1000
0100
1000
0000
0001
1000
0001
0000
,
0020
0000
0230
0000
,
1300
0000
0001
1000
0001
0000
0010
0001
,
1000
0100
1000
0000
,
0000
0010
0100
0000
0001
0000
0001
0000
,
0010
0001
0010
0000
,
0000
0001
1000
0000
0100
0000
0010
0000
,
0001
1000
0001
0000
1000
0000
0000
0000
,
0000
0100
1000
0000
0010
0000
0010
0000
,
0100
0001
0010
0100
,
1000
0000
0001
1000
0001
0000
1000
0100
,
2000
0000
0001
0000
,
3001
0000
1000
0010
,
0200
0000
0010
0000
,
0310
0100
0001
0000
,
0020
0000
0100
0000
,
0130
1000
0001
0000
,
0020
0000
0001
0000
,
0031
0000
1000
0000
0010
0100
0000
0000
,
1001
1001
0010
0100
,
1000
0001
1000
0000
0001
0100
0001
0000
,
1001
1001
0010
0100
,
1000
0010
1000
0000
0001
0010
0001
0000
,
0110
0000
0000
1000
0010
0000
1000
0000
,
0010
0100
0001
0000
0100
0010
0100
0000
,
0002
1003
0020
0130
,
0002
0000
0013
0001
0010
0000
0000
0000
,
1001
0000
1001
0000
0001
0100
0010
0000
,
1000
0010
1000
0000
1001
0000
0000
0000
,
1001
0000
1001
0000
1000
0010
0100
0000
,
0010
0100
0010
0000
1000
0010
1000
0000
,
1001
0000
0000
0000
0010
0001
0100
0000
,
0020
0000
0130
0000
,
1001
1000
1010
0010
,
0110
0000
0100
0001
0100
0000
0001
0000
,
1001
0000
1000
0100
0010
0000
0100
0000
,
2000
0000
3010
0000
,
0100
0001
0010
0000
0001
0010
0001
0000
,
1000
0000
1000
0010
0000
0010
0200
0000
,
0000
0000
0000
0000
,
0000
0000
0000
0000
,
0000
0000
0300
0000
;

//---------------dance-single - ----------------
#NOTES:
     dance-single:
     :
     Hard:
     9:
     0.437,0.451,0.279,0.134,0.089: // measure 1
0000
0000
0000
0000
,  // measure 2
0000
0000
0000
0000
,  // measure 3
0001
0000
1010
0010
0000
0000
1001
0001
,  // measure 4
1000
0000
0011
0010
0010
0000
0000
0000
,  // measure 5
0001
0000
0000
0100
0000
0000
0001
0000
1000
0000
0100
0000
0010
0000
0001
0000
,  // measure 6
1000
0000
0000
0010
0000
0000
1000
0000
0001
0000
0010
0000
0100
0000
0000
0000
,  // measure 7
0010
0000
0000
0001
0000
0000
1000
0000
0010
0000
0100
0000
0010
0000
1000
0000
,  // measure 8
0001
0000
0000
0010
0000
0000
0100
0000
0000
0000
1000
0000
0100
0000
1000
0000
,  // measure 9
0001
0000
0000
0100
0000
0000
0001
0000
1000
0000
0100
0000
0010
0000
0000
0000
,  // measure 10
0001
0000
0000
0100
0000
0000
0001
0000
1000
0000
0100
0000
0010
0000
0001
0000
,  // measure 11
1000
0000
0000
1000
0000
0000
1000
0000
0001
0000
0000
0001
0000
0000
0001
0000
,  // measure 12
0100
0110
1010
1001
,  // measure 13
0011
0100
1000
0001
,  // measure 14
0100
0000
0001
0000
0001
0000
0000
0000
1000
0000
0000
0100
0000
0000
0010
0000
,  // measure 15
0100
1000
0001
1000
,  // measure 16
0010
0100
0010
1000
0001
0000
0001
0000
,  // measure 17
0010
0100
1000
0000
1000
0000
0010
0000
,  // measure 18
0100
0000
0001
0000
0001
0000
0000
0000
0010
0000
0000
0100
0000
0000
1000
0000
,  // measure 19
0001
0100
1000
0100
,  // measure 20
0001
0000
0110
0000
0100
0010
1000
0010
,  // measure 21
0200
0000
0001
0001
,  // measure 22
0302
0000
1000
1000
,  // measure 23
2003
0000
0100
0100
,  // measure 24
3200
0000
0010
0310
,  // measure 25
0002
0000
1000
1000
,  // measure 26
2003
0000
0010
0010
,  // measure 27
3020
0000
0100
0100
,  // measure 28
0130
0001
0010
0100
1000
1000
0000
0000
,  // measure 29
0010
0100
0010
1000
0001
0010
0100
0000
,  // measure 30
1010
0000
1001
0000
0101
0000
0000
0001
,  // measure 31
0100
0010
0100
0001
0010
0100
1000
0000
,  // measure 32
1100
0011
1001
0100
,  // measure 33
1001
0000
0000
0001
1000
0100
1000
0001
,  // measure 34
0020
0000
0000
0100
0130
0000
1000
0010
,  // measure 35
0100
0000
0000
0100
0000
0000
0100
0000
0001
0000
0000
0001
0000
0000
0001
0000
,  // measure 36
1000
0100
0010
0001
1000
0010
1000
0000
,  // measure 37
1001
0000
0011
0000
0100
1000
0001
0100
,  // measure 38
0010
0000
1010
0000
1001
0000
0000
1000
,  // measure 39
0001
0010
0001
1000
0100
0010
0100
0000
,  // measure 40
1010
0101
1001
0100
,  // measure 41
1001
0000
0000
0001
1000
0010
1000
0001
,  // measure 42
0020
0000
0000
0100
0130
0000
1000
0000
,  // measure 43
0010
0000
0000
0010
0000
0000
0010
0000
0100
0000
0000
0100
0000
0000
0100
0000
,  // measure 44
0001
0000
1000
0010
0100
0010
1000
0000
,  // measure 45
1001
0000
0000
0001
1000
0100
1000
0001
,  // measure 46
0020
0000
0000
0100
0130
0000
1000
0000
,  // measure 47
0010
0000
0000
0010
0000
0000
0010
0000
0100
0000
0000
0100
0000
0000
0100
0000
,  // measure 48
0001
1000
0100
0010
0000
0001
2002
0000
,  // measure 49
0000
0000
0000
0000
,  // measure 50
0000
0000
0000
0000
,  // measure 51
0000
0000
3003
0000
;

//---------------dance-single - ----------------
#NOTES:
     dance-single:
     :
     Challenge:
     13:
     0.552,0.676,0.134,0.223,0.318:
0000
0000
0000
0000
,
0000
0000
0000
0000
,
1000
0001
1100
0100
0000
0000
0110
0010
,
0001
1000
1010
0010
0100
0000
0000
0000
,
0010
1000
0000
0010
1000
0000
0001
0000
0010
0000
0001
0000
1000
0000
0100
0000
,
0010
0100
0000
0010
0100
0000
1000
0000
0010
0000
1000
0000
0001
0000
0000
0000
,
0010
0100
0000
0010
0100
0000
1000
0000
0001
0000
0100
0000
0001
0000
1000
0000
,
0100
0010
0000
0100
0010
0000
0001
0000
0000
1000
0100
0000
1000
0000
0010
0000
,
0100
0001
0000
0001
1000
0000
0100
0000
0010
0000
0001
0000
1000
0000
0000
0000
,
0010
1000
0000
1000
0001
0000
0010
0000
0100
0000
1000
0000
0001
0000
0010
0000
,
0100
0000
0000
0100
1000
0000
0100
0000
0010
0000
0000
0010
0001
0000
0010
0000
,
0100
1000
0100
1000
0100
1000
0100
0000
1000
0001
1000
0001
1000
0001
1000
0000
,
1001
0000
0001
0010
0100
0010
0001
0000
,
0200
0000
0001
0000
0301
0000
1000
0000
0100
0000
0000
0010
0000
0000
0001
0000
,
1000
0010
0100
0010
1000
0010
0100
0000
,
0001
0000
1000
0000
0100
0000
0010
0000
0001
0000
0000
1000
0000
0000
0010
0000
,
1000
0010
0100
1000
0100
0010
1000
0000
,
0002
0000
0100
0000
0103
0000
0010
0000
1000
0000
0000
0100
0000
0000
0010
0000
,
0100
1000
0001
1000
0100
1000
0001
1000
,
0100
0000
0000
0000
1001
0000
0000
0000
0011
0000
0000
0100
1000
0000
0001
0000
,
0200
0000
0000
0000
0000
0000
0000
0000
0001
0000
0000
0001
0000
0000
0301
0000
,
2000
0000
0000
0000
0000
0000
0000
0000
0100
0000
0000
0100
0000
0000
3100
0000
,
0020
0000
0000
0000
0000
0000
0000
0000
0001
0000
0000
0001
0000
0000
0031
0000
,
2000
0000
0000
0000
0000
0000
0000
0000
0010
0000
0000
0010
0000
0000
3010
0000
,
0200
0000
0000
0000
0000
0000
0000
0000
0001
0000
0000
0001
0000
0000
0301
0000
,
0020
0000
0000
0000
0000
0000
0000
0000
0100
0000
0000
0100
0000
0000
0130
0000
,
2000
0000
0000
0000
0000
0000
0000
0000
0001
0000
0000
0001
0000
0000
3001
0000
,
1000
0010
1000
0000
0001
0000
0010
0100
1000
0000
1100
0000
0000
0000
0000
0000
,
0010
0001
1000
0001
0010
1000
0010
0001
,
1000
0000
0000
1000
0010
0000
0000
0010
0100
0000
0000
0000
0000
0000
0001
0000
,
1000
0100
1000
0010
1000
0100
0001
0100
,
1000
0000
0000
1000
0100
0000
0000
0100
0010
0000
0000
0010
0001
0000
0000
0000
,
1001
0000
1000
0010
0100
0001
0100
0010
,
2000
0000
0000
0100
3100
0000
0010
0001
,
0200
0000
0000
0010
0000
0000
0310
0000
2000
0000
0000
0100
0000
0000
3100
0000
,
0010
0001
0010
0001
0010
0001
0010
0000
0100
0000
1000
0010
0100
0000
0000
0000
,
0001
1000
0100
1000
0001
0100
1000
0100
,
0001
0000
0000
0001
0010
0000
0000
0010
0100
0000
0000
0000
0000
0000
1000
0000
,
0001
0100
0010
0100
0001
0010
1000
0010
,
0001
0000
0000
0001
0010
0000
0000
0010
0100
0000
0000
0100
1000
0000
0000
0000
,
1001
0000
0001
0010
0100
1000
0100
0010
,
0002
0000
0000
0100
0103
0000
0010
1000
,
0200
0000
0000
1000
0000
0000
1300
0000
0020
0000
0000
0100
0000
0000
0130
0000
,
0001
0100
0010
0001
0010
0100
0001
0000
,
1001
0000
0000
1000
0001
0100
0010
1000
,
0020
0000
0000
0100
0130
0000
0001
0010
,
0200
0000
0000
1000
0000
0000
1300
0000
0020
0000
0000
0100
0000
0000
0130
0000
,
0001
0010
0001
0010
0001
0010
0001
0000
0000
0000
0110
0000
2002
0000
0000
0000
,
0000
0000
0000
0000
,
0000
0000
0000
0000
,
0000
0000
3003
0000
;

//---------------dance-single - ----------------
#NOTES:
     dance-single:
     :
     Beginner:
     1:
     0.075,0.133,0.067,0.000,0.000:
0000
0000
0000
0000
,
0000
0000
0000
0000
,
1000
0000
0000
0000
,
0001
0000
0000
0000
,
0010
0000
0000
0000
,
0010
0000
0000
0000
,
0100
0000
0000
0000
,
0100
0000
0000
0000
,
1000
0000
0000
0000
,
1000
0000
0000
0000
,
0001
0000
0000
0000
,
0001
0000
0000
0000
,
1001
0000
0000
0000
,
0000
0000
0000
0000
,
0010
0000
0000
0000
,
0000
0000
0000
0000
,
0100
0000
0000
0000
,
0000
0000
0000
0000
,
1000
0000
0000
0000
,
0000
0000
0000
0000
,
1001
0000
0000
0000
,
0000
0000
0000
0000
,
0001
0000
0000
0000
,
0000
0000
0000
0000
,
0100
0000
0000
0000
,
0000
0000
0000
0000
,
0010
0000
0000
0000
,
0000
0000
0000
0000
,
1000
0000
0001
0000
,
1000
0000
0000
0000
,
0001
0000
1000
0000
,
0001
0000
0000
0000
,
1001
0000
0000
0000
,
0000
0000
0000
0000
,
0010
0000
0000
0000
,
0100
0000
0000
0000
,
1000
0000
0001
0000
,
1000
0000
0000
0000
,
0001
0000
1000
0000
,
0001
0000
0000
0000
,
1001
0000
0000
0000
,
0000
0000
0000
0000
,
0100
0000
0000
0000
,
0010
0000
0000
0000
,
1001
0000
0000
0000
,
0000
0000
0000
0000
,
0100
0000
0010
0000
,
0001
0000
0000
1001
;
