#TITLE:v o l d e n u i t;
#SUBTITLE:;
#ARTIST:Cuve;
#TITLETRANSLIT:;
#SUBTITLETRANSLIT:;
#ARTISTTRANSLIT:;
#GENRE:;
#CREDIT:DigiMindAxel;
#BANNER:v o l d e n u i t.png;
#BACKGROUND:v o l d e n u i t-bg.png;
#LYRICSPATH:;
#CDTITLE:DJMAX.png;
#MUSIC:v o l d e n u i t.ogg;
#OFFSET:-0.242000;
#SAMPLESTART:80.163002;
#SAMPLELENGTH:12.000000;
#SELECTABLE:YES;
#BPMS:0.000000=105.000000
;
#STOPS:72.000000=1.714000
;
#BGCHANGES:0.000=v o l d e n u i t.avi=1.000=1=0=0=StretchNoLoop==CrossFade==,
99999=-nosongbg-=1.000=0=0=0 // don't automatically add -songbackground-
;
#KEYSOUNDS:;
#ATTACKS:;

//---------------dance-single - ----------------
#NOTES:
     dance-single:
     :
     Easy:
     4:
     0.169789,0.183461,0.018427,0.055280,0.000000,129.000000,127.000000,2.000000,6.000000,0.000000,0.000000,0.169789,0.183461,0.018427,0.055280,0.000000,129.000000,127.000000,2.000000,6.000000,0.000000,0.000000:
0000
0000
0000
0000
,
0000
0000
0000
0000
,
0001
0001
1000
0000
,
0100
1000
0100
0000
,
1000
1000
0001
0000
,
0010
0001
0010
0000
,
0001
0000
0000
0000
,
0001
0000
0000
0000
,
1000
0000
0000
0000
,
1000
0000
0000
0000
,
0100
1000
0100
1000
,
0010
0100
0010
0100
,
0001
0001
1000
1000
,
0001
0001
1000
1000
,
0010
1000
0010
1000
,
0100
0010
0100
0010
,
0001
0000
1001
0000
,
1000
0000
1001
0000
,
0001
0200
0010
0310
,
0000
0000
0001
0001
,
0000
0000
1000
1000
,
0000
0000
0010
0010
,
0000
0100
0100
0100
,
0100
0001
0001
0001
,
0001
1000
1000
1000
,
1000
0100
0100
0010
,
0010
0001
0001
0001
,
0001
0100
0100
0100
,
0100
0010
0010
0010
,
0010
1000
0100
0010
,
0001
2000
0000
0000
,
0000
3200
0000
0000
,
0000
2300
0000
0000
,
0000
3020
0000
0000
,
0030
0100
0001
1000
,
0100
0010
0010
0001
,
0001
0100
0010
1000
,
0001
0010
0010
0100
,
0100
1000
0001
0100
,
0001
1000
0100
0010
,
0001
1000
0010
0100
,
0001
1000
0100
0010
,
0100
2000
0000
0001
,
0000
0001
0000
0001
,
0000
3001
0000
0000
;

//---------------dance-single - ----------------
#NOTES:
     dance-single:
     :
     Medium:
     10:
     0.418550,0.532993,0.451455,0.294828,0.110560,318.000000,269.000000,49.000000,32.000000,0.000000,0.000000,0.418550,0.532993,0.451455,0.294828,0.110560,318.000000,269.000000,49.000000,32.000000,0.000000,0.000000:
0000
0000
0000
0000
,
0000
0000
0000
0000
,
1000
0001
1000
0001
0100
0100
0010
0010
,
1000
0000
0100
0010
0001
0001
1000
0000
,
0100
1000
0100
1000
0010
0010
0100
0100
,
0001
0000
0010
0100
1000
0001
0100
0001
,
0010
0010
0010
0010
,
0010
0010
0010
0010
,
0100
0100
0100
0100
,
0100
0100
0100
0100
,
1001
1000
0100
0100
0001
0001
0010
0010
,
1000
1000
0100
0100
0001
0001
0010
0010
,
1001
0000
0100
0010
1001
0000
0010
0100
,
1001
0011
1100
0011
,
1001
0001
0100
0100
1000
1000
0010
0010
,
0001
0001
0100
0100
1000
1000
0010
0010
,
1002
0000
0000
0000
0100
0000
0000
1000
,
1003
0001
0010
0100
2020
0000
0000
0000
,
3030
0000
1000
0100
0011
0100
0011
0100
,
1001
0000
0001
0010
1100
0010
1100
0010
,
1001
0000
1000
0010
0101
0010
0101
0010
,
1001
0000
0001
0100
1010
0100
1010
0100
,
1001
0000
0000
0000
1001
0000
0000
0100
0000
0100
0000
0100
0000
0001
1000
0000
,
0100
0000
0010
0000
0001
0000
1000
0010
0000
0010
0000
0010
0000
0100
0001
0000
,
0010
0000
0100
0000
1000
0000
0000
0001
0000
0001
0000
0001
0000
1000
0100
0000
,
0010
0100
1100
0000
1001
0000
0011
0000
,
1001
0000
0000
0000
0110
0000
0000
0001
0000
0001
0000
0001
0000
1000
0010
0000
,
0100
0000
0001
0000
1000
0000
0000
0100
0000
0100
0000
0100
0000
1000
0001
0000
,
0100
0000
0010
0000
1000
0000
0000
0100
0000
0100
0000
0100
0000
0010
0001
0000
,
1000
0010
0110
0000
0101
0000
0110
0000
,
1010
1002
0203
0320
,
2030
3002
0023
0230
,
2300
3002
0203
0320
,
2030
3002
0023
0230
,
2300
0000
3001
0100
0010
1000
0100
0001
,
1000
0010
0001
1000
0010
1000
0100
0001
,
1000
0010
0001
1000
0010
1000
0002
0010
,
0023
0100
0130
1000
0010
1000
0200
0010
,
0320
0001
0031
1000
1010
0010
0110
0100
,
0101
0001
1001
1000
1100
0100
0110
0010
,
0011
0001
1001
0100
0011
0100
1010
0100
,
0011
0100
1001
0010
1100
0010
0101
0010
,
1100
0010
1002
0000
2003
0000
3002
0000
,
2003
3002
2003
3002
,
2003
3002
0003
0000
;

//---------------dance-single - ----------------
#NOTES:
     dance-single:
     :
     Hard:
     13:
     0.559383,0.594492,0.267188,0.092134,0.709429,425.000000,396.000000,29.000000,10.000000,0.000000,0.000000,0.559383,0.594492,0.267188,0.092134,0.709429,425.000000,396.000000,29.000000,10.000000,0.000000,0.000000:
0000
0000
0000
0000
,
0000
0000
0000
0000
,
1001
0000
0001
0000
0000
0001
0000
0001
0010
0100
1000
0000
0110
0000
1001
0000
,
0100
0000
0000
0000
0110
0000
0001
0000
1000
0010
0100
0000
0001
1000
0001
0000
,
0000
0000
1000
0000
0000
1000
0000
1000
0100
0010
0001
0000
1001
0000
0110
0000
,
0010
0000
0000
0000
0110
0000
1000
0000
0100
2000
0000
3010
0100
0010
0100
0000
,
0001
0010
0100
0000
0100
0010
0001
0000
,
1000
0100
0010
0000
0010
0100
1000
0000
,
0001
0100
0010
0000
0010
0100
0001
0000
,
0001
0100
0010
0000
0010
0100
0001
0000
,
1000
0001
0000
0010
0000
1000
0000
0010
0000
0001
0000
0100
0000
1000
0000
0100
,
0000
0001
0000
0010
0000
1000
0000
0010
0000
0001
0000
0100
0000
0010
0000
0100
,
0001
0000
1000
0100
0010
0000
0100
0010
0001
0000
1000
0100
0010
0000
0100
0010
,
0001
0000
0100
0010
1000
0000
0010
0100
0001
0000
0100
0010
1000
0000
0010
0100
,
0001
1000
0000
0010
0000
0001
0000
0010
0000
1000
0000
0100
0000
0001
0000
0100
,
0000
1000
0000
0010
0000
0001
0000
0010
0000
1000
0000
0100
0000
0010
0000
0001
,
1000
0000
0001
0100
0010
0000
0100
0010
1000
0000
0001
0010
0100
0000
0010
0100
,
1000
0000
0010
0100
0001
0000
0010
0100
1000
0000
0001
0010
0100
0000
0010
0001
,
0100
0000
0001
0010
1100
0001
0110
1000
,
0101
0000
0010
1000
0110
0001
1100
0010
,
0101
0000
0010
0100
1001
0100
0011
0100
,
1010
0000
0100
0001
0110
1000
0011
0100
,
1010
0000
0000
0000
1001
0000
0001
0100
0000
0100
0000
0100
0000
0001
0100
0010
,
0000
1000
0000
0100
0000
0000
1000
0010
0000
0010
0000
0010
0000
1000
0010
0100
,
0000
0001
1000
0100
0010
0000
0001
0100
0000
0100
0000
0100
0000
0001
0100
0010
,
0000
0010
0000
0000
1001
0000
1000
0001
0000
0001
0000
0001
1000
0000
0010
0000
,
0100
0001
0100
0001
1000
0000
0001
0010
0000
0010
0000
0010
0000
0001
0010
0100
,
0000
0010
0001
0100
0000
0000
0001
1000
0000
1000
0000
1000
0000
0001
1000
0100
,
0000
1000
0100
0000
1000
0000
0001
0100
0000
0100
0000
0100
0000
0001
1000
0100
,
0000
0010
0100
1000
0010
0000
0100
0001
1000
0000
0100
1000
0001
0000
0010
0100
,
1000
0001
1000
0001
1000
0000
0001
0000
0001
0000
0001
0000
0001
0000
0010
0000
,
0001
0000
0010
0000
0000
0001
0000
0001
0000
0001
0000
0001
0010
0000
0001
0000
,
0010
0000
0001
0000
0000
1000
0000
1000
0100
0000
0100
0000
0100
0000
1000
0000
,
0100
0000
1000
0000
0010
0000
0100
0010
0000
0100
0010
0000
0100
0000
0001
1000
,
0000
0001
1000
0000
1010
0000
0010
0000
0110
0000
0001
0000
1001
0000
0100
0000
,
0010
1000
1001
0001
0011
0100
1000
0010
,
0110
0000
0100
0000
0001
1000
0001
0000
1000
0100
1000
0000
0010
0100
0001
0000
,
1000
0001
1000
0000
0001
0010
0001
0000
0100
0010
0100
0000
0010
1000
0100
0000
,
0010
0100
0010
0000
1001
0000
0010
0000
0100
0010
0001
0000
0010
0100
1000
0000
,
0100
1000
0010
0000
1001
0000
1000
0000
0100
0010
0001
0000
0100
0010
1000
0000
,
0100
0010
0001
0000
1000
0100
0001
0000
1000
0010
0001
0000
1000
0010
0100
0000
,
0001
0010
0001
0000
0010
0100
0010
0100
1000
0010
1000
0010
1000
0100
0010
0100
,
1000
0001
0100
0001
2000
0100
0000
0000
3200
1000
0000
0000
2300
0100
0000
0000
,
3020
0100
0000
0000
0230
0010
0000
0000
0320
0100
0000
0000
0230
0001
0000
0000
,
0302
0100
0000
0000
0203
0001
0000
0000
0300
0000
0000
0000
0000
0000
0000
0000
;

//---------------dance-single - ----------------
#NOTES:
     dance-single:
     :
     Challenge:
     15:
     0.800246,0.942988,0.322468,0.128987,1.266837,608.000000,573.000000,35.000000,14.000000,0.000000,0.000000,0.800246,0.942988,0.322468,0.128987,1.266837,608.000000,573.000000,35.000000,14.000000,0.000000,0.000000:
// measure 0
0000
0000
0000
0000
,  // measure 1
0000
0000
0000
0000
,  // measure 2
1001
0000
0001
0000
0100
0001
0000
0001
0010
0100
1000
0000
1200
0000
0320
0000
,  // measure 3
0130
0000
1000
0000
1001
0000
0001
0000
1000
0001
0010
0100
0100
0010
0010
0000
,  // measure 4
0001
0000
1000
0000
0100
1000
0000
1000
0001
0100
0010
0000
0201
0000
0320
0000
,  // measure 5
0130
0000
0001
0000
1001
0000
1000
0010
0100
0002
0000
1003
0100
0010
0001
0000
,  // measure 6
1001
0000
1000
0100
1000
0000
1000
0001
1000
0000
1000
0100
1000
0000
1000
0001
,  // measure 7
1000
0000
0010
0100
0010
0000
0010
1000
0010
0000
0010
0100
0010
0000
0010
1000
,  // measure 8
0010
0000
0100
0001
0100
0000
0100
0010
0100
0000
0100
0001
0100
0000
0100
0010
,  // measure 9
0100
0000
0001
0010
0001
0000
0001
1000
0001
0000
0001
0010
0001
0000
0001
1000
,  // measure 10
0001
0010
0001
0010
1000
0010
1000
0010
0001
0100
0001
0100
1000
0100
1000
0100
,  // measure 11
0001
0010
0001
0010
1000
0010
1000
0010
0001
0100
0001
0100
1000
0100
1000
0100
,  // measure 12
1001
0000
0000
0001
0010
0100
0010
0000
0000
0001
0010
0100
0010
0000
0000
0001
0100
0010
0100
0000
0000
0001
0100
0010
,  // measure 13
0100
0000
0000
0001
1000
0100
0010
0000
0000
0001
1000
0100
0010
0000
0000
0001
0100
0010
1000
0000
0000
0001
0100
0010
,  // measure 14
1000
0100
1000
0100
0001
0100
0001
0100
1000
0010
1000
0010
0001
0010
0001
0010
,  // measure 15
1000
0100
1000
0100
0001
0100
0001
0100
1000
0010
1000
0010
0001
0010
0001
0010
,  // measure 16
1001
0000
0000
1000
0100
0010
0100
0000
0000
1000
0010
0100
0001
0000
0000
1000
0100
0010
0100
0000
0000
1000
0010
0100
,  // measure 17
0001
0000
0000
0010
0100
1000
0001
0000
0000
0010
0001
0100
0010
0000
0000
1000
0100
0010
0100
0000
0000
0010
0001
0100
,  // measure 18
0010
0000
0000
0000
1000
0100
0010
0001
1100
0000
1000
0010
0110
0000
0100
0001
,  // measure 19
0011
0000
0100
1000
0001
0010
0100
1000
1100
0000
0001
1000
1010
0000
0010
0100
,  // measure 20
0101
0000
0010
0100
1000
0010
0100
0001
0101
0000
1000
0100
0011
0000
0010
0001
,  // measure 21
0110
0000
0010
1000
0001
0010
0100
1000
0101
0000
0001
0100
1010
0000
0010
1000
,  // measure 22
0110
0000
0000
0000
0001
0000
0010
0000
1100
0000
0000
0000
0010
0000
0100
0000
0000
0000
0100
0000
0000
0000
0100
0000
0000
0000
0001
0100
0001
0000
0100
0000
,  // measure 23
0000
0100
0010
1000
0000
0000
0100
0010
0000
0010
0000
0010
0000
0100
0010
0100
,  // measure 24
0000
0000
0010
0000
0001
0000
1000
0000
0100
0000
0000
0000
0010
0000
0001
0000
0000
0000
0001
0000
0000
0000
0001
0000
0000
0000
0010
0001
0010
0000
0001
0000
,  // measure 25
0000
0001
0000
0000
1000
0100
0001
0100
1000
0001
0010
0100
1001
0010
0100
1000
,  // measure 26
0010
0000
0001
0000
0010
0000
1000
0000
1100
0000
0000
0000
0010
0000
0100
0000
0000
0000
0100
0000
0000
0000
0100
0000
0000
0000
0010
0100
0010
0000
0100
0000
,  // measure 27
0000
0100
0000
0100
0000
0000
0001
0010
0000
0010
0000
0010
0000
0001
0010
0001
,  // measure 28
0000
0000
0010
0000
0100
0000
0000
0000
1001
0000
0000
0000
0001
0000
0100
0000
0000
0000
0100
0000
0000
0000
0100
0000
0000
0000
0001
0100
0001
0000
0100
0000
,  // measure 29
0010
0100
0001
0100
0000
0001
1000
0100
0001
0100
1000
0001
0010
0001
1000
0010
,  // measure 30
0001
0010
1000
0100
0011
0000
0010
0000
0010
0000
0010
0000
0010
0000
0001
0010
,  // measure 31
0000
0001
0010
0000
0000
0100
0000
0100
0000
0100
0000
0100
1000
0000
0100
1000
,  // measure 32
0000
0100
1000
0000
0000
0010
0000
0010
0100
0000
0100
0000
0100
0000
0010
0100
,  // measure 33
0000
0000
0000
0010
0000
0000
0100
0000
0000
0000
0000
0000
0001
0000
0100
0000
0001
0000
1000
0000
0100
0000
0010
0000
0001
0000
1000
0000
0010
0000
1000
0000
0100
0000
0010
0000
0001
0000
1000
0000
0001
0000
1000
0000
0010
0000
0100
0000
,  // measure 34
0001
1000
0001
0010
0000
0000
1001
0000
0000
0010
0000
0000
1100
0000
0000
0010
0000
0000
1001
0000
0000
0010
0000
0000
,  // measure 35
1100
0010
1001
0010
0101
0010
1001
0010
,  // measure 36
0101
0000
0000
0010
0000
0000
1000
0100
0010
0001
0010
0100
1000
0010
0100
0001
0100
0000
0001
0010
0100
1000
0100
0010
,  // measure 37
0001
1000
0010
0100
0010
0000
1000
0001
0010
0100
0010
0001
1000
0010
0100
0010
1000
0000
0100
0010
0001
0010
0100
0010
,  // measure 38
0001
0000
1000
0000
0010
0000
0100
0000
0010
0000
0000
0000
1001
0000
0000
0100
0000
0000
1000
0000
0000
0001
0000
0000
0100
0000
0000
1000
0000
0000
0100
0000
0000
0001
0000
0000
1000
0000
0000
0100
0000
0000
0010
0000
0000
0001
0000
0000
,  // measure 39
1000
0001
0100
0001
0010
0100
1000
0001
0010
1000
0010
0001
1000
0010
0100
1000
,  // measure 40
0100
0000
0000
0010
0000
0000
1000
0000
0000
0001
0000
0000
0100
0000
0010
0000
0100
0000
0010
0000
1000
0000
0100
0000
0001
0000
0100
0000
1000
0000
0001
0000
1000
0000
0001
0000
0010
0000
0100
0000
0010
0000
0100
0000
1000
0000
0010
0000
,  // measure 41
0001
0000
0010
0000
1000
0000
0001
0000
1000
0000
0001
0000
0100
0000
0000
0010
0000
0000
1000
0000
0000
0001
0000
0000
0010
0000
0000
1000
0000
0000
0010
0000
0000
0001
0000
0000
1000
0000
0000
0010
0000
0000
0001
0000
0000
0010
0000
0000
,  // measure 42
1000
0100
0010
0001
1000
1000
0020
0000
0130
0100
0002
0000
1003
1000
0200
0000
,  // measure 43
0310
0010
0002
0000
0103
0100
0020
0000
1030
1000
0002
0000
0013
0010
0200
0000
,  // measure 44
1300
1000
0010
0000
0220
0000
0000
0000
0330
0000
0000
0000
0000
0000
0000
0000
;

//---------------dance-single - ----------------
#NOTES:
     dance-single:
     :
     Beginner:
     2:
     0.126355,0.202694,0.073707,0.000000,0.000000,96.000000,88.000000,8.000000,0.000000,0.000000,0.000000,0.126355,0.202694,0.073707,0.000000,0.000000,96.000000,88.000000,8.000000,0.000000,0.000000,0.000000:
0000
0000
0000
0000
,
0000
0000
0000
0000
,
0100
0000
0000
0000
,
1000
0000
0000
0000
,
0100
0000
0000
0000
,
0000
0000
0000
0000
,
1000
0000
0000
0000
,
0000
0000
0000
0000
,
0010
0000
0000
0000
,
0000
0000
0000
0000
,
0100
0000
0100
0000
,
0100
0000
0100
0000
,
0110
0000
0000
0000
,
1001
0000
0001
0000
,
0010
0000
0010
0000
,
0010
0000
0010
0000
,
0110
0000
1000
0000
,
1001
0000
0001
0000
,
0000
0110
0000
1000
,
0000
0001
0000
1000
,
0000
0100
0000
1000
,
0000
0001
0000
0100
,
0000
0010
0010
0010
,
0000
0100
0100
0100
,
0000
0010
0010
0010
,
0000
0100
0000
0001
,
0000
1000
1000
1000
,
0000
0001
0001
0001
,
0000
1000
1000
0010
,
0000
1000
0001
1000
,
0001
0010
0000
0000
,
0000
0000
0000
0000
,
0000
0100
0000
0000
,
0000
1000
0000
0001
,
0000
1001
0000
0100
,
0000
0010
0000
0001
,
0000
1001
0000
0010
,
0000
0100
0000
1000
,
0000
1001
0001
0010
,
0010
0100
0100
1000
,
1000
0001
0100
0010
,
1000
0010
0100
0001
,
1000
0100
0100
0100
,
0100
0100
0100
0100
,
0100
0000
0000
0000
;
