#TITLE:sweet&sour;
#SUBTITLE:;
#ARTIST:EBISU;
#TITLETRANSLIT:;
#SUBTITLETRANSLIT:;
#ARTISTTRANSLIT:;
#CREDIT:DigiMindAxel;
#BANNER:sweet&sour.png;
#BACKGROUND:sweet&sour-bg.png;
#LYRICSPATH:;
#CDTITLE:DigiMindAxel original simfile.png;
#MUSIC:sweet&sour.ogg;
#METERTYPE:DDR X;
#OFFSET:-7.260;
#SAMPLESTART:9.652;
#SAMPLELENGTH:12.000;
#SELECTABLE:YES;
#DISPLAYBPM:100.000:200.000;
#BPMS:0.000=200.000,168.000=100.000,196.000=200.000,204.000=100.000,236.000=399.998,252.000=200.000;
#STOPS:302.000=0.300
;
#BGCHANGES:;

//---------------dance-single - ----------------
#NOTES:
     dance-single:
     :
     Easy:
     7:
     0.342,0.461,0.056,0.056,0.000: // measure 1
1001
1001
0000
0000
,  // measure 2
0000
0000
0010
0010
,  // measure 3
0010
0100
0010
0000
,  // measure 4
1000
0000
0001
0000
,  // measure 5
1000
0001
1000
0000
,  // measure 6
0100
0000
0010
0000
,  // measure 7
0001
0100
0001
0000
,  // measure 8
1000
0000
0100
0000
,  // measure 9
0010
0100
0010
0000
,  // measure 10
0001
1000
0001
1000
,  // measure 11
0100
1000
0100
1000
,  // measure 12
0010
0100
0010
0100
,  // measure 13
0001
0010
0001
0010
,  // measure 14
0100
1000
0100
1000
,  // measure 15
0010
0100
0010
0100
,  // measure 16
0010
0100
0010
0100
,  // measure 17
0010
0010
0010
0010
,  // measure 18
0200
0000
0000
0000
,  // measure 19
0301
1000
0001
0010
,  // measure 20
0001
1000
0001
0000
,  // measure 21
1000
0001
1000
0100
,  // measure 22
1000
0001
1000
0000
,  // measure 23
0001
1000
0001
0100
,  // measure 24
0001
1000
0001
0000
,  // measure 25
1000
0001
1000
0010
,  // measure 26
1000
0001
1000
0000
,  // measure 27
0100
1000
0100
0010
,  // measure 28
0100
1000
0100
0000
,  // measure 29
0010
0001
0010
0100
,  // measure 30
0010
0001
0010
0000
,  // measure 31
0100
1000
0001
1000
,  // measure 32
0100
1000
0001
0000
,  // measure 33
0100
0010
0100
0001
,  // measure 34
0100
0010
0100
0000
,  // measure 35
1001
0000
1000
0000
,  // measure 36
0001
0010
0100
1000
,  // measure 37
1001
0000
0001
0000
,  // measure 38
1000
0100
0010
0001
,  // measure 39
1001
0000
1000
0000
,  // measure 40
0010
0100
0001
0100
,  // measure 41
1001
0000
0001
0000
,  // measure 42
0100
0010
1000
0010
,  // measure 43
0200
0001
0001
0301
,  // measure 44
0020
1000
1000
1030
,  // measure 45
0002
0010
0010
0013
,  // measure 46
0200
1000
1000
1300
,  // measure 47
0010
0100
0010
0000
1000
0000
0001
0000
,  // measure 48
0010
0001
0010
0000
0100
0000
1000
0000
,  // measure 49
0010
0100
0010
0000
0100
0000
0001
0000
,  // measure 50
1000
0100
1000
0000
,  // measure 51
0001
1000
0001
1000
,  // measure 52
0100
1000
0100
0000
0010
0100
0010
0000
,  // measure 53
0001
0010
0001
0000
0100
0010
0100
0000
,  // measure 54
0001
1000
0001
0000
0010
0001
0010
0000
,  // measure 55
0100
0010
0100
0010
0100
1000
0100
0000
,  // measure 56
1000
0001
1000
0000
0100
0010
0001
0000
,  // measure 57
0010
0001
0010
0000
0001
1000
0010
0000
,  // measure 58
0100
0100
0100
0000
0001
0001
0001
0000
,  // measure 59
1000
1000
1000
0000
0100
1000
0100
1000
,  // measure 60
0020
0000
0000
0000
,  // measure 61
0000
0000
0000
0000
,  // measure 62
0000
0000
0000
0000
,  // measure 63
0000
0000
0000
0000
,  // measure 64
0130
0001
0100
0001
,  // measure 65
1000
0100
0010
0100
,  // measure 66
1000
0001
1000
0000
,  // measure 67
0010
0100
0001
0100
,  // measure 68
0010
1000
0010
0000
,  // measure 69
1000
0001
1000
0100
,  // measure 70
0010
0001
0100
0000
,  // measure 71
0010
0100
0001
0010
,  // measure 72
0100
0010
0001
0000
,  // measure 73
0010
0001
0100
0010
,  // measure 74
1000
0010
0100
0000
,  // measure 75
0010
0100
0010
1000
,  // measure 76
0100
0010
0001
1001
,  // measure 77
1000
1000
0000
0001
,  // measure 78
0001
0001
0000
1000
,  // measure 79
1000
1000
0000
0001
,  // measure 80
0001
0001
0000
0200
,  // measure 81
0000
0000
0000
0000
,  // measure 82
0000
0000
0000
0300
;

//---------------dance-single - ----------------
#NOTES:
     dance-single:
     :
     Medium:
     13:
     0.659,0.921,0.628,0.274,0.149: // measure 1
0011
0000
0011
0000
0100
0000
1000
0001
,  // measure 2
0000
1000
0100
0000
0010
0100
0010
0100
,  // measure 3
0010
0000
0110
0000
1000
0000
0001
0010
,  // measure 4
0000
0001
1000
0000
0010
0000
0110
0000
,  // measure 5
1000
0000
1001
0000
0001
0000
0100
0010
,  // measure 6
0000
0100
0010
0000
1000
0100
1000
0010
,  // measure 7
0100
0000
0110
0000
0010
0000
1000
0100
,  // measure 8
0000
1000
0001
0000
0010
0000
0011
0000
,  // measure 9
0100
0000
0110
0000
0010
0000
1000
0100
,  // measure 10
0000
1000
0001
0100
0001
0100
0010
0000
,  // measure 11
1000
0100
0010
0000
0001
0010
0001
0000
,  // measure 12
1000
0100
0010
0000
0001
0010
0001
0000
,  // measure 13
1000
0010
0100
0000
0001
0100
0001
0000
,  // measure 14
1000
0010
0100
0000
0001
0100
0001
0000
,  // measure 15
1001
1001
1001
1001
,  // measure 16
0110
0110
0110
0110
,  // measure 17
1000
0001
1000
0001
1000
0001
1000
0001
,  // measure 18
0020
0001
0001
0031
,  // measure 19
2200
0000
3300
0000
0010
0000
0001
0100
,  // measure 20
2000
3200
0302
0013
,  // measure 21
0022
0000
0033
0000
0100
0000
1000
0010
,  // measure 22
0002
0023
2030
3100
,  // measure 23
2002
0000
3003
0000
0010
0100
0002
0000
,  // measure 24
0023
2030
3020
0031
,  // measure 25
2002
0000
3003
0000
0100
0010
2000
0000
,  // measure 26
3200
0302
0203
1300
,  // measure 27
0110
0000
0100
0000
0001
0010
0100
1000
,  // measure 28
0100
1000
0010
0100
0010
0100
0001
0000
,  // measure 29
0110
0000
0100
0000
0001
1000
0100
0010
,  // measure 30
0001
0100
0001
0100
0010
1000
0100
0000
,  // measure 31
0110
0000
0001
0000
1000
0010
1000
0010
,  // measure 32
0100
0001
0100
0001
0010
0100
0010
0000
,  // measure 33
0110
0000
1000
0000
0010
1000
0001
0010
,  // measure 34
0100
1000
0001
0100
0010
0100
0001
0000
,  // measure 35
1001
0000
0000
0000
0100
1000
0001
0000
,  // measure 36
1001
0000
0000
0000
0001
0010
0100
0000
,  // measure 37
1100
0000
0000
0000
0010
0001
0100
0000
,  // measure 38
0101
0000
0000
0000
0010
1000
0001
0000
,  // measure 39
1001
0000
1000
0000
0100
1000
0010
0000
,  // measure 40
1010
0000
0100
0000
0010
0100
1000
0000
,  // measure 41
1100
0000
0010
0000
0001
0100
0010
0000
,  // measure 42
1000
0001
1000
0001
1000
0001
1000
0001
,  // measure 43
0010
0010
0011
0000
0200
2300
3020
0230
,  // measure 44
0310
0010
0110
0000
0200
0302
2003
3200
,  // measure 45
1300
0000
1000
0000
1100
0000
0000
0000
0010
0001
0010
0001
0100
0000
0010
0000
,  // measure 46
0100
0000
0100
0000
0101
0000
0000
0000
0010
1000
0010
1000
0100
0000
0100
0000
,  // measure 47
0011
0000
0011
0000
1001
0000
0000
0000
1000
0100
0010
0000
0011
0000
0000
0000
,  // measure 48
1100
0000
1100
0000
1001
0000
0000
0000
0001
0010
0100
1000
0010
0000
0000
0000
,  // measure 49
0101
0000
0101
0000
1001
0000
0000
0000
1000
0100
0010
0000
0011
0000
0000
0000
,  // measure 50
0110
0000
0110
0000
1000
0001
0100
0001
,  // measure 51
0000
0100
0001
0000
0010
0000
0100
0000
,  // measure 52
1001
0000
1001
0000
0011
0000
0000
0000
0100
1000
0100
1000
0001
0000
0001
0000
,  // measure 53
0110
0000
0110
0000
1100
0000
0000
0000
0010
0001
0010
0001
0100
0010
0100
0010
,  // measure 54
1000
0000
1010
0000
1001
0000
0000
0000
0001
0010
0001
0010
0100
0000
0100
0000
,  // measure 55
1000
0010
0000
0010
0100
0010
0100
0001
1000
0000
0100
0000
0010
0100
0010
0000
,  // measure 56
0101
0000
0101
0000
0100
0010
0100
0000
1010
0000
1010
0000
0010
0100
0010
0000
,  // measure 57
1001
0000
1001
0000
1000
0100
1000
0000
0001
1000
0001
0000
1000
0100
1000
0000
,  // measure 58
0001
0100
0010
0100
0001
0000
0000
0010
0100
0010
0001
0010
0100
0000
0000
0000
,  // measure 59
0010
0001
0100
0001
0010
0000
0000
0000
0100
1000
0001
1000
0100
1000
0001
1000
,  // measure 60
0200
0000
0000
0000
,  // measure 61
0000
0000
0000
0000
,  // measure 62
0000
0000
0000
0000
,  // measure 63
0000
0000
0000
0000
,  // measure 64
0300
1000
0100
1000
0000
0001
1000
0001
,  // measure 65
0100
0000
0101
0000
0001
1000
0001
0100
,  // measure 66
0000
0001
0100
0000
0010
0000
1000
0000
,  // measure 67
1100
0000
1100
0000
1000
0010
1000
0001
,  // measure 68
0000
1000
0001
0000
0010
0000
0100
0010
,  // measure 69
0100
0000
0110
0000
0010
1000
0001
0010
,  // measure 70
0000
0001
0010
0000
0100
0000
1000
0000
,  // measure 71
0110
0000
0110
0000
0100
0001
1000
0100
,  // measure 72
0000
1000
0100
0000
0010
0100
0010
0000
,  // measure 73
1001
0000
1001
0000
0100
0010
1000
0100
,  // measure 74
0000
1000
0100
0000
0001
0000
0100
0000
,  // measure 75
1100
0000
1001
0000
0001
1000
0001
0100
,  // measure 76
0010
0000
0000
0000
0000
0000
1000
0000
0000
0000
0000
0000
0100
0000
0000
0000
0000
0000
0000
0000
0000
0000
0000
0000
0020
0030
0000
0000
0000
0000
0000
0000
0000
0000
0000
0000
0101
0000
0000
0000
0000
0000
0000
0000
0000
0000
0000
0000
,  // measure 77
0101
0000
0100
0010
0100
0000
1010
0000
,  // measure 78
1010
0000
0010
0100
0010
0000
1001
0000
,  // measure 79
1001
0000
0010
0100
0010
0000
1000
0001
,  // measure 80
1000
0001
0100
0010
1000
0010
0200
0000
,  // measure 81
0000
0000
0000
0000
,  // measure 82
0000
0000
0000
0300
;

//---------------dance-single - ----------------
#NOTES:
     dance-single:
     :
     Hard:
     16:
     0.947,1.000,0.644,0.242,0.652: // measure 1
1001
0000
1001
0000
0001
0010
0100
1000
,  // measure 2
0000
0100
0001
0100
1000
0001
1000
0001
,  // measure 3
0011
0000
0011
0000
0100
1000
0001
1000
,  // measure 4
0000
0100
0001
0100
1000
0000
1001
0000
,  // measure 5
0101
0000
0101
0000
0010
1000
0001
1000
,  // measure 6
0000
0010
0001
0010
1000
0002
0103
0020
,  // measure 7
0130
0000
0110
0000
1000
0100
0010
0001
,  // measure 8
0000
0010
1000
0010
0001
0000
1001
0000
,  // measure 9
1100
0000
1100
0000
0010
0001
0100
0001
,  // measure 10
0000
0100
1000
0100
0001
0020
0230
0000
,  // measure 11
1300
0000
0001
1000
0001
0000
1000
0000
0010
0000
0001
0000
0010
0000
1000
0000
,  // measure 12
0100
0000
0010
0100
0010
0000
0001
0000
0100
0000
0010
0000
0100
0000
0001
0000
,  // measure 13
0100
0000
0010
0100
0010
0000
1000
0000
0001
0000
0100
0000
1000
0000
0100
0000
,  // measure 14
0001
0000
1000
0100
1000
0000
0001
0000
0010
0000
0100
0000
0010
0000
0001
0000
,  // measure 15
0101
1010
0101
1010
,  // measure 16
0110
1001
0110
1001
,  // measure 17
1000
0010
0100
0001
1000
0100
0010
0100
,  // measure 18
1000
0000
0100
0000
0010
0000
0001
0000
0100
0000
0001
0100
0001
0100
0010
0000
,  // measure 19
2001
0000
3100
0000
0001
0100
1000
0001
,  // measure 20
0100
0100
0001
0001
0010
0010
0100
0100
,  // measure 21
1002
0000
0013
0000
1000
0010
0001
1000
,  // measure 22
0100
0100
0010
0010
0001
0001
0100
0100
,  // measure 23
2001
0000
3010
0000
0001
0010
1000
0100
,  // measure 24
0010
0010
0100
0100
1000
1000
0010
0010
,  // measure 25
1002
0000
0103
0000
1000
0100
0001
0010
,  // measure 26
0001
0001
0100
0100
0010
0010
1000
0100
,  // measure 27
0021
0000
0130
0000
1000
0100
1000
0001
,  // measure 28
1000
0100
0001
0100
1000
0010
0001
0010
,  // measure 29
2001
0000
3001
0000
1000
0100
1000
0001
,  // measure 30
1000
0100
0001
0100
1000
0100
0001
0100
,  // measure 31
1002
0000
1003
0000
0001
0010
0001
1000
,  // measure 32
0001
0010
1000
0010
0001
0010
1000
0010
,  // measure 33
1002
0000
1003
0000
0001
0010
0001
1000
,  // measure 34
0001
0010
1000
0010
0001
0010
1000
0010
,  // measure 35
0001
1000
0001
1000
0001
0000
0000
0000
0100
0001
0100
0000
0001
0100
0001
0000
,  // measure 36
1000
0100
1000
0100
1000
0000
0000
0000
0010
0100
0010
0000
0100
0010
0100
0000
,  // measure 37
0001
1000
0001
1000
0001
0000
0000
0000
0010
0001
0010
0000
0001
0010
0001
0000
,  // measure 38
0100
0010
0100
0010
0100
0000
0000
0000
0001
1000
0001
0000
1000
0001
1000
0000
,  // measure 39
0010
1000
0010
1000
0001
0000
0010
0000
0100
1000
0100
0000
1000
0001
1000
0000
,  // measure 40
0100
1000
0100
1000
0010
0000
0100
0000
0001
0100
0001
0000
1000
0001
1000
0000
,  // measure 41
0001
0010
0001
0010
0100
0000
1000
0000
0010
0100
0010
0000
0100
0001
0100
0000
,  // measure 42
0001
1000
0001
1000
0100
0000
0010
0000
0001
0100
0001
0100
0001
0100
0001
0100
,  // measure 43
0001
0000
1001
0000
1100
1000
0100
0010
0002
0000
0203
0000
2300
0000
3200
0000
,  // measure 44
0301
0000
0101
0000
1001
1000
0010
0100
0001
0010
0000
1000
0010
0000
0001
0000
,  // measure 45
0011
0000
0011
0000
1001
1000
0010
0100
0000
0010
1000
0100
0010
0000
0011
0000
,  // measure 46
1001
0000
1001
0000
1100
1000
0010
0100
0000
0010
1000
0100
0010
0001
1000
0000
,  // measure 47
1010
0000
1010
0000
0010
0100
0010
1000
0100
0001
0100
1000
0100
0001
0100
1000
,  // measure 48
1001
0000
1001
0000
0100
0010
0100
0001
0020
0000
2030
0000
3020
0001
0031
0000
,  // measure 49
1001
0000
1001
0000
0100
0010
0100
1000
0000
0100
0001
0100
1000
0010
0100
0000
,  // measure 50
1001
0000
1001
0000
1000
0100
0010
0200
,  // measure 51
0000
1300
0010
0100
0002
1000
1003
0000
,  // measure 52
0110
0000
0110
0000
1001
0001
1000
0100
0010
0100
1000
0001
0100
1000
0100
0001
,  // measure 53
1001
0000
1001
0000
0110
0010
0100
1000
0001
0100
0001
1000
0100
0001
0100
1000
,  // measure 54
1001
0000
1001
0000
0110
0100
0010
0001
1000
0100
1000
0001
0100
1000
0100
0001
,  // measure 55
0100
0000
0110
0000
0000
0000
0110
0000
0010
0100
0010
0000
1000
0000
0100
0000
0010
0000
0000
0000
0001
0000
1000
0010
1000
0000
0001
0000
0010
0000
0000
0000
,  // measure 56
1100
0000
1100
0000
0010
0001
1000
0010
1010
0000
1010
0000
0100
0001
0010
0001
,  // measure 57
0011
0000
0011
0000
0100
1000
0001
0100
0001
2000
0100
3100
0010
0002
0100
0103
,  // measure 58
0010
1000
0000
0010
1000
0000
0001
0000
0011
0000
0000
0000
0000
0000
0100
0010
0100
0000
0000
1000
0000
0000
0001
0000
0101
0000
0000
0000
0101
0000
0000
0000
,  // measure 59
0010
0000
1000
0000
0001
0000
0010
0000
0100
0010
0100
0000
1000
0000
0000
0000
0001
0000
0100
0000
0010
0100
0010
0100
0001
0000
1000
0000
0100
0010
0100
0010
,  // measure 60
0002
0000
0000
0000
,  // measure 61
0000
0000
0000
0000
,  // measure 62
1000
0000
1000
1000
,  // measure 63
1000
1000
2003
0000
,  // measure 64
3001
0000
0010
0000
0100
0010
0100
0010
0100
0000
1000
0000
0001
0100
0001
0100
,  // measure 65
0001
0000
1001
0000
1000
0100
1000
0001
,  // measure 66
0100
0001
0100
0000
0001
1000
0001
0000
1000
0100
1000
0000
0001
1000
0001
0000
,  // measure 67
1001
0000
1001
0000
0001
0100
0010
1000
,  // measure 68
0100
1000
0100
0000
1000
0001
1000
0000
0001
0010
0001
0000
1000
0001
1000
0000
,  // measure 69
1001
0000
1001
0000
0001
0100
0010
1000
,  // measure 70
0010
0100
0010
0000
0100
0001
0100
0000
0010
0100
0010
0000
1000
0001
1000
0000
,  // measure 71
1001
0000
1001
0000
0001
1000
0100
0010
,  // measure 72
0001
0100
0001
0000
0100
0010
0100
0000
0010
1000
0010
0000
1000
0001
1000
0000
,  // measure 73
1001
0000
1001
0000
0001
1000
0100
0010
,  // measure 74
0001
0100
0001
0100
0010
0000
1000
0000
0100
1000
0100
1000
0010
0000
0100
0000
,  // measure 75
0101
0000
0101
0000
0010
1000
0100
0010
,  // measure 76
0001
0000
0000
1000
0000
0000
0001
0000
0000
1000
0000
0000
0010
0000
0000
0000
0000
0000
0100
0000
0000
0000
0000
0000
0002
0003
0000
0000
0000
0000
0000
0000
0000
0000
0000
0000
0110
0000
0000
0000
0000
0000
0000
0000
0000
0000
0000
0000
,  // measure 77
0110
0000
0000
0000
1001
0000
1000
0000
0100
0000
0010
0000
0001
0100
0001
0000
,  // measure 78
1000
0100
1000
0000
0001
0100
0001
0000
1000
0100
1000
0000
0001
0000
0010
0000
,  // measure 79
1000
0000
0010
0000
0001
0000
1000
0000
0100
0000
0010
0000
0001
0010
0001
0010
,  // measure 80
0100
1000
0010
1000
0100
0010
0100
0010
0001
0100
0010
0100
0002
0000
0000
0000
,  // measure 81
1003
0000
1000
0100
0010
0002
0003
0100
,  // measure 82
0010
0100
0001
2000
0200
0000
3300
0000
;

//---------------dance-single - ----------------
#NOTES:
     dance-single:
     :
     Beginner:
     5:
     0.167,0.289,0.008,0.000,0.000: // measure 1
1000
1000
0000
0000
,  // measure 2
0001
0000
1000
0000
,  // measure 3
0100
0000
1000
0000
,  // measure 4
0100
0000
0010
0000
,  // measure 5
0001
0000
1000
0000
,  // measure 6
0001
0000
1000
0000
,  // measure 7
0010
0000
0100
0000
,  // measure 8
0010
0000
0100
0000
,  // measure 9
0001
0000
1000
0000
,  // measure 10
0001
0000
0000
0000
,  // measure 11
1000
0000
1000
0000
,  // measure 12
0100
0000
0100
0000
,  // measure 13
1000
0000
1000
0000
,  // measure 14
0100
0000
0100
0000
,  // measure 15
0010
0000
0010
0000
,  // measure 16
0010
0000
0010
0000
,  // measure 17
0001
0000
0001
0000
,  // measure 18
0001
0000
0001
0000
,  // measure 19
1000
0000
0100
0000
,  // measure 20
0010
0000
0010
0000
,  // measure 21
0010
0000
0001
0000
,  // measure 22
0100
0000
0100
0000
,  // measure 23
0100
0000
0010
0000
,  // measure 24
1000
0000
1000
0000
,  // measure 25
1000
0000
0100
0000
,  // measure 26
0010
0000
0010
0000
,  // measure 27
0001
0000
1000
0000
,  // measure 28
0100
0000
0100
0000
,  // measure 29
0100
0000
0010
0000
,  // measure 30
0001
0000
0001
0000
,  // measure 31
0001
0000
0100
0000
,  // measure 32
0010
0000
0010
0000
,  // measure 33
0010
0000
1000
0000
,  // measure 34
0100
0000
0100
0000
,  // measure 35
0100
0000
0000
0000
,  // measure 36
1000
0000
0000
0000
,  // measure 37
0010
0000
0000
0000
,  // measure 38
0100
0000
0000
0000
,  // measure 39
0001
0000
0000
0000
,  // measure 40
1000
0000
0000
0000
,  // measure 41
0001
0000
0000
0000
,  // measure 42
0010
0000
0000
0000
,  // measure 43
0100
0000
0000
0000
,  // measure 44
0100
0000
0000
0000
,  // measure 45
0010
0000
0000
0000
,  // measure 46
0010
0000
0000
0000
,  // measure 47
0001
0000
1000
0000
,  // measure 48
0100
0000
0010
0000
,  // measure 49
0100
0000
1000
0000
,  // measure 50
0001
0000
0001
0000
,  // measure 51
0001
0000
0000
0000
,  // measure 52
1000
0000
0010
0000
,  // measure 53
0100
0000
0001
0001
,  // measure 54
1000
0000
0100
0000
,  // measure 55
0010
0010
0010
0000
,  // measure 56
0001
0100
0001
0100
,  // measure 57
0001
0100
0001
0100
,  // measure 58
0010
1000
0010
1000
,  // measure 59
0010
1000
0001
1000
,  // measure 60
0001
0000
0000
0000
,  // measure 61
0000
0000
0000
0000
,  // measure 62
0000
0000
0000
0000
,  // measure 63
0000
0000
0000
0000
,  // measure 64
1000
0000
0000
0000
,  // measure 65
1001
0000
0000
0000
,  // measure 66
0001
0000
0010
0000
,  // measure 67
0001
0000
0000
0000
,  // measure 68
0100
0000
0010
0000
,  // measure 69
0100
0000
0000
0000
,  // measure 70
0001
0000
0100
0000
,  // measure 71
0001
0000
0000
0000
,  // measure 72
1000
0000
0001
0000
,  // measure 73
1000
0000
1000
0000
,  // measure 74
1000
0000
0000
0000
,  // measure 75
0100
0000
1000
0000
,  // measure 76
0100
0000
0100
0010
,  // measure 77
0000
0010
0000
0010
,  // measure 78
0000
0010
0000
0001
,  // measure 79
0000
0001
0000
0001
,  // measure 80
0000
0001
0000
0100
;
