#TITLE:predawn;
#SUBTITLE:;
#ARTIST:東京女子流;
#TITLETRANSLIT:;
#SUBTITLETRANSLIT:;
#ARTISTTRANSLIT:TOKYO GIRLS' STYLE;
#CREDIT:DigiMindAxel;
#BANNER:predawn.png;
#BACKGROUND:predawn-bg.png;
#LYRICSPATH:predawn.lrc;
#CDTITLE:DigiMindAxel original simfile.png;
#MUSIC:predawn.ogg;
#METERTYPE:DDR X;
#OFFSET:-0.507;
#SAMPLESTART:65.124;
#SAMPLELENGTH:12.000;
#SELECTABLE:YES;
#BPMS:0.000=104.000;
#STOPS:;
#BGCHANGES:-1.000=predawn.avi=1.000=1=1=0,
99999=-nosongbg-=1.000=0=0=0 // don't automatically add -songbackground-
;

//---------------dance-single - ----------------
#NOTES:
     dance-single:
     :
     Easy:
     4:
     0.165,0.208,0.086,0.115,0.000:
0000
0000
0000
0000
,
0000
0000
0000
0000
,
0000
0000
0000
0000
,
0000
0000
0000
0000
,
0002
0000
0003
0000
,
2000
0000
3000
0000
,
0020
0000
0030
0000
,
0200
0000
0300
0000
,
0002
0000
0000
0000
,
2003
0000
0000
0000
,
3200
0000
0000
0000
,
0320
0000
0000
0000
,
0031
1000
0100
0000
,
0010
0001
1000
0000
,
0001
1000
0010
0000
,
0100
0001
1000
0000
,
0100
1000
0100
1000
,
0001
0100
0001
0100
,
0001
1000
0001
1000
,
0100
0000
0000
0000
,
2001
0000
0000
0000
,
3002
0000
0000
0000
,
2003
0000
0000
0000
,
3002
0000
0000
0000
,
1003
1000
1000
0000
,
0100
0100
0100
0000
,
0010
0010
0010
0000
,
0001
0001
0001
0000
,
1001
1000
0001
0010
,
0001
1000
0001
0010
,
0001
1000
0001
0010
,
0001
0100
0010
1000
,
0100
1000
0001
1000
,
0100
1000
0001
1000
,
0100
1000
0001
1000
,
0010
0100
0001
0000
,
1000
0000
1001
0000
,
0001
0000
1001
0000
,
1000
0000
0110
0000
,
0001
0000
0110
0000
,
1000
0010
0110
0000
,
0001
0100
0110
0000
,
1000
0001
1001
0000
,
0001
1000
0000
0000
;

//---------------dance-single - ----------------
#NOTES:
     dance-single:
     :
     Medium:
     7:
     0.283,0.334,0.183,0.202,0.038: // measure 1
0000
0000
0000
0000
,  // measure 2
0000
0000
0000
0000
,  // measure 3
0000
0000
0000
0000
,  // measure 4
0000
0000
0000
0000
,  // measure 5
2000
0100
0000
3000
,  // measure 6
0002
0100
0000
0003
,  // measure 7
2000
0010
0000
3000
,  // measure 8
0002
0010
0000
0003
,  // measure 9
1000
0100
0010
0000
,  // measure 10
0001
0100
1000
0000
,  // measure 11
0100
0001
1000
0100
,  // measure 12
0020
0000
0000
0130
,  // measure 13
1001
0000
1000
0000
0100
1000
0010
0000
,  // measure 14
1001
0000
0001
0000
0010
0001
0100
0000
,  // measure 15
0010
0000
0100
0000
0001
0010
0100
0000
,  // measure 16
0010
0001
0010
0001
1000
0100
0010
0000
,  // measure 17
0100
0000
1000
0000
0010
0100
0001
0000
,  // measure 18
0100
0000
0010
0000
0100
0001
0010
0000
,  // measure 19
0001
0000
0010
0000
0100
0010
0001
0000
,  // measure 20
0100
0000
0000
0100
0000
0000
0100
0000
0000
0000
0010
0000
0000
0010
0000
0000
,  // measure 21
1002
0100
1000
0103
,  // measure 22
0020
0000
0000
0130
0000
0000
0000
0000
,  // measure 23
0002
1000
1000
1003
,  // measure 24
0200
1000
1000
1300
,  // measure 25
1002
0100
1000
0103
,  // measure 26
0020
0000
0000
0130
0000
0000
0000
0000
,  // measure 27
0001
0010
0100
1000
,  // measure 28
0002
0000
0000
0000
0200
0000
0000
0303
0000
0000
0000
0000
0000
0000
0000
0000
,  // measure 29
0110
0000
0000
0010
0000
0000
0010
0000
0000
0000
1000
0000
0100
0000
0010
0000
,  // measure 30
0001
0000
0000
0001
0000
0000
0001
0000
0000
0000
0010
0000
0001
0000
0100
0000
,  // measure 31
0010
0000
0000
0010
0000
0000
0010
0000
0000
0000
0100
0000
0001
0000
0010
0000
,  // measure 32
0200
0000
2300
0000
3100
0001
0200
0000
,  // measure 33
1300
0000
0000
1000
0000
0000
1000
0000
0000
0000
0010
0000
0100
0000
0001
0000
,  // measure 34
0010
0000
0000
0010
0000
0000
0010
0000
0000
0000
0001
0000
0010
0000
0100
0000
,  // measure 35
1000
0000
0000
1000
0000
0000
1000
0000
0000
0000
0001
0000
0100
0000
0010
0000
,  // measure 36
2000
0000
3002
0000
0013
1000
0020
0000
,  // measure 37
0031
0000
0000
0010
0011
0000
0000
0000
,  // measure 38
0110
0000
0000
0010
0110
0000
0000
0000
,  // measure 39
1010
0000
0000
1000
1010
0000
0000
0000
,  // measure 40
0110
0000
0000
0010
0110
1000
0100
0010
,  // measure 41
1001
0000
0100
0000
1001
0001
1000
0000
,  // measure 42
1100
0000
0010
0000
1001
1000
0001
0000
,  // measure 43
0101
0000
0100
0000
0110
0010
1000
0000
,  // measure 44
0210
0000
0000
0000
0002
0000
0000
0303
0000
0000
0000
0000
0000
0000
0000
0000
;

//---------------dance-single - ----------------
#NOTES:
     dance-single:
     :
     Hard:
     11:
     0.431,0.543,0.144,0.163,0.466: // measure 1
0000
0000
0000
0000
,  // measure 2
0000
0000
0000
0000
,  // measure 3
0000
0000
0000
0000
,  // measure 4
0000
0000
0000
0000
,  // measure 5
0020
0001
0000
0000
,  // measure 6
0230
0010
0000
0000
,  // measure 7
2300
0100
0000
0000
,  // measure 8
3020
0100
0000
0000
,  // measure 9
1030
0000
0000
0001
0000
0000
1000
0000
0000
0000
0100
0000
0000
0100
0000
0000
,  // measure 10
1000
0000
0000
0010
0000
0000
0100
0000
0000
0000
0001
0000
0000
0001
0000
0000
,  // measure 11
0010
0000
0000
0001
0000
0000
0010
0000
0000
0000
0100
0000
0000
0100
0000
0000
,  // measure 12
2000
0000
0000
0100
0000
0000
0100
0000
0000
0000
0000
0000
3001
0000
0000
0000
,  // measure 13
0110
0000
0000
0100
0001
0000
0010
0000
0100
0000
0000
1000
0010
0000
0100
0000
,  // measure 14
0010
0000
0000
0100
0001
0000
0010
0000
0100
0000
0000
0010
0001
0000
0100
0000
,  // measure 15
0001
0000
0000
0010
0100
0000
1000
0000
0010
0000
0000
0100
0001
0000
1000
0000
,  // measure 16
0100
0000
0010
0100
0010
0100
0010
0100
0010
0000
0000
1001
0000
1000
0001
0000
,  // measure 17
1000
0000
0000
1000
0001
0000
0010
0000
0001
0000
0000
0010
0100
0000
1000
0000
,  // measure 18
0100
0000
0000
0010
0001
0000
0100
0000
0010
0000
0000
0100
0001
0000
0010
0000
,  // measure 19
0100
0000
0000
1000
0001
0000
0100
0000
0010
0000
0000
0100
0010
0000
0100
0000
,  // measure 20
0001
0000
0000
0001
0000
0000
0001
0000
0000
0000
1000
0000
0000
1000
0000
0000
,  // measure 21
1010
0000
0000
0010
0100
0000
0000
0100
0010
0000
1000
0000
0100
0000
0010
0000
,  // measure 22
0002
0000
0000
2000
0000
0000
3003
0000
,  // measure 23
0001
0000
0100
0000
0010
0000
1000
0001
0000
1000
0001
0000
0000
0000
0000
0000
,  // measure 24
0010
0000
0100
0000
1000
0000
0001
0100
0000
0001
0000
0000
1000
0000
0100
0000
,  // measure 25
0020
0000
0230
0000
1300
0001
0100
0010
,  // measure 26
0100
0000
0001
0010
0000
0001
0020
0000
0000
0000
0000
0000
0030
0000
0000
0000
,  // measure 27
0001
0000
1000
0000
0100
0000
0010
0001
0000
0200
0000
0000
0300
0000
0000
0000
,  // measure 28
0020
0000
0000
0000
0100
0000
0000
0130
0000
0000
0000
0000
0000
0000
0000
0000
,  // measure 29
1001
0000
1000
0010
0000
1000
0010
0100
0000
0000
0001
0000
1000
0100
1000
0000
,  // measure 30
0001
0000
1000
0100
0000
1000
0100
0010
0000
0000
0001
1000
0010
1000
0001
0000
,  // measure 31
1000
0000
0010
0100
0000
0001
0010
0100
0000
1000
0010
0100
0010
1000
0010
0000
,  // measure 32
1000
0000
0010
0100
0010
0000
1000
0000
0001
0010
0001
1000
0010
1000
0001
0010
,  // measure 33
0001
0000
1000
0100
0000
1000
0100
0010
0000
0000
0001
0000
1000
0010
1000
0000
,  // measure 34
0001
0000
0100
0001
0000
1000
0100
0010
0000
0000
0001
1000
0010
1000
0001
0000
,  // measure 35
1000
0000
0010
0100
0000
0001
0100
0010
0000
1000
0100
0010
0100
1000
0100
0000
,  // measure 36
1000
0000
0001
0100
0002
0000
0000
1000
0000
0000
1003
0000
0010
0000
0100
0000
,  // measure 37
1001
0000
0000
0000
0000
0000
0001
0000
0101
0000
0000
0000
0000
1001
0000
0000
,  // measure 38
1001
0000
0000
0000
0000
0000
1000
0000
1010
0000
0110
0000
0000
0110
0000
0000
,  // measure 39
1001
0000
0000
0000
0000
0000
0001
0000
0011
0000
0000
0000
0000
1001
0000
0000
,  // measure 40
1001
0000
0000
0000
0000
0000
1000
0000
0001
0010
0001
1000
0001
0010
0001
1000
,  // measure 41
0010
0000
0100
0001
0000
1000
0100
1000
0001
0010
0100
0000
1000
0020
0000
0000
,  // measure 42
0130
0000
0001
1000
0000
0001
0100
0001
1000
0100
0010
0000
0001
0020
0000
0000
,  // measure 43
0031
0000
0100
0010
0000
1000
0100
1000
0001
0100
0010
0000
0100
0002
0000
0000
,  // measure 44
0203
0000
0000
0000
0010
0000
0000
0310
0000
0000
0000
0000
0000
0000
0000
0000
;

//---------------dance-single - ----------------
#NOTES:
     dance-single:
     :
     Beginner:
     1:
     0.069,0.124,0.048,0.000,0.000:
0000
0000
0000
0000
,
0000
0000
0000
0000
,
0000
0000
0000
0000
,
0000
0000
0000
0000
,
1000
0000
0000
0000
,
0100
0000
0000
0000
,
0010
0000
0000
0000
,
0001
0000
0000
0000
,
1000
0000
0000
0000
,
0010
0000
0000
0000
,
0100
0000
0000
0000
,
0010
0000
0000
0000
,
1001
0000
0000
0000
,
0001
0000
0000
0000
,
0010
0000
0000
0000
,
0001
0000
0000
0000
,
0100
0000
0000
0000
,
0010
0000
0000
0000
,
1000
0000
0000
0000
,
0100
0000
0000
0000
,
1001
0000
0000
0000
,
0000
0000
0000
0000
,
0001
0000
0000
0000
,
0000
0000
0000
0000
,
1000
0000
0000
0000
,
0010
0000
0000
0000
,
0100
0000
0000
0000
,
0001
0000
0000
0000
,
1001
0000
0000
0000
,
1000
0000
0000
0000
,
0010
0000
0000
0000
,
0100
0000
0000
0000
,
1001
0000
0000
0000
,
0001
0000
0000
0000
,
0010
0000
0000
0000
,
0100
0000
0000
0000
,
1001
0000
1000
0000
,
0001
0000
0001
0000
,
1000
0000
1000
0000
,
0010
0000
0010
0000
,
0100
0000
0100
0000
,
0001
0000
0001
0000
,
0010
0000
0010
0000
,
0100
0000
0000
0000
;
