#TITLE:patsenner;
#SUBTITLE:-perfect FX style-;
#ARTIST:dj nagureo remixed by EBISU;
#TITLETRANSLIT:;
#SUBTITLETRANSLIT:;
#ARTISTTRANSLIT:;
#CREDIT:DigiMindAxel;
#BANNER:patsenner -perfect FX style-.png;
#BACKGROUND:patsenner -perfect FX style--bg.png;
#LYRICSPATH:;
#CDTITLE:BEMANI game remix.png;
#MUSIC:patsenner -perfect FX style-.ogg;
#METERTYPE:DDR X;
#OFFSET:-8.953;
#SAMPLESTART:8.861;
#SAMPLELENGTH:12.000;
#SELECTABLE:YES;
#BPMS:0.000=108.000;
#STOPS:;
#BGCHANGES:;

//---------------dance-single - ----------------
#NOTES:
     dance-single:
     :
     Easy:
     3:
     0.148,0.175,0.020,0.166,0.000:
0002
0000
1003
0000
,
2000
0000
3001
0000
,
0200
0000
0310
0000
,
0020
0000
0130
0000
,
0001
0000
1000
0000
,
0010
0000
0100
0000
,
0001
0000
1000
0000
,
0001
0000
2000
0000
,
3001
0000
0100
0000
,
0010
0000
0100
0000
,
0001
0000
1000
0000
,
0010
0100
0010
0100
,
0002
0000
1003
0000
,
1001
0000
0000
0000
,
0100
0000
0000
0000
,
0100
0000
0000
0000
,
0100
0000
0000
0000
,
0200
0000
0000
0000
,
0320
0000
0000
0000
,
0230
0000
0000
0000
,
0320
0000
0000
0000
,
0130
0000
0000
0000
,
1001
0010
0001
0000
,
1000
0100
1000
0000
,
0010
0100
0001
0001
,
0100
0010
1000
1000
,
0001
1000
0001
1000
,
0100
0010
0100
0010
,
0001
1000
0001
1000
,
0100
0000
0020
0000
,
0130
0000
0100
0000
,
0100
0000
0100
0000
,
1000
0000
1000
0000
,
0001
0000
0001
0000
,
0002
0000
0013
0000
,
0200
0000
0310
0000
,
0002
0000
0103
0010
,
2000
0000
3100
0000
,
0020
0000
0230
0000
,
1300
0000
0001
0100
;

//---------------dance-single - ----------------
#NOTES:
     dance-single:
     :
     Medium:
     7:
     0.283,0.273,0.186,0.117,0.161:
1000
1100
1000
0000
,
0001
0011
0001
0000
,
1000
1010
1000
0000
,
0001
0101
0001
0000
,
1001
0000
0100
0000
0010
0100
0010
0000
,
1001
0000
0010
0000
0100
0010
0100
0000
,
1001
0000
0100
0000
0010
0100
0010
0000
,
1001
0000
0000
0000
0010
0000
0000
0100
0000
0010
0000
0100
0000
0010
0000
0000
,
0100
0000
0101
0000
0100
0010
0100
0000
,
0010
0000
1010
0000
0010
0100
0010
0000
,
1000
0000
1001
0000
1000
0010
1000
0000
,
0001
0001
0100
0100
,
0010
1000
0010
1000
0002
0000
1000
0000
,
2003
0000
3200
0000
,
0320
0000
0032
0000
,
0023
0000
0230
0000
,
2300
0000
3002
0000
,
0103
0000
0100
0000
0100
0010
0100
0010
,
1000
0000
1000
0000
1000
0000
1000
0100
,
0010
0000
0001
1000
0001
1000
0001
1000
,
0100
1000
0100
1000
0001
0010
0001
0010
,
0100
0000
0000
0000
0000
1000
1000
1000
,
1001
0000
1100
0000
0100
1000
0100
0000
,
0010
0000
0011
0000
0010
0001
0010
0000
,
0100
0000
1100
0000
0100
1000
0100
0000
,
0010
0000
0000
0000
0011
0000
0000
0100
0000
0010
0000
0100
0000
0010
0000
0000
,
2000
0000
0000
0000
0100
0000
0000
0100
0000
0000
0000
0000
3000
0000
0000
0000
,
0200
0000
0000
0000
0010
0000
0000
0010
0000
0000
0000
0000
0300
0000
0000
0000
,
0020
0000
0000
0000
0001
0000
0000
0001
0000
0000
0000
0000
0030
0000
0000
0000
,
0001
1000
1001
0000
,
0011
0000
0000
0000
0000
0000
0000
0010
0000
0001
0000
0000
0000
0000
0000
0000
,
1000
0000
0000
0000
0000
0000
0000
0100
0000
1000
0000
0000
0000
0000
0000
0000
,
0010
0000
0000
0000
0000
0000
0000
0100
0000
0010
0000
0100
0000
0000
0000
0000
,
0001
0000
0000
0000
0000
0000
0000
1000
0000
0001
0000
1000
0000
0001
0000
0000
,
1000
0000
0000
0000
0000
0000
0000
0001
0000
1000
0000
0000
0000
0000
0001
0000
,
0100
0000
0000
0000
0000
0000
0000
0010
0000
0100
0000
0000
0000
0000
0000
0000
,
0001
0000
0000
0000
0000
0000
0000
1000
0000
0001
0000
1000
0000
0000
0000
0000
,
0100
0000
0000
0000
0000
0000
0000
0010
0000
0100
0000
0000
0000
0000
1000
0000
,
0100
0010
0100
0010
0001
1000
0001
1000
,
0010
0000
0000
0000
0000
0000
0000
0100
0000
0010
0000
0000
1000
0000
1001
0000
;

//---------------dance-single - ----------------
#NOTES:
     dance-single:
     :
     Hard:
     9:
     0.394,0.351,0.235,0.088,0.205:
0001
0100
0101
0000
1000
0100
0010
0000
,
0001
0100
1100
0000
1000
0001
0010
0000
,
0100
0010
0011
0000
0100
1000
0001
0000
,
0010
0100
1100
0000
1000
0010
0100
0001
,
1001
1000
0100
0010
0001
0010
0100
1000
,
1000
0001
0010
0100
1000
0100
0010
0001
,
0001
1000
0010
0100
0001
0010
0100
1000
,
0001
0000
0000
0000
0100
0000
0010
1000
0000
1000
0000
0001
0000
0001
0000
0000
,
0110
0000
1001
0000
1000
0100
0010
0000
,
0001
0100
1100
0000
0010
0100
1000
0000
,
0010
0100
0101
0000
0010
1000
0100
0010
,
1001
1001
1100
0101
,
0100
0000
0000
0001
0000
0000
1000
0000
0000
1000
0000
0000
0010
0000
0100
0000
0010
0000
0100
0000
0010
0000
0100
0000
,
0001
0000
1000
0100
0001
0000
0100
0000
,
1000
0000
0001
0010
1000
0000
0010
0000
,
0001
0000
1000
0100
0001
0000
0100
0000
,
1000
0000
0001
0010
1000
0000
0010
0000
,
0001
0000
0000
0001
0000
0000
1000
0000
0010
0000
0010
0000
0100
0000
0100
0000
,
0000
0000
0001
0000
0000
0001
0000
0001
0000
0000
0100
0000
0000
0010
1000
0000
,
0001
0000
0010
0001
0010
0001
0100
0010
,
1000
0100
0001
0100
1000
0010
0001
0010
,
2000
0000
0000
0000
0000
0001
0001
3001
,
1001
0000
1100
0000
0010
0100
0101
0000
,
1000
0100
0010
0000
0001
0100
1100
0010
,
0010
0001
1000
0000
0010
0100
0101
0000
,
1001
0000
0000
0000
0010
0000
0001
0100
0000
0100
0000
0010
0000
0010
0000
0000
,
1000
0100
1000
0100
0010
0001
0010
0001
,
1000
0010
1000
0010
0100
0001
0100
0001
,
0100
1000
0100
1000
0100
0001
0100
0010
,
0100
0100
1001
1001
,
0201
0000
0000
0000
0000
0000
0000
0301
0000
0001
1000
0000
0000
0000
0010
0000
,
0200
0000
0000
0000
0000
0000
0000
0301
0000
0001
1000
0000
0000
0010
0000
0100
,
0020
0000
0000
0000
0000
0000
0000
1030
0000
1000
0000
0001
0010
0000
0000
0000
,
0200
0000
0000
0000
0000
0000
0000
1300
0000
1000
0000
0001
0000
0001
0000
0000
,
0200
0000
0000
0000
0000
0000
0000
0301
0000
0001
1000
0000
0000
0000
0010
0000
,
0200
0000
0000
0000
0000
0000
0000
0301
0000
0001
1000
0000
0000
0100
0000
0010
,
0002
0000
0000
0000
0000
0000
0000
1003
0000
1000
0000
0001
1000
0000
0000
0000
,
0020
0000
0000
0000
0000
0000
0000
1030
0000
1000
0001
0000
0000
0000
0100
0000
,
0010
0010
1000
1000
0100
0010
0001
1000
,
0100
0000
0000
0000
0000
0000
0000
1000
0000
1000
0001
0000
0101
0000
1001
0000
;

//---------------dance-single - ----------------
#NOTES:
     dance-single:
     :
     Challenge:
     13:
     0.584,0.526,0.420,0.108,0.694: // measure 1
1000
0000
0100
0000
1100
0000
0000
0001
0000
0100
0001
0000
0000
0000
1000
0000
,  // measure 2
1000
0000
0100
0000
0011
0000
0000
1000
0000
0010
1000
0000
0000
0000
0001
0000
,  // measure 3
0001
0000
0010
0000
1100
0000
0000
0001
0000
0100
0001
0000
0000
0000
1000
0000
,  // measure 4
1000
0000
0010
0000
0110
0000
0000
0001
0000
0010
0001
0000
0000
0000
1000
0000
,  // measure 5
0001
0100
0001
0000
1000
0100
1000
0001
0000
1000
0001
0000
0010
0000
0100
0000
,  // measure 6
0100
1000
0100
0000
0010
0001
0010
0100
0000
0010
0100
0000
1000
0000
0001
0000
,  // measure 7
0001
0100
0001
0000
1000
0100
1000
0001
0000
1000
0001
0000
0100
0000
0010
0000
,  // measure 8
0010
1000
0010
0000
0100
0001
0010
0100
0000
0100
0000
0100
0000
0100
0010
0000
,  // measure 9
1001
0000
0000
0000
0101
0000
0000
0100
0000
0010
0100
0000
0001
0000
1000
0000
,  // measure 10
1000
0000
0100
0000
0011
0000
0000
0100
0000
0010
0100
0000
1000
0000
0001
0000
,  // measure 11
0001
0000
0100
0000
1010
0000
0000
1000
0000
0001
1000
0000
0100
0000
0010
0000
,  // measure 12
0011
0011
0011
0011
,  // measure 13
0100
0000
0000
1000
0000
0000
0100
0000
0000
1000
0000
0000
0001
0000
1000
0000
0001
0000
1000
0000
0001
0000
1000
0000
0001
0000
0000
0000
0100
0000
0000
0000
0010
0000
0000
0000
0100
0000
0000
0000
0001
0000
0000
0000
0100
0000
0000
0000
,  // measure 14
0020
0000
0000
0100
0000
0000
0130
0000
0002
1000
0000
0000
1000
0000
1003
0000
,  // measure 15
0020
0000
0000
0100
0000
0000
0130
0000
0002
0100
0000
0000
0100
0000
0103
0000
,  // measure 16
0020
0000
0000
1000
0000
0000
1030
0000
0002
0010
0000
0000
0010
0000
0013
0000
,  // measure 17
0200
0000
0000
1000
0000
0000
1300
0000
0020
0100
0000
0000
0100
0000
0130
0000
,  // measure 18
1001
0000
0000
1001
0000
0000
1001
0000
1100
0000
0010
0001
1000
0000
0001
1000
,  // measure 19
0000
0000
1100
0000
0000
1100
0000
1001
0000
0000
0101
0000
0000
0100
0001
0010
,  // measure 20
0100
0100
0000
0010
0010
0100
1000
0010
1000
0010
0100
0001
0100
0001
1000
0100
,  // measure 21
1000
0100
0010
0001
0010
0001
0100
0010
0100
0010
1000
0001
1000
0001
0010
0100
,  // measure 22
2000
0000
0000
0000
0000
0000
0000
0000
3002
0000
0100
0000
0103
0010
1000
0001
,  // measure 23
0100
0000
0000
0000
1001
0000
0001
0100
0000
0010
1000
0000
0001
0000
0001
0000
,  // measure 24
0110
0000
0000
0000
1001
0000
0000
0100
0000
0100
0001
0000
0000
1000
0000
0100
,  // measure 25
0010
0000
0000
0000
1001
0000
1000
0010
0000
0100
0001
0010
0100
0000
0000
0000
,  // measure 26
1100
0000
0000
0000
1001
0000
0000
0010
0000
0010
0000
0010
0000
0010
0100
0000
,  // measure 27
1001
0000
0001
0000
1000
0000
0001
0010
0000
0001
1000
0100
0010
0000
0011
0000
,  // measure 28
1001
0000
1000
0000
0010
0000
0100
0001
0000
1000
0001
0000
0010
0100
0000
0100
,  // measure 29
1000
0000
0010
0000
1000
0000
0100
0010
0000
0100
0010
0001
1000
0000
0010
0000
,  // measure 30
1001
0000
0000
0000
0011
0000
0000
1100
0000
1000
0200
0000
0000
0000
1300
0000
,  // measure 31
0001
0010
0100
0000
0010
0001
0010
0100
0000
0010
0100
0000
1000
0000
0001
0000
,  // measure 32
0001
0100
0010
0000
1000
0010
1000
0001
0000
1000
0001
0000
0000
0010
0000
0010
,  // measure 33
0100
1000
0001
0000
0100
0001
1000
0100
0000
1000
0100
0010
0010
0000
0000
0000
,  // measure 34
0001
0100
0010
0000
0100
0010
1000
0001
0000
0001
0000
0001
0000
0001
1000
0000
,  // measure 35
0100
0010
0001
0000
1000
0100
1000
0001
0000
0100
0001
0000
0000
0000
1000
0000
,  // measure 36
1000
0010
0100
0000
0001
0100
0001
1000
0000
0100
1000
0000
0000
0010
0000
0010
,  // measure 37
1000
0100
0010
0000
0100
0010
0001
1000
0000
0010
1000
0001
0001
0000
0000
0000
,  // measure 38
0010
0001
0100
0000
0010
1000
0100
0010
0000
0001
0010
0000
0000
0000
0100
0000
,  // measure 39
1100
1100
0011
0011
1001
1001
0110
0110
,  // measure 40
1001
0000
0001
0000
0000
0000
0000
1000
0000
1000
0010
0000
0110
0000
1001
0000
;

//---------------dance-single - ----------------
#NOTES:
     dance-single:
     :
     Beginner:
     1:
     0.047,0.078,0.010,0.000,0.000:
1000
0000
0000
0000
,
1000
0000
0000
0000
,
0001
0000
0000
0000
,
0001
0000
0000
0000
,
0100
0000
0000
0000
,
0010
0000
0000
0000
,
0100
0000
0000
0000
,
0010
0000
0000
0000
,
0100
0000
0000
0000
,
0100
0000
0000
0000
,
0100
0000
0000
0000
,
0100
0000
0000
0000
,
0001
0000
0000
0000
,
1000
0000
0000
0000
,
0000
0000
0000
0000
,
1000
0000
0000
0000
,
0000
0000
0000
0000
,
0001
0000
0000
0000
,
0000
0000
0000
0000
,
0001
0000
0000
0000
,
0000
0000
0000
0000
,
1000
0000
0000
0000
,
1001
0000
0000
0000
,
0001
0000
0000
0000
,
0001
0000
0000
0000
,
1000
0000
0000
0000
,
1000
0000
0000
0000
,
1000
0000
0000
0000
,
0010
0000
0000
0000
,
0010
0000
0000
0000
,
0100
0000
0000
0000
,
0000
0000
0000
0000
,
0100
0000
0000
0000
,
0000
0000
0000
0000
,
0001
0000
0000
0000
,
0000
0000
0000
0000
,
0001
0000
0000
0000
,
1000
0000
0000
0000
,
0001
0000
0000
0000
,
0000
0000
0000
0001
;
