#TITLE:overviews;
#SUBTITLE:;
#ARTIST:vox;
#TITLETRANSLIT:;
#SUBTITLETRANSLIT:;
#ARTISTTRANSLIT:;
#CREDIT:DigiMindAxel;
#BANNER:overviews.png;
#BACKGROUND:overviews-bg.png;
#LYRICSPATH:;
#CDTITLE:GuitarFreaksXG & DrumManiaXG.png;
#MUSIC:overviews.ogg;
#METERTYPE:DDR X;
#OFFSET:-6.755;
#SAMPLESTART:34.006;
#SAMPLELENGTH:12.000;
#SELECTABLE:YES;
#BPMS:0.000=72.00002880001152,32.000=303.00122715496997;
#STOPS:;
#BGCHANGES:;

//---------------dance-single - ----------------
#NOTES:
     dance-single:
     :
     Easy:
     9:
     0.291,0.471,0.239,0.189,0.000:
1001
1000
1000
0100
,
0010
1001
0001
0001
,
0100
0010
1001
1000
,
0001
0001
0100
1001
,
1000
0001
0001
0100
,
1001
0001
1000
0001
,
0100
0010
1000
0100
,
0010
0002
0000
0000
,
0003
0000
0000
1001
,
0000
0000
1001
0000
,
0000
0000
0000
0000
,
0110
0000
0000
0110
,
0000
0000
0000
0000
,
0000
1001
0000
0000
,
1001
0000
0000
0000
,
0000
0000
0000
0000
1001
0000
0000
1000
,
0000
0000
0001
0000
0000
0001
0000
0000
,
0100
0000
0000
0220
0000
0000
0000
0000
,
0000
0000
0000
0000
,
0000
0330
0000
0000
,
0001
0000
0000
1000
,
0000
0000
0100
0000
,
0000
0010
0000
0000
,
0001
0000
0100
0010
,
0100
0010
2000
0000
,
0000
0000
0000
0000
,
3001
0000
0000
0010
,
0000
0000
0100
0000
,
0000
1000
0000
0000
,
0001
0000
0010
0100
,
0010
0100
2000
0000
,
0000
0000
0000
3000
,
1002
0000
0000
1003
,
0001
0010
0200
0000
,
0000
0320
0000
0000
,
0031
0100
0010
0200
,
0000
0000
0301
0010
,
0100
2000
0000
0000
,
3002
0000
0000
0203
,
0000
0000
0302
0000
,
0000
2003
0000
0000
,
3100
0010
0100
1000
,
0001
1000
0200
0000
,
0310
0001
0100
0010
,
0000
0000
0000
0000
,
0000
0000
1001
0000
,
0000
1000
0000
0000
,
0001
0000
0000
0010
,
0000
0000
0100
0000
,
0000
0010
0000
0000
,
0001
0000
0000
0100
,
0000
0000
0010
0000
,
0000
0100
0000
0000
,
0001
0000
0000
1000
,
0000
0000
0100
0000
,
0000
0010
0000
0000
,
0001
0000
0000
1000
,
0100
1000
0010
0100
,
0010
0100
0001
0100
,
0010
0000
0010
0100
,
0000
0000
0001
1000
,
0001
1000
0100
0010
,
0001
0100
0010
0100
,
0000
0100
0010
1000
,
0001
1000
0100
0010
,
0100
1000
0001
1000
,
0000
0000
0001
0010
,
0001
0010
0100
1000
,
0001
0100
0010
0100
,
0000
0000
1001
0000
,
0000
1001
0000
0000
,
0000
0000
0000
0110
,
0000
0000
0110
0000
,
0000
0000
0000
0000
,
1001
0000
0000
1001
,
0000
0000
0000
0000
,
0000
0000
1001
0000
0000
1000
0000
0000
,
0001
0000
0000
0001
0000
0000
0010
0000
,
0000
0220
0000
0000
0000
0000
0000
0000
,
0000
0000
0000
0000
,
0000
0000
0000
0000
,
0000
0000
0000
0000
,
0000
0000
0000
0000
,
0000
0000
0000
0000
,
0330
0000
0000
0000
,
2002
0000
0000
0000
,
3003
0000
0000
0000
;

//---------------dance-single - ----------------
#NOTES:
     dance-single:
     :
     Medium:
     13:
     0.546,0.941,0.408,0.348,0.045:
0101
0001
0100
0100
0001
1000
0100
0010
,
0001
0100
0110
0010
1000
1000
0010
0100
,
0001
0100
0010
0100
1001
0001
0100
0100
,
0010
0010
0100
0001
0010
0100
1100
1000
,
0010
0010
0100
0100
0001
0010
0100
1000
,
1001
0000
0001
0010
0001
0000
1000
0100
1000
0000
0001
0010
0001
0000
1000
0100
,
1000
0000
0010
0100
0001
0000
0100
0010
1000
0000
0001
1000
0001
0000
0100
0001
,
0010
0000
0100
1000
0020
0000
0000
0000
0000
0000
0000
0000
0000
0000
0000
0000
,
0030
0000
0000
0000
0000
0000
0100
0001
,
0100
0001
0000
0000
1000
0100
1000
0100
,
0000
0000
0000
0000
,
0010
0001
0010
0001
0000
0000
1000
0010
,
1000
0010
0000
0000
0000
0000
0000
0000
,
0000
0000
1000
0001
1000
0001
0000
0000
,
0010
0100
0010
0100
0000
0000
0000
0000
,
0000
0000
0000
0000
1000
0001
0000
1001
,
0000
0000
0010
0100
0000
0110
0000
0000
,
1000
0001
0000
2002
0000
0000
0000
0000
,
0000
0000
0000
0000
,
0000
0000
3003
0000
,
2002
0000
0000
0000
3003
0000
0100
1000
,
0000
0001
0000
0100
0002
0000
0000
0000
,
0003
0000
0100
0001
0000
0010
0000
0100
,
0020
0000
0032
0203
,
0320
0000
2000
0000
,
0000
0000
0000
3030
,
2002
0000
0000
0000
3003
0000
0001
1000
,
0000
0100
0000
0010
0200
0000
0000
0000
,
0300
0000
1000
0001
0000
0100
0000
0010
,
0200
0000
0302
0023
,
0230
2300
0020
0000
,
0000
0000
0000
3030
,
0010
0100
0010
0000
1000
0000
0100
0000
,
0001
0000
0100
0000
1000
0001
1000
0001
,
0100
0000
0010
0100
0010
0000
0100
0000
,
0001
1000
0001
0000
0010
0000
1000
0000
,
0010
0001
2000
3200
,
0320
0230
0000
1300
,
0010
0100
0010
0000
1000
0000
0100
0000
,
0001
0000
0100
0000
1000
0001
1000
0001
,
0010
0000
0100
0010
0100
0000
1000
0000
,
0001
0100
0001
0000
0010
0000
1000
0000
,
0010
0000
0001
0000
1000
0100
1000
0100
,
0010
0000
0001
0010
0001
0010
0100
1000
,
0001
0000
0000
0000
,
0000
0000
0000
0000
0101
0000
0000
0100
,
0000
0000
0110
0000
0000
0010
0000
0000
,
1010
0000
0000
0100
0000
0000
1001
0000
,
0000
0001
0000
0000
0011
0000
0000
0100
,
0000
0000
0110
0000
0000
0010
0000
0000
,
1100
0000
0000
1000
0000
0000
1001
0000
,
0000
0001
0000
0000
0110
0000
0000
0100
,
0000
0000
0101
0000
0000
0001
0000
0000
,
0110
0000
0000
1000
0000
0000
1100
0000
,
0000
0100
0000
0000
0110
0000
0000
0001
,
0000
0000
1001
0000
0000
1000
0000
0000
,
2020
0000
3030
0010
,
0100
0010
1001
0100
,
1100
0010
0011
0100
,
1000
0001
1000
0000
0020
0000
0200
0000
,
0000
0330
1001
0001
,
0101
0010
1010
1000
,
0001
0100
0001
0000
2000
0000
0100
0000
,
0000
3100
0011
0001
,
0101
0010
1010
1000
,
0100
0010
0100
0000
2000
0000
0020
0000
,
0000
3030
0110
0100
,
1001
0010
0110
1000
,
0010
1000
0100
0000
0010
0000
0001
0010
,
0100
0000
0000
0000
1000
0001
1000
0001
,
0000
0000
0100
0001
0100
0001
0000
0000
,
0000
0000
0000
0000
0000
0000
0010
0100
,
0010
0100
0000
0000
1000
0100
1000
0100
,
0000
0000
0000
0000
,
0010
0001
0010
0001
0000
0000
1000
0001
,
1000
0001
0000
0000
0000
0000
0000
0000
,
0000
0000
0010
0001
0000
0011
0000
0000
,
0100
0010
0000
0110
0000
0000
1000
0100
,
0000
2200
0000
0000
0000
0000
0000
0000
,
0000
0000
0000
0000
,
0000
0000
0000
0000
,
0000
0000
0000
0000
,
0000
0000
0000
0000
,
0000
0000
0000
0000
,
3300
0000
0000
0000
,
2002
0000
0000
0000
,
3003
0000
0000
0000
;

//---------------dance-single - ----------------
#NOTES:
     dance-single:
     :
     Hard:
     16:
     0.765,1.000,0.398,0.328,0.229: // measure 1
0101
0000
0000
0000
0000
0000
0000
0000
0000
0000
0110
0000
1010
0000
0000
1001
,  // measure 2
0000
0000
0000
0001
1000
0001
1000
0000
0000
0000
0000
0000
0000
0000
0000
0000
0000
0000
0100
1000
0100
1000
0100
1000
,  // measure 3
0010
0000
0100
0000
0010
0000
0100
0000
0010
0000
0100
0000
0002
0000
0000
0000
0000
0000
0000
0000
0000
0000
0000
0000
1003
0000
0000
1000
0000
0000
0001
0000
0000
0001
0000
0000
0010
0000
0000
0100
0000
0000
1000
0000
0000
1010
0000
0000
,  // measure 4
0000
0000
0000
0000
0000
0000
0000
0000
0000
0000
0000
0000
0000
0000
0000
0000
0000
0000
0000
0000
0000
0000
0000
0000
0000
0000
0000
0000
0000
0000
0000
0000
0000
0000
0000
0000
1000
0000
0000
0000
0000
0000
0001
0000
0000
0000
0000
0000
1000
0000
0000
0000
0000
0000
0000
0000
0000
0000
0000
0000
0000
0000
0000
0000
0000
0000
0000
0000
0000
0000
0000
0000
0001
0000
0000
0000
0000
0000
0000
0000
0010
0000
0000
0000
0000
0000
0000
0000
0001
0000
0000
0000
0000
0000
0000
0000
0010
0000
0000
0000
0000
0000
0000
0000
0100
0000
0000
0000
0000
0000
0000
0000
1000
0000
0000
0000
0000
0000
0000
0000
0010
0000
0000
0000
0000
0000
0000
0000
0000
0000
0000
0000
0000
0000
0000
0000
0000
0000
0000
0000
0000
0000
0000
0000
1010
0000
0000
0000
0000
0000
0000
0000
0000
0000
0000
0000
0000
0000
0000
0000
0000
0000
0000
0000
0000
0000
0000
0000
0000
0000
0000
0000
0000
0000
0000
0000
0000
0000
0000
0000
0000
0000
0000
0000
0000
0000
0000
0000
0000
0000
0000
0000
,  // measure 5
1000
0000
0000
0000
0000
0000
0000
0000
0001
0000
0000
0000
0000
0000
0000
0000
1000
0000
0000
0000
0000
0000
0000
0000
0001
0000
0000
0000
0000
0000
0000
0000
0010
0000
0000
0000
0000
0000
0000
0000
0100
0000
0000
0000
0000
0000
0000
0000
0010
0000
0000
0000
0000
0000
0000
0000
0001
0000
0000
0000
0000
0000
0000
0000
0100
0000
0000
0000
0000
0000
0000
0000
0000
0000
0000
0000
0000
0000
0000
0000
0000
0000
0000
0000
0000
0000
0000
0000
0000
0000
0000
0000
0000
0000
0000
0000
0000
0000
0000
0000
0000
0000
0001
0000
0000
0000
0000
0000
0000
0000
0000
0000
0000
0000
0001
0000
0000
0000
0000
0000
1000
0000
0000
0000
0000
0000
0000
0000
0000
0000
0000
0000
0000
0000
0000
0000
0000
0000
0000
0000
0000
0000
0000
0000
0000
0000
0000
0000
0000
0000
0000
0000
0000
0000
0000
0000
0000
0000
0000
0000
0000
0000
0000
0000
0000
0000
0000
0000
0000
0000
0000
0000
0000
0000
0000
0000
0000
0000
0000
0000
0000
0000
0000
0000
0000
0000
0000
0000
0000
0000
0000
0000
,  // measure 6
1001
0000
1000
0001
1000
0100
0001
0100
1000
0010
0001
0010
1000
0100
1000
0010
,  // measure 7
0100
0010
1000
0100
0010
0001
0010
0010
0100
0100
0010
0010
0001
0001
0100
0010
,  // measure 8
1000
0100
0001
0100
2002
0000
0000
0000
0000
0000
0000
0000
0000
0000
3003
0000
,  // measure 9
1000
0010
1000
0010
0100
0001
1000
0100
,  // measure 10
0010
0001
0000
0000
0001
0010
0100
1000
,  // measure 11
0000
0000
0010
0100
0010
0100
0010
0100
,  // measure 12
0001
0010
0100
1000
0000
0000
1000
0100
,  // measure 13
0010
0001
0000
0010
0100
0010
0100
0010
,  // measure 14
0100
0010
0001
0100
0010
1000
0000
0000
,  // measure 15
1000
0010
0100
0001
0000
0010
0100
0010
,  // measure 16
0100
0010
0100
0010
0001
0100
0000
1001
,  // measure 17
0000
0000
1000
0100
0000
1001
0000
0000
,  // measure 18
0001
0100
0000
2002
0000
0000
0000
0000
,  // measure 19
0000
0000
0000
0000
,  // measure 20
0000
0000
3003
0000
,  // measure 21
2020
0000
0000
0000
3030
0000
1000
0001
,  // measure 22
0010
0100
0000
2000
0020
0000
0000
0000
,  // measure 23
3030
0000
1000
0100
0010
0100
0000
1000
,  // measure 24
0020
0000
0000
0000
0130
0001
0010
0100
,  // measure 25
0020
0000
0031
0100
0020
0000
0000
1000
,  // measure 26
0000
2000
0000
3030
,  // measure 27
0220
0000
0000
0000
0330
0000
0100
0010
,  // measure 28
1000
0100
0000
0020
0200
0000
0000
0000
,  // measure 29
0330
0000
0001
0100
0010
1000
0000
0001
,  // measure 30
0020
0000
0000
0000
0031
1000
0100
0010
,  // measure 31
0002
0000
0103
0010
2000
0000
0000
0010
,  // measure 32
0000
0000
3010
1000
0010
1000
0010
1000
,  // measure 33
0001
0010
1000
0010
0001
0000
0011
0000
,  // measure 34
0110
0000
1100
0000
1000
0100
0001
0100
,  // measure 35
1000
0000
0100
0010
0001
1000
0010
0000
,  // measure 36
1000
0010
0001
0010
1000
0000
1010
0000
,  // measure 37
0110
0000
0101
0000
0010
1000
0100
1000
,  // measure 38
0010
0100
0002
0000
0000
0000
0013
0000
,  // measure 39
0001
0100
1000
0100
0001
0000
0011
0000
,  // measure 40
0110
0000
1100
0000
1000
0100
0001
0100
,  // measure 41
1000
0000
0100
0010
0001
1000
0010
0000
,  // measure 42
1000
0010
0001
0010
1000
0100
0010
0001
,  // measure 43
0100
0010
0100
0001
1000
0010
0001
0010
,  // measure 44
1000
0100
0010
0001
0100
0001
1000
0010
,  // measure 45
0100
0001
0001
0100
,  // measure 46
0000
0100
0000
0000
1001
0000
0000
1000
,  // measure 47
0000
0000
1002
0000
0000
1000
0000
0000
,  // measure 48
2003
0000
0000
0100
0000
0000
3100
1000
,  // measure 49
0100
0000
0010
0000
0001
0100
0001
1000
,  // measure 50
0100
0000
1000
0100
0010
0001
0100
0000
,  // measure 51
0001
1000
0000
0001
1000
0000
0010
0000
,  // measure 52
0100
0000
0010
0100
0002
0000
0000
1000
,  // measure 53
0000
0000
2003
0000
0000
3010
0000
0100
,  // measure 54
0010
1000
0010
0100
0001
0010
0100
0000
,  // measure 55
0000
1000
0010
0100
0010
1000
0001
0010
,  // measure 56
0001
1000
0001
0010
0001
1000
0100
0010
,  // measure 57
0002
0000
0000
1000
0000
0000
1003
0000
,  // measure 58
0011
0000
1100
0000
0010
0001
0100
0000
,  // measure 59
0101
0000
0010
1000
0100
0000
1100
0000
,  // measure 60
0010
0001
1000
0000
1010
0000
2002
0000
,  // measure 61
0000
0000
3003
0000
1000
0100
0010
0000
,  // measure 62
0110
0000
0001
1000
0010
1000
0001
0010
,  // measure 63
0100
0010
0001
1000
0010
0000
2010
0000
,  // measure 64
0000
0000
3001
0000
1001
0000
1000
0001
,  // measure 65
0010
0000
0011
0000
0100
1000
0010
1000
,  // measure 66
0100
0010
0001
1000
0010
1000
0001
0010
,  // measure 67
0100
1000
0001
0000
1001
0000
1000
0010
,  // measure 68
0100
0000
0101
0000
0001
1000
0100
0010
,  // measure 69
0001
0100
0001
0100
0010
1000
0010
1000
,  // measure 70
0001
0010
0100
0010
0001
0100
0010
1000
,  // measure 71
0000
0000
1000
0010
0100
0001
0000
0010
,  // measure 72
0100
0010
0100
0010
0100
1000
0001
1000
,  // measure 73
0010
0100
0000
0000
0100
0010
1000
0001
,  // measure 74
0000
0010
0001
0010
0001
0010
0001
0100
,  // measure 75
0010
1000
0100
0010
0000
0000
0010
0100
,  // measure 76
1000
0010
0000
0100
0001
0010
0001
0010
,  // measure 77
0001
0010
1000
0010
0000
1001
0000
0000
,  // measure 78
0001
0010
0000
1001
0000
0000
1000
0010
,  // measure 79
0000
2002
0000
0000
0000
0000
0000
0000
,  // measure 80
0000
0000
0000
0000
,  // measure 81
0000
0000
0000
0000
,  // measure 82
0000
0000
0000
0000
,  // measure 83
0000
0000
0000
0000
,  // measure 84
0000
0000
0000
0000
,  // measure 85
3003
0000
0000
0000
,  // measure 86
0022
0000
0000
0000
,  // measure 87
0033
0000
0000
0000
;

//---------------dance-single - ----------------
#NOTES:
     dance-single:
     :
     Beginner:
     4:
     0.107,0.127,0.020,0.000,0.000:
1001
0000
0000
0000
,
0000
1000
0000
0000
,
0000
0000
0100
0000
,
0000
0000
0000
0010
,
0000
0000
0000
0000
,
0001
0000
0000
0100
,
0000
0000
0010
0000
,
0000
0100
0000
0000
,
0000
0000
0000
0001
,
0000
0000
0001
0000
,
0000
0000
0000
0000
,
1000
0000
0000
1000
,
0000
0000
0000
0000
,
0000
0001
0000
0000
,
0001
0000
0000
0000
,
0000
0000
0010
0000
,
0000
0010
0000
0000
,
0010
0000
0000
0000
,
0000
0000
0000
0000
,
0000
0000
0000
0000
,
0001
0000
0000
0000
,
0000
0000
1000
0000
,
0000
0000
0000
0000
,
0001
0000
0000
0000
,
0000
0000
0010
0000
,
0000
0000
0000
0000
,
0100
0000
0000
0000
,
0000
0000
1000
0000
,
0000
0000
0000
0000
,
0001
0000
0000
0000
,
0000
0000
0100
0000
,
0000
0000
0000
0000
,
0010
0000
0000
0010
,
0000
0000
0100
0000
,
0000
0100
0000
0000
,
0001
0000
0000
0001
,
0000
0000
1000
0000
,
0000
1000
0000
0000
,
0001
0000
0000
0001
,
0000
0000
0010
0000
,
0000
0010
0000
0000
,
0100
0000
0000
0100
,
0000
0000
1000
0000
,
0000
0100
0000
0000
,
0000
0000
0000
0000
,
0000
0000
1000
0000
,
0000
0000
0000
0000
,
0001
0000
0000
0000
,
0000
0000
0010
0000
,
0000
0000
0000
0000
,
0100
0000
0000
0000
,
0000
0000
1000
0000
,
0000
0000
0000
0000
,
0001
0000
0000
0000
,
0000
0000
0010
0000
,
0000
0000
0000
0000
,
0100
0000
0000
0000
,
0000
0000
1000
0000
,
0000
0001
0000
0000
,
1000
0000
0000
0000
,
0000
0000
0100
0000
,
0000
1000
0000
0000
,
0010
0000
0000
0010
,
0000
0000
0100
0000
,
0000
0001
0000
0000
,
0100
0000
0000
0001
,
0000
0000
1000
0000
,
0000
0100
0000
0000
,
0010
0000
0000
0000
,
0000
0000
0001
0000
,
0000
0001
0000
0000
,
0000
0000
0000
0100
,
0000
0000
0100
0000
,
0000
0000
0000
0000
,
0010
0000
0000
0010
,
0000
0000
0000
0000
,
0000
1000
0000
0000
,
1000
0000
0000
1000
,
0000
0000
0000
0000
,
0000
0000
0000
0000
,
0000
0000
0000
0000
,
0000
0000
0000
0000
,
0000
0000
0000
0000
,
0000
0000
0000
0000
,
0000
0000
0000
0000
,
1001
0000
0000
0000
;
