#TITLE:light prayer;
#SUBTITLE:;
#ARTIST:school food punishment;
#TITLETRANSLIT:;
#SUBTITLETRANSLIT:;
#ARTISTTRANSLIT:;
#CREDIT:DigiMindAxel;
#BANNER:light prayer.png;
#BACKGROUND:light prayer-bg.png;
#LYRICSPATH:light prayer.lrc;
#CDTITLE:DigiMindAxel original simfile.png;
#MUSIC:light prayer.ogg;
#METERTYPE:DDR X;
#OFFSET:-0.470;
#SAMPLESTART:40.967;
#SAMPLELENGTH:12.000;
#SELECTABLE:YES;
#BPMS:0.000=188.000;
#STOPS:;
#BGCHANGES:-4.000=light prayer.avi=1.000=1=1=0,
99999=-nosongbg-=1.000=0=0=0 // don't automatically add -songbackground-
;

//---------------dance-single - ----------------
#NOTES:
     dance-single:
     :
     Easy:
     5:
     0.226,0.302,0.242,0.000,0.000: // measure 1
0000
0000
0000
0000
,  // measure 2
0000
0000
0000
0000
,  // measure 3
0000
0000
0000
0000
,  // measure 4
0000
0000
0000
0000
,  // measure 5
0000
0000
0000
0000
,  // measure 6
0000
0000
0000
0000
,  // measure 7
0000
0000
0000
0000
,  // measure 8
1000
1000
1000
1000
,  // measure 9
0001
0000
0100
0000
,  // measure 10
0001
0000
0100
0000
,  // measure 11
0010
0000
0100
0000
,  // measure 12
0010
0000
0100
0000
,  // measure 13
0001
0000
1000
0000
,  // measure 14
0001
0000
1000
0000
,  // measure 15
0110
0000
0000
0110
,  // measure 16
0000
0000
0110
0000
,  // measure 17
0010
0000
0001
0000
,  // measure 18
0010
0000
0001
0000
,  // measure 19
0100
0000
0010
0000
,  // measure 20
0100
0000
0010
0000
,  // measure 21
1000
0000
0001
0000
,  // measure 22
1000
0000
0001
0000
,  // measure 23
0110
0000
0000
0110
,  // measure 24
0000
0000
0110
0000
,  // measure 25
1001
0000
0000
0000
,  // measure 26
1000
0000
0000
0000
,  // measure 27
1001
0000
0000
0000
,  // measure 28
0001
0000
0000
0000
,  // measure 29
0110
0000
0000
0000
,  // measure 30
0100
0000
0000
0000
,  // measure 31
0010
0000
0000
0110
,  // measure 32
0000
0000
0110
0000
,  // measure 33
1001
0000
1000
0000
,  // measure 34
1000
0000
1000
0000
,  // measure 35
0001
0000
0001
0000
,  // measure 36
0001
0000
0001
0000
,  // measure 37
0010
0000
0010
0000
,  // measure 38
0010
0000
0010
0000
,  // measure 39
0100
0000
0100
0000
,  // measure 40
0100
0000
0100
0000
,  // measure 41
1000
0001
1000
0000
,  // measure 42
0100
0000
0010
0000
,  // measure 43
0001
1000
0001
0000
,  // measure 44
0010
0000
0100
0000
,  // measure 45
1000
0001
1000
0000
,  // measure 46
0100
1000
0100
0000
,  // measure 47
1001
0000
0000
1001
,  // measure 48
0000
0000
0000
0000
,  // measure 49
1001
0000
0001
0000
,  // measure 50
0100
0000
0001
0000
,  // measure 51
1000
0000
0001
0000
,  // measure 52
1000
0000
0001
0000
,  // measure 53
1000
0000
0100
0000
,  // measure 54
1000
0000
0100
0000
,  // measure 55
0010
0000
0100
0000
,  // measure 56
0010
0000
0100
0000
,  // measure 57
0010
0000
0010
0000
,  // measure 58
0001
0000
0001
0000
,  // measure 59
0100
0000
0100
0000
,  // measure 60
0010
0000
0010
0000
,  // measure 61
1001
0000
0000
1001
,  // measure 62
0000
0000
1001
0000
,  // measure 63
0110
0000
0000
0110
,  // measure 64
0000
0000
0110
0000
,  // measure 65
1001
0000
0001
0000
,  // measure 66
1000
0000
0001
0000
,  // measure 67
1000
0100
1000
0000
,  // measure 68
0001
0000
1000
0000
,  // measure 69
0001
0010
0001
0000
,  // measure 70
1000
0000
0001
0000
,  // measure 71
1000
0010
1000
0000
,  // measure 72
0001
0000
1000
1001
;

//---------------dance-single - ----------------
#NOTES:
     dance-single:
     :
     Medium:
     10:
     0.495,0.567,0.379,0.032,0.000:
0000
0000
0000
0000
,
0000
0000
0000
0000
,
0000
0000
0000
0000
,
0000
0000
0000
0000
,
0000
0000
0000
0000
,
0000
0000
0000
0000
,
0000
0000
0000
0000
,
1000
1000
1000
1000
,
1001
0000
0010
0100
0010
0000
0100
0000
,
1000
0000
0010
0100
0010
0000
0100
0000
,
0001
0000
1000
0100
1000
0000
0001
0000
,
0100
0000
0010
0100
0010
0000
1000
0000
,
0100
0000
0010
0100
0010
0000
0001
0000
,
0100
0000
0001
1000
0001
0000
1000
0000
,
1010
0000
0000
1010
0000
0000
0110
0000
,
0000
0110
0000
0000
0101
0000
0101
0000
,
0001
0000
1000
0100
1000
0000
0100
0000
,
0010
0000
0001
0100
0001
0000
1000
0000
,
0100
0000
0010
0100
0010
0000
0001
0000
,
1000
0000
0100
1000
0100
0000
0010
0000
,
0001
0000
0100
0010
0100
0000
0001
0000
,
1000
0000
0100
0010
0100
0000
1000
0000
,
1001
0000
0000
1001
0000
0000
0110
0000
,
0000
0110
0000
0000
1010
0000
1010
0000
,
0020
0000
0000
0100
0000
0000
0100
0000
,
0000
0000
0100
0130
,
2000
0000
0000
0001
0000
0000
0001
0000
,
0000
0000
0001
3001
,
1001
0100
0010
0001
,
1000
0100
0010
0001
,
1000
0000
0100
1000
0000
0000
0001
0000
,
0100
0001
0000
0000
1001
0000
0000
0000
,
1000
0100
0001
0100
,
1000
0100
0001
0100
,
1000
0010
0100
0010
,
1000
0010
0100
0010
,
1000
0010
0001
0010
,
1000
0010
0001
0010
,
1000
0100
0010
0100
,
1000
0000
0100
0000
0010
0100
0010
0100
,
0010
0001
0010
0000
0100
0000
1000
0000
,
0001
1000
0010
0000
0100
0000
0001
0000
,
1000
0100
0010
0000
0100
0000
1000
0000
,
0001
0100
0010
0000
0100
0000
0001
0000
,
1001
0000
1000
0100
1000
0100
0010
0000
,
0001
0000
0100
0001
0100
0001
1000
0000
,
1100
0000
0000
1100
0000
0000
0011
0000
,
0000
0011
0000
0000
0000
1000
0000
0000
,
1001
0000
0001
0000
0010
0100
1000
0000
,
0001
0000
0100
0000
0010
1000
0100
0000
,
0010
0000
0100
0000
1000
0001
0100
0000
,
0010
0000
1000
0000
0100
0010
0001
0000
,
0101
0000
0100
0000
0010
1000
0100
0000
,
0010
0000
0100
0000
1000
0001
0100
0000
,
0010
0000
0100
0000
0001
1000
0100
0000
,
0010
0000
0001
0000
1000
0100
0010
0000
,
1001
0000
1000
0000
0010
0100
0001
0000
,
0010
0000
0100
0000
0010
0100
1000
0000
,
1001
0000
0001
0000
0100
0010
1000
0000
,
0001
0000
0010
0000
0100
0010
0001
0000
,
0011
0000
0011
0000
0100
1000
0001
0000
,
1001
0000
1001
0000
1000
0010
0100
0000
,
0001
1000
0100
0000
0010
0001
1000
0010
,
1000
0010
1000
0002
0000
0000
0003
0000
,
0011
0000
0000
0011
0000
0000
0100
1000
,
0010
0000
0100
0010
0100
0000
0001
0000
,
0110
0000
0000
0110
0000
0000
1000
0001
,
0010
0000
0100
0010
0100
0000
1000
0000
,
1010
0000
0000
1010
0000
0000
0100
0001
,
0010
0000
0100
0010
0100
0000
1000
0000
,
0110
0000
0000
0110
0000
0000
0001
0010
,
0100
0000
1000
0010
0100
0100
0100
0000
;

//---------------dance-single - ----------------
#NOTES:
     dance-single:
     :
     Hard:
     12:
     0.600,0.642,0.463,0.105,0.016:
0000
0000
0000
0000
,
0000
0000
0000
0000
,
0000
0000
0000
0000
,
0000
0000
0000
0000
,
0000
0000
0000
0000
,
0000
0000
0000
0000
,
0000
0000
0000
0000
,
0100
0010
0100
0010
0100
0010
0100
0000
,
1001
0000
1000
0000
0100
0010
0000
0001
,
0100
0000
0010
1000
0100
1000
0010
0000
,
0101
0000
0001
0000
0100
0010
1000
0000
,
0001
0010
0100
0000
0010
0100
1000
0000
,
1001
0002
2000
0000
,
0000
0000
0000
3003
,
1000
0100
0010
0001
0000
0000
0001
0100
,
0010
1000
0000
0000
1001
0000
1001
0000
,
0001
0000
0010
0100
0000
1000
0001
0000
,
0010
0100
1000
0100
0010
0000
0001
0000
,
0100
0000
1000
0000
0100
0001
0010
0000
,
1100
0000
1001
0000
0001
0100
0010
0000
,
1001
2000
0002
0000
,
0000
0000
0000
3003
,
0001
0010
0100
1000
0000
0000
1000
0010
,
0100
0001
0000
0000
1001
0000
1001
0000
,
1000
0100
0000
0100
0010
0000
0001
0000
,
0100
0010
1001
1001
,
0001
0000
0010
0100
0000
0100
1000
0000
,
0010
0100
1001
1001
,
0001
0100
0001
0000
0001
1000
0100
0000
,
0010
0001
0010
0000
0010
0100
1000
0000
,
0100
0010
0001
1000
0000
0000
0010
0100
,
0001
0010
0000
0000
0001
1001
0000
0000
,
1020
0100
1000
0100
,
1030
0000
0001
0010
0100
1000
0001
0000
,
0201
0010
0001
0010
,
0301
0000
1000
0001
0010
0100
1000
0000
,
1010
0000
0110
0000
0100
0001
0010
0100
,
1000
0000
0001
0100
0010
0100
0001
0000
,
1001
0000
1000
0010
0000
1000
0001
0000
,
0010
0100
1000
0000
0001
1000
0100
0010
,
0001
0100
1000
0100
0001
0000
1002
0000
,
0100
1003
0001
0010
,
0001
0010
1000
0010
0001
0000
1002
0000
,
0100
1003
0101
0110
,
0100
0010
0100
0001
0100
0010
0100
0001
,
1000
0100
1000
0001
1000
0100
1000
0000
,
1100
0000
0000
0101
0000
0000
1001
0000
,
1000
0001
0010
0100
1000
0100
0010
0001
,
2001
0100
0001
0100
,
3001
0000
1000
0100
0010
0100
1000
0000
,
1020
0100
1000
0100
,
1030
0000
0001
0010
0100
1000
0010
0000
,
1010
0000
1001
0000
0001
0010
0001
1000
,
0010
0000
0100
0001
0010
0100
1000
0000
,
1001
0000
0001
0100
0000
0001
1000
0000
,
0100
0010
0001
0000
0100
0000
0010
0000
,
1001
0000
1000
0100
0001
0100
1000
0001
,
0010
0100
1000
0000
0100
0000
0010
0000
,
0001
0100
1000
0100
0001
0010
0100
1000
,
0010
0000
0100
0001
0000
0010
0100
0000
,
1001
0000
0000
0000
1000
0000
0000
1000
0010
0000
0100
0000
0010
0000
0000
0000
,
0100
0000
0000
0100
0000
0000
0100
0000
0001
0000
0010
0000
0100
0000
0010
0000
,
0001
0000
0000
0001
1000
0000
0010
0000
1000
0000
0000
0000
0001
0000
0010
0000
,
0100
1000
0100
0010
0001
0010
0100
1000
,
1001
0000
0000
1100
0000
0000
0010
0001
,
1000
0100
0001
0100
1000
0100
0010
0000
,
1001
0000
0000
0011
0000
0000
0100
1000
,
0001
0010
1000
0010
0001
0010
0100
0000
,
1010
0000
0000
1001
0000
0000
0001
0100
,
0001
0010
1000
0010
0001
1000
0010
0000
,
1010
0000
0000
1001
0000
0000
1000
0010
,
1000
0100
0001
0100
1000
1100
1100
0000
;

//---------------dance-single - ----------------
#NOTES:
     dance-single:
     :
     Beginner:
     2:
     0.119,0.188,0.137,0.000,0.000:
0000
0000
0000
0000
,
0000
0000
0000
0000
,
0000
0000
0000
0000
,
0000
0000
0000
0000
,
0000
0000
0000
0000
,
0000
0000
0000
0000
,
0000
0000
0000
0000
,
0000
0000
0000
0000
,
1000
0000
0000
0000
,
0001
0000
0000
0000
,
1000
0000
0000
0000
,
0001
0000
0000
0000
,
0100
0000
0000
0000
,
0010
0000
0000
0000
,
0110
0000
0000
0000
,
0000
0000
0000
0000
,
1000
0000
0000
0000
,
0100
0000
0000
0000
,
1000
0000
0000
0000
,
0100
0000
0000
0000
,
0010
0000
0000
0000
,
0001
0000
0000
0000
,
1001
0000
0000
0000
,
0000
0000
0000
0000
,
0110
0000
0000
0000
,
0000
0000
0000
0000
,
1001
0000
0000
0000
,
0000
0000
0000
0000
,
0001
0000
0000
0000
,
0001
0000
0000
0000
,
1001
0000
0000
0000
,
0000
0000
0000
0000
,
1000
0000
0000
0000
,
0010
0000
0000
0000
,
1000
0000
0000
0000
,
0010
0000
0000
0000
,
0100
0000
0000
0000
,
0001
0000
0000
0000
,
0100
0000
0000
0000
,
0001
0000
0000
0000
,
1000
0000
1000
0000
,
1000
0000
0000
0000
,
0001
0000
0001
0000
,
0001
0000
0000
0000
,
0010
0000
0100
0000
,
0010
0000
0000
0000
,
0001
0000
0000
0000
,
0000
0000
0000
0000
,
1001
0000
1000
0000
,
1000
0000
0000
0000
,
0010
0000
0010
0000
,
0010
0000
0000
0000
,
0100
0000
0100
0000
,
0100
0000
0000
0000
,
0001
0000
0001
0000
,
0001
0000
0000
0000
,
1000
0000
0001
0000
,
1000
0000
0000
0000
,
0001
0000
1000
0000
,
0001
0000
0000
0000
,
1001
0000
0000
0000
,
0000
0000
0000
0000
,
0110
0000
0000
0000
,
0000
0000
0000
0000
,
1001
0000
0000
0000
,
1000
0000
0000
0000
,
1001
0000
0000
0000
,
0001
0000
0000
0000
,
1001
0000
0000
0000
,
1000
0000
0000
0000
,
1001
0000
0000
0000
,
0001
0000
1001
0000
;
