#TITLE:home.(kors k Remix);
#SUBTITLE:;
#ARTIST:秋桜+WORLD SEQUENCE remixed by kors k;
#TITLETRANSLIT:;
#SUBTITLETRANSLIT:;
#ARTISTTRANSLIT:COSMOS+WORLD SEQUENCE remixed by kors k;
#CREDIT:DigiMindAxel;
#BANNER:home.(kors k Remix).png;
#BACKGROUND:home.(kors k Remix)-bg.png;
#LYRICSPATH:home.(kors k Remix).lrc;
#CDTITLE:pop'n music.png;
#MUSIC:home.(kors k Remix).ogg;
#METERTYPE:DDR X;
#OFFSET:-9.420;
#SAMPLESTART:68.915;
#SAMPLELENGTH:12.000;
#SELECTABLE:YES;
#BPMS:0.000=128.000;
#STOPS:;
#BGCHANGES:;

//---------------dance-single - ----------------
#NOTES:
     dance-single:
     :
     Easy:
     3:
     0.185,0.212,0.033,0.270,0.000: // measure 1
0001
0000
0001
0000
,  // measure 2
0010
0000
0010
0000
,  // measure 3
0001
0000
0001
0000
,  // measure 4
0100
0000
0100
0000
,  // measure 5
0020
0000
1000
0000
,  // measure 6
2030
0000
0001
0000
,  // measure 7
3002
0000
0023
0000
,  // measure 8
0230
0000
0000
0300
,  // measure 9
2000
0000
0000
3020
,  // measure 10
0000
0000
0030
0000
,  // measure 11
0200
0000
0000
0302
,  // measure 12
0000
0000
0003
0000
,  // measure 13
0020
0000
0000
0230
,  // measure 14
0000
0000
0300
0000
,  // measure 15
2000
0000
0000
3020
,  // measure 16
0000
0000
0000
0030
,  // measure 17
0100
0000
0100
0000
,  // measure 18
0001
0000
0001
0000
,  // measure 19
0010
0000
0100
0000
,  // measure 20
0010
0000
0100
0000
,  // measure 21
1000
0000
0010
0000
,  // measure 22
1000
0000
0001
0000
,  // measure 23
0010
0000
0100
0000
,  // measure 24
0010
0000
0100
0000
,  // measure 25
1000
1000
1000
0000
,  // measure 26
0001
0001
0001
0000
,  // measure 27
0010
0010
0010
0000
,  // measure 28
0001
0001
0001
0000
,  // measure 29
1000
0001
1000
0001
,  // measure 30
1000
0001
1000
0001
,  // measure 31
0010
0100
0010
0100
,  // measure 32
1000
0000
0000
0000
,  // measure 33
0010
1000
0010
0100
,  // measure 34
0002
0000
1003
0000
,  // measure 35
0001
0010
0001
0100
,  // measure 36
0020
0000
0130
0000
,  // measure 37
0001
0010
0100
1000
,  // measure 38
0020
0000
0130
0000
,  // measure 39
0001
1000
0001
0010
,  // measure 40
0200
0000
0310
0000
,  // measure 41
0001
0100
0001
1000
,  // measure 42
0100
1000
0001
0000
,  // measure 43
1001
0000
0110
0000
,  // measure 44
2002
0000
0000
3003
,  // measure 45
2000
0000
3100
0010
,  // measure 46
0002
0000
0013
0100
,  // measure 47
2000
0000
3001
0100
,  // measure 48
0020
0000
0000
0030
,  // measure 49
0200
0000
0000
0001
0000
0000
0302
0000
,  // measure 50
0000
0000
0003
0000
,  // measure 51
0020
0000
0000
0100
0000
0000
0230
0000
,  // measure 52
0000
0000
0300
0000
,  // measure 53
2000
0000
0000
0100
0000
0000
3200
0000
,  // measure 54
0000
0000
0300
0000
,  // measure 55
2000
0000
0000
0010
0000
0000
3020
0000
,  // measure 56
0000
0000
0000
0030
,  // measure 57
2002
0000
0000
0000
,  // measure 58
0000
0000
3003
0000
;

//---------------dance-single - ----------------
#NOTES:
     dance-single:
     :
     Medium:
     8:
     0.353,0.400,0.221,0.287,0.016:
1000
1000
0100
0100
,
0010
0010
0001
0001
,
0100
0100
0010
0010
,
0100
0100
0001
0001
,
1000
0000
0000
0100
0000
0000
0010
0001
,
0010
0000
0000
0100
0000
0000
1000
0010
,
1000
1001
1001
1001
,
0011
0000
0000
0010
0000
0000
0010
0000
0010
0000
0000
0000
0000
0000
0100
0000
,
2000
0000
0000
0010
0000
0000
0020
0000
,
0000
0000
0000
0000
3030
0000
0000
0100
,
0002
0000
0000
1000
0000
0000
2003
0000
,
0000
0100
0000
0000
3100
0000
0000
0010
,
0002
0000
0000
0100
0000
0000
0200
0000
,
0000
0000
0000
0000
0303
0000
0000
0010
,
2000
0000
0000
0100
0000
0000
3200
0000
,
1000
0000
0000
1000
0000
0000
1300
0000
0001
0000
0000
0000
0100
0000
0000
0000
,
1001
0000
0100
0000
0011
0000
0000
1000
,
0001
0000
0010
0000
1100
0000
0000
0001
,
1000
0000
0010
0000
0101
0000
0000
1000
,
0001
0000
0100
0000
1010
0000
0000
0100
,
0010
0100
1001
0000
,
0100
0010
0100
0010
1000
0000
0000
0001
,
1000
0000
0010
0000
0110
0000
0000
1000
,
0001
0100
0001
0100
0020
0000
2030
0000
,
3002
0010
0010
0013
,
2000
0010
0010
3010
,
0002
0100
0100
0103
,
2000
0100
0100
3100
,
0001
1000
0001
1000
0200
0000
0010
0000
,
0310
1001
0110
0010
,
1000
0001
1000
0001
1000
0001
1000
0001
,
0200
0000
0300
1001
,
0002
0000
0103
0010
1000
0000
0010
1000
,
0001
0000
0010
0000
1000
0000
0010
0001
,
2000
0000
3100
0010
0002
0000
0103
0010
,
2000
0000
3001
1000
0001
0000
0011
0000
,
1001
0000
1000
0100
1000
0000
0010
0100
,
0001
0000
0010
0000
1000
0000
0010
0001
,
2000
0000
3100
0010
0002
0000
1003
0010
,
0100
0101
1001
1010
,
1001
0000
0001
1000
0010
0000
0100
0001
,
1000
0100
0010
0001
1000
0000
1001
0000
,
0100
0000
0000
0100
0000
0000
0100
0000
0010
0000
0000
0010
0000
0000
0010
0000
,
2002
0000
3003
0000
,
0001
0100
0010
0100
0001
0000
1100
0000
,
0010
0001
1000
0001
0010
0000
1001
0000
,
1000
0100
0010
0100
1000
0000
0101
0000
,
1002
0000
0000
0000
1000
1000
1003
0001
,
0200
0000
0000
0010
0000
0000
0020
0000
,
0000
0000
0330
0000
1000
0100
0010
0100
,
2000
0000
0000
0010
0000
0000
3020
0000
,
0000
0100
0000
0000
0130
0000
0001
1000
,
0020
0000
0000
1000
0000
0000
2000
0000
,
0000
0000
3030
0000
0010
0100
0001
1000
,
0200
0000
0000
1000
0000
0000
2300
0000
,
0001
0000
0000
0000
0001
0001
3001
0000
,
0220
0000
0000
0000
,
0000
0000
0330
0000
;

//---------------dance-single - ----------------
#NOTES:
     dance-single:
     :
     Hard:
     11:
     0.493,0.471,0.156,0.385,0.225:
0001
0100
0001
0000
1000
0010
0001
0000
,
0010
1000
0010
0000
0001
1000
0001
0000
,
1000
0100
0001
0000
0100
1000
0100
0000
,
0001
1000
0001
0000
0010
0001
0010
0000
,
0110
0000
0000
0100
0000
0000
0100
0000
0000
0000
1000
0000
1010
0000
0000
0000
,
1001
0000
0000
0001
0000
0000
0001
0000
0000
0000
0100
0000
0110
0000
0000
0000
,
0001
0010
0000
0010
0000
0001
0010
0000
0100
1000
0000
1000
0000
0100
1000
0000
,
0010
0100
0000
0100
0000
0010
0100
0000
1001
0000
0000
0000
0000
0000
0001
0100
,
0002
0000
0000
0203
0000
0000
2300
0000
,
0000
0000
0000
0000
0000
0000
0000
0000
3100
0000
0001
0000
0010
0000
0100
1000
,
0002
0000
0000
0023
0000
0000
2030
0000
,
0000
0000
3020
0000
0000
0000
0000
0000
0031
0000
0000
0010
0000
0000
0100
1000
,
0002
0000
0000
0203
0000
0000
2300
0000
,
0000
0000
0000
0000
0000
0000
0000
0000
3100
0000
0001
0000
0010
0000
0100
1000
,
0002
0000
0000
0023
0000
0000
2030
0000
,
0010
0000
0000
0010
0000
0000
3010
0000
0001
0000
0100
0000
0110
0000
0000
0000
,
1001
0000
1000
0100
0010
0000
0010
0100
,
1000
0100
0100
0001
1000
0000
0001
0100
,
0010
0000
0010
0100
0001
0010
0001
0100
,
0010
0000
0010
0100
0001
0000
1000
0001
,
0110
0000
0010
0001
1000
0000
1000
0001
,
0100
0100
1000
0001
0010
0000
0100
1000
,
0001
0000
0001
0010
0100
0000
0100
0010
,
0001
0100
0010
0100
0002
0000
2003
0000
,
3200
0010
0320
0001
,
0001
0032
0203
0010
,
0310
0000
1000
0001
0020
0000
0230
0000
,
0320
0000
0032
0000
0203
0000
0310
1000
,
1001
0000
0100
0010
2000
0000
0010
0000
,
3010
0101
2001
0001
,
3001
0010
0100
0010
0001
0010
1000
0010
,
0001
0000
0000
0001
0000
0000
0001
0000
0100
0010
0100
0010
0100
0000
0000
0000
,
0001
0000
0000
0001
1000
0000
0100
0000
0010
0000
0000
0001
1000
0000
0100
0000
,
0010
0100
1000
0001
0100
0001
1000
0100
,
0010
0000
0000
0001
1000
0000
0010
0000
0100
0000
0000
0001
1000
0000
0100
0000
,
0010
0000
0000
0001
1000
0000
0010
0000
0100
0001
0100
0001
1000
0000
1000
0000
,
1001
0000
0000
1000
0001
0000
0010
0000
0100
0000
0000
1000
0001
0000
0010
0000
,
0100
0010
0001
0100
0010
0000
1000
0010
,
0100
0000
0000
0001
1000
0000
0100
0000
0010
0000
0000
0001
1000
0000
0010
0000
,
0100
0000
0000
0001
1000
0000
0000
1000
0100
0000
0000
0100
0010
0000
0001
0000
,
1001
0000
0000
1000
0001
0000
0010
0000
0100
0000
0000
1000
0001
0000
0100
0000
,
0010
0100
0001
1000
0100
1000
0002
0000
,
1003
0100
0000
0100
0000
1000
0100
0000
0010
0001
0000
0001
0000
0010
0001
0000
,
0100
0010
0000
0010
0000
0100
0010
0000
2002
0000
0000
0000
0000
0000
3003
0000
,
1000
0100
0100
0001
1000
0100
0020
0000
,
0031
0000
0100
0000
0100
0000
1000
0000
0001
0100
0001
0100
0020
0000
0000
0000
,
1030
0100
0100
0001
1000
0010
0100
0001
,
2001
0000
0000
0000
0000
0000
0000
0000
3100
0000
0100
0000
0110
0000
0001
0100
,
0020
0000
1000
2030
0000
0001
3002
0000
,
0010
0000
0000
0000
0010
0000
0000
0000
0013
0001
0010
0001
1000
0000
0100
0010
,
0002
0000
0010
0023
0000
0100
0230
0000
,
1000
0000
2300
0000
0000
0000
0010
0000
3010
0000
0100
0000
0110
0000
0001
1000
,
0020
0000
1000
2030
0000
0001
3002
0000
,
1000
0000
0000
0000
1000
0000
0000
0000
1003
0010
1000
0010
0100
0000
0001
0010
,
0200
0000
0000
2300
0100
0000
3002
0000
,
0100
0000
0000
0000
0103
0100
0110
0000
,
2002
0000
0000
0000
,
0000
0000
3003
0000
;

//---------------dance-single - ----------------
#NOTES:
     dance-single:
     :
     Challenge:
     13:
     0.652,0.683,0.393,0.385,0.393:
1000
0100
1000
0010
0100
0001
1000
0000
,
0001
0100
1000
0100
0010
1000
0001
0000
,
1000
0010
1000
0100
0010
0001
0100
0000
,
0001
0100
1000
0100
0010
1000
0001
0000
,
0101
0000
0000
0101
0000
0000
0101
0000
0000
0000
1000
0000
1100
0000
0000
0000
,
0110
0000
0000
0110
0000
0000
0110
0000
0000
0000
0001
0000
0011
0000
0000
0000
,
0100
1000
0000
1000
0000
0001
0100
0000
0001
1000
0000
1000
0000
0100
0010
0000
,
0100
1000
0000
1000
0100
0010
0001
0000
0100
0010
0100
0001
1000
0000
0001
0010
,
0200
0000
0000
2300
0010
0010
3020
0000
,
0000
0000
0000
0000
0000
0000
0000
0000
0130
0001
0010
0100
1000
0001
0100
0010
,
2000
0000
0000
3020
0100
0100
0230
0000
,
0001
0000
0302
0000
0000
0000
1000
0000
1003
0000
0000
0011
0000
0000
0100
1000
,
0020
0000
0000
0230
0001
0001
0302
0000
,
0000
0000
0000
0000
0000
0000
0000
0000
0103
0010
1000
0100
0010
0001
0010
0100
,
2000
0000
0000
3020
0100
0100
0230
0000
,
0301
0000
0000
1001
0000
0000
0011
0000
0100
0000
0100
0000
0110
0000
0000
0000
,
2001
0000
3100
0010
1002
0000
1003
0010
,
0010
0100
0100
0001
0110
0000
0001
0010
,
0200
0000
0000
0000
1300
0000
0010
0000
0110
0000
0001
0100
0001
0000
1000
0000
,
0200
0000
1300
0001
2001
0000
3001
0010
,
1200
0000
1300
0010
0201
0000
0301
0010
,
0100
0010
0001
0010
1200
0000
0310
0001
,
0200
0000
0000
0000
0310
0000
1000
0000
1100
0000
0010
0100
0010
0000
0001
0000
,
1000
0000
1000
0000
0010
0000
0010
0000
0100
0001
0100
0001
0010
0100
0010
0000
,
1001
1000
1000
1000
,
1000
0000
0100
0010
0001
0000
0000
0000
0001
0000
0000
0000
0001
0000
1000
0000
,
0100
0000
0010
0001
1000
0000
1000
0000
,
1000
0000
0100
0010
0001
0000
0000
0000
0001
0000
0000
0000
0100
0010
0100
0010
,
0100
0001
0100
0010
0100
0001
1000
0000
,
0100
0000
1000
0001
1000
0000
0100
0000
0010
0000
0100
0000
1000
0000
0000
0000
,
0010
1000
0001
1000
0010
1000
0001
1000
,
0010
0100
0000
0010
0100
0000
0010
0100
0001
1000
0001
1000
0001
0000
0000
0000
,
1001
0000
1000
0100
1000
0000
0001
0100
0001
0000
1000
0100
1000
0000
0001
1000
,
0001
0010
1000
0010
0002
0100
0203
0010
,
0310
0000
1000
0010
1000
0000
0001
0010
0001
0000
1000
0010
1000
0000
0001
1000
,
0001
0000
0100
0010
0100
0000
0001
0000
1000
0100
1000
0100
0010
0001
0100
0000
,
1001
0000
1000
0010
1000
0000
0001
1000
0001
0000
0010
0001
0010
0000
0001
1000
,
0001
0010
1000
0010
0002
1000
2003
0100
,
3100
0000
0010
0001
0010
0000
0100
0010
0100
0000
1000
0100
1000
0000
0001
1000
,
0001
0000
0100
0001
0100
0000
0010
0100
0010
0000
1000
0010
1000
0000
0001
0000
,
1001
0000
1000
0010
1000
0000
0001
1000
0001
0000
0010
0001
0010
0000
0100
0000
,
1001
0000
0001
0000
0110
0000
0100
0000
1001
0000
0100
0010
0001
1000
0010
0000
,
0200
0001
0000
0001
0000
0301
1000
0000
0020
0100
0000
0100
0000
0130
0001
0000
,
1000
0001
0000
1001
0000
1000
0001
0000
0010
0100
0010
0100
0010
0000
0000
0000
,
1100
0000
0100
0000
0100
0000
1001
0000
0100
0010
0100
0000
2002
0000
3003
0000
,
0110
0000
0100
0000
0100
0000
1001
0000
1000
0100
0010
0001
0200
0020
0330
0000
,
1001
0000
0001
0000
0001
0000
0110
0000
1000
0100
0010
0001
0200
0000
0310
0000
,
1001
0000
1000
0000
0010
0000
0010
0000
0101
0000
0101
0000
1001
0000
0001
1000
,
0200
1000
1300
0020
0100
0130
0002
1000
,
1000
0000
1000
0000
1000
0000
1003
0000
0001
0010
0100
1000
0001
0100
0001
1000
,
0020
1000
1030
0002
0010
0013
0200
1000
,
1300
0000
0020
0000
0100
0000
0130
0000
1001
0000
1001
0000
0110
0000
0001
1000
,
0020
1000
1030
0002
0010
0013
0200
1000
,
1000
0000
1000
0000
1000
0000
1300
0000
0001
0010
0100
1000
0001
0010
0001
1000
,
0020
0000
0000
0000
0000
0000
0130
0000
1001
0000
0000
0000
0001
0000
0100
0010
,
0200
0000
0000
0310
1010
1010
1001
0000
,
0220
0000
0000
0000
,
0000
0000
0330
0000
;

//---------------dance-single - ----------------
#NOTES:
     dance-single:
     :
     Beginner:
     1:
     0.069,0.138,0.090,0.000,0.000: // measure 1
1000
0000
0000
0000
,  // measure 2
1000
0000
0000
0000
,  // measure 3
0001
0000
0000
0000
,  // measure 4
0001
0000
0000
0000
,  // measure 5
1001
0000
0000
0000
,  // measure 6
1001
0000
0000
0000
,  // measure 7
1001
0000
1000
0000
,  // measure 8
1000
0000
0000
0000
,  // measure 9
0100
0000
0000
0000
,  // measure 10
0000
0000
0000
0000
,  // measure 11
0010
0000
0000
0000
,  // measure 12
0000
0000
0000
0000
,  // measure 13
0001
0000
0000
0000
,  // measure 14
0000
0000
0000
0000
,  // measure 15
1000
0000
0000
0000
,  // measure 16
0000
0000
0000
0000
,  // measure 17
0010
0000
0000
0000
,  // measure 18
0000
0000
0000
0000
,  // measure 19
0010
0000
0000
0000
,  // measure 20
0000
0000
0000
0000
,  // measure 21
0100
0000
0000
0000
,  // measure 22
0000
0000
0000
0000
,  // measure 23
0100
0000
0000
0000
,  // measure 24
0000
0000
0000
0000
,  // measure 25
1001
0000
0000
0000
,  // measure 26
0000
0000
0000
0000
,  // measure 27
0001
0000
0000
0000
,  // measure 28
0000
0000
0000
0000
,  // measure 29
1000
0000
0000
0000
,  // measure 30
0000
0000
0000
0000
,  // measure 31
1000
0000
0000
0000
,  // measure 32
0010
0000
0000
0000
,  // measure 33
1001
0000
0000
0000
,  // measure 34
0100
0000
0100
0000
,  // measure 35
0110
0000
0000
0000
,  // measure 36
0001
0000
0001
0000
,  // measure 37
1001
0000
0000
0000
,  // measure 38
0100
0000
0100
0000
,  // measure 39
0110
0000
0000
0000
,  // measure 40
0001
0000
0001
0000
,  // measure 41
1001
0000
0000
0000
,  // measure 42
1000
0000
0100
0000
,  // measure 43
1000
0000
0000
0000
,  // measure 44
1001
0000
0000
0000
,  // measure 45
0001
0000
0000
0000
,  // measure 46
0010
0000
0000
0000
,  // measure 47
0100
0000
0000
0000
,  // measure 48
1000
0000
0000
0000
,  // measure 49
0001
0000
0000
0000
,  // measure 50
0000
0000
0000
0000
,  // measure 51
0100
0000
0000
0000
,  // measure 52
0000
0000
0000
0000
,  // measure 53
0010
0000
0000
0000
,  // measure 54
0000
0000
0000
0000
,  // measure 55
0100
0000
0000
0000
,  // measure 56
0000
0000
0000
0000
,  // measure 57
1001
0000
0000
0000
;
