#TITLE:forever under construction;
#SUBTITLE:;
#ARTIST:Tomoyuki Uchida;
#TITLETRANSLIT:;
#SUBTITLETRANSLIT:;
#ARTISTTRANSLIT:;
#CREDIT:DigiMindAxel;
#BANNER:forever under construction.png;
#BACKGROUND:forever under construction-bg.png;
#LYRICSPATH:;
#CDTITLE:pop'n music.png;
#MUSIC:forever under construction.ogg;
#METERTYPE:DDR X;
#OFFSET:-7.596;
#SAMPLESTART:72.006;
#SAMPLELENGTH:12.000;
#SELECTABLE:YES;
#BPMS:0.000=170.000;
#STOPS:;
#BGCHANGES:;

//---------------dance-single - ----------------
#NOTES:
     dance-single:
     :
     Easy:
     6:
     0.293,0.311,0.086,0.173,0.000:
1000
0001
1000
0001
,
0100
0010
0100
0010
,
1000
0001
1000
0001
,
0020
0000
0000
0030
,
0001
0001
0001
0001
,
1000
1000
1000
1000
,
0001
0001
0001
0001
,
1000
1000
1000
0000
,
0001
0100
0010
0100
,
0001
1000
0100
1000
,
0001
0100
0010
0100
,
0002
0000
0000
0000
,
1003
0100
0010
0000
,
0100
0010
0001
1000
,
0020
0000
0230
0000
,
0302
0000
0203
0000
,
0310
0100
0001
0100
,
0010
1000
0100
0010
,
0002
0000
0203
0000
,
0320
0000
0000
0030
,
1000
0100
0010
0001
,
1000
0100
0010
0001
,
1000
1000
0001
0001
,
0100
0100
0010
0010
,
1000
0100
0010
0001
,
1000
0100
1000
0010
,
0100
0100
0001
0001
,
2000
0000
0000
3000
,
1001
0000
0000
0000
,
0001
0000
0000
0000
,
0100
0000
0000
0000
,
0010
0000
0000
0000
,
1000
0000
0000
0000
,
0010
0000
0000
0000
,
0100
0000
0000
0000
,
0001
0000
0000
0000
,
1001
0000
1000
0000
,
1000
0000
1000
0000
,
1000
0000
1000
0000
,
1000
0000
1000
0000
,
0001
1000
0001
1000
,
0100
0010
0100
0010
,
0001
0001
0100
0100
,
0020
0000
0000
0030
,
2002
0000
0000
3003
,
0220
0000
0330
0000
,
1001
1000
0100
1000
,
0001
0100
0010
0100
,
0001
0010
0100
1000
,
0001
0100
0001
1000
,
0100
0010
0100
0010
,
0001
0100
0010
0100
,
0001
0001
1000
1000
,
0100
0010
0001
0000
,
1000
0010
0100
0010
,
1000
1000
0001
0001
,
0010
0100
1000
0100
,
0010
0001
0100
0000
,
1001
0000
1001
0000
,
0110
0000
0001
1000
,
0100
0010
0001
0100
,
0020
0000
0000
0000
,
0130
0100
0001
0001
,
1000
0100
0010
0001
,
1000
1000
0010
0010
,
0100
0001
0010
0000
,
0100
0100
1000
1000
,
0010
0100
0001
0000
,
0010
0010
0100
0100
,
2002
0000
0000
3003
,
2002
0000
0000
0000
,
0000
0000
0000
0000
,
3003
0000
0000
0000
;

//---------------dance-single - ----------------
#NOTES:
     dance-single:
     :
     Medium:
     10:
     0.496,0.498,0.294,0.225,0.013: // measure 1
1000
0000
0010
0000
0100
0000
0001
1000
,  // measure 2
0001
0000
0010
0000
0100
0000
1000
0001
,  // measure 3
1000
0000
0010
0000
0110
0000
0001
1000
,  // measure 4
0002
0000
1000
1003
,  // measure 5
0001
0010
0001
0000
0010
0001
0010
0000
,  // measure 6
0100
1000
0100
0000
1000
0100
1000
0000
,  // measure 7
0010
0100
0010
0000
0100
0010
0100
0000
,  // measure 8
0002
0000
1000
1000
1003
0000
1001
0000
,  // measure 9
0001
0100
0001
0100
0010
0000
1000
0000
,  // measure 10
0100
0010
0100
0010
0001
0000
0100
0000
,  // measure 11
0010
1000
0010
1000
0001
0000
0010
0000
,  // measure 12
0200
0000
1000
1000
1300
0000
1001
0000
,  // measure 13
0001
0100
1000
0100
,  // measure 14
0001
1000
0010
0100
,  // measure 15
0001
1000
0001
1000
0001
1000
0100
0000
,  // measure 16
0010
0001
0010
0001
0010
0001
0100
0000
,  // measure 17
0001
0010
1000
0010
,  // measure 18
0001
1000
0001
0000
1000
0010
1000
0000
,  // measure 19
0001
0010
0001
0010
0001
0010
0100
0000
,  // measure 20
1000
0010
1000
0010
1000
0010
0100
0000
,  // measure 21
1001
0000
0011
0000
0100
1000
0001
0000
,  // measure 22
1001
0000
1100
0000
0010
0001
1000
0000
,  // measure 23
1001
0000
0101
0000
0010
1000
0001
0000
,  // measure 24
1001
0000
1010
0000
0100
0001
1000
0000
,  // measure 25
1001
0000
0011
0000
0100
1000
0010
0000
,  // measure 26
1001
0000
1100
0000
0010
0001
1000
0000
,  // measure 27
1001
1001
1100
0011
,  // measure 28
2200
0000
0000
3300
,  // measure 29
0020
0000
0000
0000
0000
0000
0031
0010
,  // measure 30
0200
0000
0000
0000
0000
0310
0100
2000
,  // measure 31
0000
0000
0010
0000
0000
0010
0000
3020
,  // measure 32
0000
0000
0130
0001
0000
1000
0000
0200
,  // measure 33
0000
0000
0000
0000
,  // measure 34
2300
0000
0000
3100
0010
0001
0100
0002
,  // measure 35
0000
0000
1000
0000
,  // measure 36
1000
0000
2003
0000
,  // measure 37
3001
0001
0001
0001
,  // measure 38
0100
0100
0100
0100
,  // measure 39
0010
0010
0010
0010
,  // measure 40
1000
1000
1000
1000
,  // measure 41
0001
1000
0001
0000
1000
0100
1000
0000
,  // measure 42
0001
1000
0001
0000
1000
0100
1000
0000
,  // measure 43
0010
0100
0010
0100
0010
0100
0010
0100
,  // measure 44
0002
0000
0000
0003
,  // measure 45
0101
0000
0000
0110
0000
0000
1010
0000
,  // measure 46
1001
0000
0000
0001
0000
0000
0001
0000
0000
0000
0000
0000
1001
0000
0000
0000
,  // measure 47
1000
0100
1000
0001
0100
0000
0000
0010
,  // measure 48
0000
1000
0000
1001
0000
0001
0010
0100
,  // measure 49
0000
1000
0010
1000
0000
0001
0000
0020
,  // measure 50
0000
0000
0031
1000
0000
0010
0000
0100
,  // measure 51
0000
0001
1000
0100
1000
0100
0010
0001
,  // measure 52
0000
0000
1000
0010
0000
1000
0001
1000
,  // measure 53
0020
0000
0230
0000
0301
0010
0100
0000
,  // measure 54
0010
0100
1000
0000
0010
0100
0010
1000
,  // measure 55
0100
0000
1000
0100
0000
0010
0100
0010
,  // measure 56
0000
0001
0100
0010
0100
0000
0010
0000
,  // measure 57
1000
0001
1000
0100
0000
0010
0000
0001
,  // measure 58
0000
0000
0100
0010
0100
0001
1000
0000
,  // measure 59
1001
0000
0001
0000
0110
0000
0000
1001
,  // measure 60
0000
1000
0000
0001
0000
0010
0100
1000
,  // measure 61
0010
0000
0000
0010
0000
0000
0010
0000
0100
0000
0000
0100
0000
0000
0200
0000
,  // measure 62
0000
0001
0301
0000
1000
0000
1001
0000
,  // measure 63
0001
0010
0001
0010
0100
0000
0200
0000
,  // measure 64
1300
0010
1000
0010
0100
0000
0200
0000
,  // measure 65
0301
1000
0001
1000
0100
0000
0200
0000
,  // measure 66
0310
0001
0010
0001
1000
0010
0100
0000
,  // measure 67
1001
0000
0001
0100
0001
0100
0020
0000
,  // measure 68
0130
0000
0001
1000
0001
1000
0100
0000
,  // measure 69
1001
0000
1000
0100
0010
0100
1000
0000
,  // measure 70
0022
0000
0000
0033
,  // measure 71
2002
0000
0000
0000
,  // measure 72
0000
0000
0000
0000
,  // measure 73
3003
0000
0000
0000
;

//---------------dance-single - ----------------
#NOTES:
     dance-single:
     :
     Hard:
     13:
     0.617,0.684,0.354,0.173,0.264: // measure 1
1010
0000
0010
0100
0100
0001
1000
0000
,  // measure 2
0001
1000
0001
0100
1000
0100
0001
0000
,  // measure 3
0010
0100
1000
0001
0100
0010
0100
0001
,  // measure 4
2000
0000
0100
3100
,  // measure 5
1001
0000
0000
0001
0000
0000
0100
0000
0010
0000
0000
1000
0000
0000
0100
0000
,  // measure 6
0010
0000
0000
0001
0000
0000
0100
0000
0001
0000
0000
1000
0000
0000
0100
0000
,  // measure 7
1000
0000
0000
0010
0000
0000
0100
0000
0001
0000
0000
0010
0000
0000
0100
0000
,  // measure 8
2000
0000
0010
0010
3010
0000
0110
0000
,  // measure 9
0101
0000
0000
0001
0000
0000
1000
0000
0100
0000
0000
0010
0000
0000
0100
0000
,  // measure 10
1000
0000
0000
0010
0000
0000
0100
0000
0001
0000
0000
0100
0000
0000
1000
0000
,  // measure 11
0100
0000
0000
0001
0000
0000
0010
0000
1000
0000
0000
0010
0000
0000
0001
0000
,  // measure 12
0200
0000
0010
0010
0310
0000
1001
0000
,  // measure 13
1100
0000
0000
1000
0000
0000
0010
0000
0100
0000
0000
0100
0000
0000
0001
0000
,  // measure 14
0010
0000
0000
1000
0000
0000
0010
0000
0001
0000
0000
1000
0000
0000
0100
0000
,  // measure 15
0010
0000
0001
0100
0001
0000
0010
0000
0100
0000
1000
0000
0010
0000
0000
0000
,  // measure 16
0100
0000
0001
0100
0001
0000
0010
0000
0100
0000
1000
0000
0001
0000
0000
0000
,  // measure 17
0011
0000
0000
0010
0000
0000
0001
0000
0100
0000
0000
0100
0000
0000
0010
0000
,  // measure 18
1000
0000
0000
0100
0000
0000
0001
0000
0100
0000
0000
1000
0000
0000
0001
0000
,  // measure 19
0100
0000
0010
1000
0010
0000
1000
0000
0100
0000
0010
0000
0001
0000
0000
0000
,  // measure 20
0100
0010
1000
0100
0010
0001
1001
0000
,  // measure 21
1000
0000
0010
1000
0000
0000
0001
0000
0010
0000
0100
0010
0000
0000
0001
0000
,  // measure 22
1000
0000
0010
0100
0000
0010
0100
0000
0001
0000
0000
0100
0000
0000
1000
0000
,  // measure 23
0100
0000
0001
1000
0001
0000
0010
0000
0100
0000
1000
0000
0001
0000
0000
0000
,  // measure 24
0100
0000
0010
1000
0010
0000
0100
0000
0001
0000
0010
0000
0100
0000
0000
0000
,  // measure 25
1000
0000
0010
0100
0000
0000
0010
0000
1000
0000
0100
0010
0000
0000
0001
0000
,  // measure 26
0100
0000
0010
0100
0000
0010
0100
0000
0001
0000
1000
0000
0100
0000
0001
0000
,  // measure 27
0100
0000
1000
0001
1000
0000
0100
0000
0010
0000
0100
0000
1000
0000
0001
0000
,  // measure 28
0200
0001
0001
0301
,  // measure 29
2001
0000
0000
0000
0000
0000
3100
1000
,  // measure 30
0020
0000
0000
0000
0000
0130
0001
0200
,  // measure 31
0000
0000
0301
1000
0000
0100
1000
0200
,  // measure 32
0000
0000
1300
0010
0000
0100
0000
0002
,  // measure 33
0000
0000
0000
0000
,  // measure 34
0000
0000
0000
1003
0001
0010
0100
2000
,  // measure 35
0000
0000
3020
0000
,  // measure 36
0230
0000
0320
0000
,  // measure 37
1030
1001
0011
0100
,  // measure 38
1000
1001
0011
0100
,  // measure 39
1000
1001
0101
0010
,  // measure 40
1000
1001
0101
0010
,  // measure 41
1000
0001
0010
0100
1000
0001
0100
0000
,  // measure 42
0001
1000
0010
0001
0010
1000
0100
0000
,  // measure 43
0010
0001
0100
1000
0100
0001
0010
0100
,  // measure 44
2000
0010
0010
3010
,  // measure 45
1001
0000
0000
0011
0000
0000
0110
0000
0000
1100
0000
0000
0110
0000
0000
0000
,  // measure 46
1001
0000
0000
1001
0000
0000
2002
0000
0000
0000
0000
0000
3003
0000
0000
0000
,  // measure 47
0001
0000
1000
0100
1000
0000
0001
0000
0100
0000
0010
0100
0010
0000
0100
0000
,  // measure 48
0000
0101
0000
1001
0000
0001
0100
0010
,  // measure 49
0000
0000
0100
0001
0010
0000
0100
0000
1000
0000
0001
0100
0001
0000
1000
0000
,  // measure 50
0000
0000
0100
1000
0100
0000
0010
0000
0001
0000
0100
0000
0000
0000
0110
0000
,  // measure 51
0000
0000
0001
0100
0001
0000
0010
0000
1000
0000
0010
0000
0001
0000
1000
0000
,  // measure 52
0000
0000
0100
0010
0001
0000
0100
0000
0001
0000
0010
0000
1000
0000
0010
0000
,  // measure 53
0000
0001
1000
0010
0001
0010
1000
0100
,  // measure 54
0001
0100
1000
0010
1000
0100
0010
0001
,  // measure 55
0000
0000
0100
0010
0100
0000
0001
0000
0010
0000
1000
0000
0010
0000
0001
0000
,  // measure 56
0000
0000
1000
0100
1000
0000
0010
0000
0100
0000
1000
0000
0100
0000
0010
0000
,  // measure 57
0000
0000
1000
0001
1000
0000
0010
0000
0100
0000
0010
0000
1000
0000
0001
0000
,  // measure 58
0000
0000
0010
0100
1000
0000
0010
0000
0001
0000
0010
0000
1000
0000
0001
0000
,  // measure 59
0101
0000
0000
0100
0000
0000
0100
0000
0110
0000
0000
0010
0000
0000
1010
0000
,  // measure 60
0000
1001
0000
0101
0000
0001
1000
0100
,  // measure 61
0011
0000
0000
0010
0000
0000
0010
0000
0101
0000
0000
0100
0000
0000
0120
0000
,  // measure 62
0000
1000
1030
0000
0000
0000
1001
0000
,  // measure 63
1000
0000
0100
0000
1000
0000
1000
0000
0001
0000
0100
0000
0010
0100
0010
0100
,  // measure 64
0010
1000
0100
0001
0100
1000
0010
0000
,  // measure 65
1000
0000
0100
0000
1000
0000
1000
0000
0001
0000
0100
0000
0010
0100
0010
0100
,  // measure 66
0010
0100
0001
0010
0100
1000
0000
0000
,  // measure 67
0100
0000
1000
0000
0010
0100
0010
0000
1000
0000
0100
0000
0010
0100
0010
0100
,  // measure 68
0010
0000
0001
0000
1000
0000
1000
0000
0001
0000
0010
0000
0100
0010
0100
0000
,  // measure 69
1001
0000
0010
0100
1001
0000
0100
0010
,  // measure 70
1002
0000
0000
0000
1000
1000
1003
0000
,  // measure 71
2200
0000
0000
0000
,  // measure 72
0000
0000
0000
0000
,  // measure 73
3300
0000
0000
0000
;

//---------------dance-single - ----------------
#NOTES:
     dance-single:
     :
     Challenge:
     16:
     0.884,1.000,0.181,0.112,1.000: // measure 1
1010
0000
1000
0000
0100
0000
0010
0000
0001
0000
1000
0010
0000
1000
0001
0100
,  // measure 2
0001
0000
1000
0000
0100
0010
0100
0010
0001
0000
0100
0000
0010
0100
0010
0100
,  // measure 3
0001
1000
0001
0000
1000
0100
1000
0000
0001
0010
0001
0010
0100
1000
0100
1000
,  // measure 4
0002
0000
0000
0100
0100
0000
0103
0000
,  // measure 5
0001
0000
1000
0100
0000
1000
0100
0000
0010
0000
0001
0100
0000
0001
0100
0000
,  // measure 6
0001
0000
0100
0010
0000
0100
0010
0000
1000
0000
0100
0010
0000
0100
0010
0000
,  // measure 7
0001
0000
1000
0100
0000
1000
0100
0000
0010
0000
0001
0100
0000
0001
0100
0000
,  // measure 8
0010
0000
0000
0000
0000
0000
0010
0000
0000
0010
0000
0000
0100
0000
0001
0000
0010
0000
0200
0000
0000
0000
0000
0000
,  // measure 9
1300
0000
0001
0010
0000
0100
0010
0000
0001
0000
0100
0010
0000
1000
0100
0000
,  // measure 10
0010
0000
0001
0100
0000
0001
1000
0000
0100
0000
0010
0001
0000
1000
0010
0100
,  // measure 11
0010
0000
1000
0001
0000
0010
0001
0000
1000
0000
0010
1000
0000
0100
0010
0001
,  // measure 12
0200
0000
0010
0010
0310
1000
1001
0000
,  // measure 13
0001
0000
0010
0001
0000
0000
0001
0000
0100
0000
0010
1000
0000
0000
1000
0000
,  // measure 14
0100
0000
1000
0001
0000
0001
0010
0000
0100
0000
1000
0010
0000
0010
0100
0000
,  // measure 15
0001
1000
0001
0000
1000
0100
1000
0000
0001
0000
0100
0010
0000
0010
0100
0000
,  // measure 16
0001
1000
0001
0000
1000
0010
1000
0000
0001
0000
0010
0100
0000
0100
0010
0000
,  // measure 17
0101
0000
0001
1000
0000
0000
1000
0000
0100
0000
0010
0100
0000
0000
0100
0000
,  // measure 18
1000
0000
0001
0100
0000
0001
0100
0000
0010
0000
1000
0100
0000
1000
0100
0000
,  // measure 19
0010
0001
0010
0000
0100
0010
0100
0000
0010
0000
0001
1000
0000
1000
0001
0000
,  // measure 20
0010
0000
0100
0000
1000
0010
1000
0000
0001
0100
0001
0000
1001
0000
0000
0000
,  // measure 21
1000
0000
0010
0100
0000
0100
0001
0000
0010
0000
0100
1000
0000
1000
0001
0000
,  // measure 22
1000
0000
0001
0010
0000
0010
0100
0000
1000
0000
0100
0010
0000
0010
0001
0000
,  // measure 23
1000
0100
1000
0000
0100
1000
0001
0000
0010
0000
0100
0010
0000
0010
0001
0000
,  // measure 24
1000
0010
0100
0000
0010
0100
0010
0000
1000
0000
0010
0100
0000
0100
0001
0000
,  // measure 25
1000
0000
0010
0100
0000
0100
0001
0000
0010
0000
0100
1000
0000
1000
0001
0000
,  // measure 26
0010
0000
0100
0010
0000
0010
0001
0000
0100
0000
0010
1000
0000
1000
0001
0000
,  // measure 27
0010
0001
0010
0000
0100
1000
0010
0000
0100
0001
0100
0001
0010
0100
0010
0100
,  // measure 28
2000
3020
0230
0301
,  // measure 29
1001
0000
0000
0100
0000
0000
0010
0000
0000
0001
0000
0000
1000
0000
0001
0000
,  // measure 30
0100
0000
0000
0001
0000
0000
1000
0000
0000
0100
0000
0000
0010
0000
0001
0000
,  // measure 31
1000
0000
0000
0010
0000
0000
0100
0000
0000
0001
0000
0000
1000
0000
0100
0000
,  // measure 32
0010
0000
0000
0100
0000
0000
1000
0000
0000
0001
0000
0000
0100
0000
0010
0000
,  // measure 33
0100
0000
0000
0100
0000
0000
0001
0000
0000
0001
0000
0000
1001
0000
0000
0000
,  // measure 34
1000
0000
0000
1000
0000
0000
0100
0000
0000
0100
0000
0000
1000
0000
0010
0000
,  // measure 35
0100
0000
0000
0100
0000
0000
0001
0000
0000
0001
0000
0000
1001
0000
0000
0000
,  // measure 36
1000
0000
0000
1000
0000
0000
0100
0000
0000
0100
0000
0000
0010
0000
0001
0000
,  // measure 37
1000
0000
0000
0010
1000
0000
0010
0000
0000
1000
0001
0000
1000
0000
0000
0000
,  // measure 38
0001
0000
0000
0001
0010
0000
0001
0000
0000
0100
0010
0000
0100
0000
0000
0000
,  // measure 39
0010
0000
0000
0010
1000
0000
0010
0000
0000
1000
0001
0000
1000
0000
0000
0000
,  // measure 40
0100
0000
0000
0100
1000
0000
0010
0000
0000
0100
0001
0000
0010
0000
0100
0000
,  // measure 41
1000
0000
0010
0100
0010
0000
1000
0000
0001
0010
0001
0000
1000
0000
0100
0000
,  // measure 42
0010
0000
0100
1000
0100
0000
0010
0000
0001
0100
0001
0000
1000
0000
0010
0000
,  // measure 43
1000
0001
1000
0001
1000
0001
1000
0001
1000
0100
1000
0100
1000
0100
1000
0100
,  // measure 44
1000
0001
1000
0001
0010
0001
0010
0001
0100
0010
0100
0010
1000
0100
1000
0100
,  // measure 45
0010
0001
0000
1000
0010
0000
0100
0001
0000
1000
0100
0000
1000
0000
1000
0000
,  // measure 46
0010
0100
0000
0001
1000
0000
0020
0200
0000
0000
0000
0000
0330
0000
0000
0000
,  // measure 47
0001
0010
0100
0010
0001
0000
1000
0000
0010
1000
0100
1000
0010
0000
0100
0000
,  // measure 48
0000
0000
0001
1000
0001
0000
1000
0100
1000
0000
0010
0100
0001
0000
0100
0000
,  // measure 49
0000
0000
0010
0100
0001
0100
0010
0000
1000
0000
0100
0010
0100
0010
0001
0000
,  // measure 50
1000
0000
0001
0100
0001
0000
1000
0100
1000
0000
0001
0010
0100
1000
0001
0000
,  // measure 51
0100
0000
0010
0100
0001
0000
1000
0100
1000
0000
0001
0010
0001
0100
0010
0000
,  // measure 52
0000
0000
1000
0010
1000
0000
0001
0100
0001
0000
1000
0100
0010
0001
0200
0000
,  // measure 53
0000
0000
0000
0000
0301
1000
0100
1000
0001
1000
0100
1000
0001
1000
0100
0010
,  // measure 54
0100
0010
0001
0100
0010
0100
0001
0000
0010
0000
0100
0000
1000
0000
0001
0000
,  // measure 55
1001
0000
1000
0100
1000
0010
0100
0000
0001
0000
0010
0100
1000
0001
0100
0000
,  // measure 56
0000
0000
0001
0100
0001
0000
1000
0100
1000
0000
0100
0010
0001
0000
1000
0000
,  // measure 57
0000
0000
0010
1000
0010
1000
0001
0010
0100
0000
0010
0001
0010
0001
0200
0000
,  // measure 58
0000
0000
0000
0000
0310
1000
0001
1000
0010
1000
0001
1000
0010
0000
0100
0000
,  // measure 59
1001
0000
0001
0100
0000
0010
1000
0000
1001
0000
0001
0010
0000
0100
1000
0000
,  // measure 60
0000
0000
0001
1000
0001
0000
1000
0001
1000
0000
0100
0010
0001
0010
0100
0000
,  // measure 61
1010
0000
0000
1010
0000
0000
1010
0000
1001
0000
0000
1001
0000
0000
1002
0000
,  // measure 62
0000
0010
0013
0100
1000
0010
0110
0000
,  // measure 63
0100
0000
0001
0010
0100
1000
0010
0000
0100
0001
0100
0000
0001
0010
0100
0010
,  // measure 64
0001
0000
1000
0000
0010
1000
0100
0000
0010
0000
0001
0000
1000
0001
1000
0001
,  // measure 65
0010
0000
0100
1000
0010
1000
0100
0000
0010
0001
0100
0000
0001
1000
0010
1000
,  // measure 66
0001
0000
0010
0100
1000
0100
0010
0000
0001
1000
0010
0100
0010
0100
0010
0000
,  // measure 67
1001
0000
1000
0100
1000
0001
0100
0001
1000
0100
1000
0000
0001
0100
0010
0100
,  // measure 68
0001
0000
0010
0100
1000
0010
0100
0000
0010
0000
1000
0000
0001
0010
0100
0010
,  // measure 69
0001
0000
0100
0001
1000
0100
1000
0001
0100
0000
0010
1000
0100
0010
0001
1000
,  // measure 70
0100
0100
1000
1000
0010
0101
0101
0000
,  // measure 71
2002
0000
0000
0000
,  // measure 72
0000
0000
0000
0000
,  // measure 73
3003
0000
0000
0000
;

//---------------dance-single - ----------------
#NOTES:
     dance-single:
     :
     Beginner:
     2:
     0.107,0.151,0.017,0.000,0.000:
1000
0000
0000
0000
,
0010
0000
0000
0000
,
0100
0000
0000
0000
,
0001
0000
0000
0000
,
1000
0000
0000
0000
,
0000
0000
0000
0000
,
1000
0000
0000
0000
,
0000
0000
0000
0000
,
0001
0000
0000
0000
,
0001
0000
0000
0000
,
0001
0000
0000
0000
,
0001
0000
0000
0000
,
0010
0000
0000
0000
,
0100
0000
0000
0000
,
0010
0000
0000
0000
,
0000
0000
0000
0000
,
0100
0000
0000
0000
,
1000
0000
0000
0000
,
0100
0000
0000
0000
,
0000
0000
0000
0000
,
0010
0000
0100
0000
,
0010
0000
0100
0000
,
0010
0000
0000
0000
,
0001
0000
0000
0000
,
0100
0000
0001
0000
,
0100
0000
0001
0000
,
0100
0000
0000
0000
,
0010
0000
0000
0000
,
1000
0000
0000
0000
,
1000
0000
0000
0000
,
0001
0000
0000
0000
,
0001
0000
0000
0000
,
1000
0000
0000
0000
,
0100
0000
0000
0000
,
0010
0000
0000
0000
,
0001
0000
0000
0000
,
1000
0000
0000
0000
,
1000
0000
0000
0000
,
0010
0000
0000
0000
,
0010
0000
0000
0000
,
0100
0000
0001
0000
,
0100
0000
0001
0000
,
0100
0000
0000
0000
,
0100
0000
0000
0000
,
1001
0000
0000
0000
,
0000
0000
0000
0000
,
0001
0000
0010
0000
,
0001
0000
0010
0000
,
0001
0000
1000
0000
,
0001
0000
0000
0000
,
1000
0000
0100
0000
,
1000
0000
0100
0000
,
1000
0000
0001
0000
,
1000
0000
0000
0000
,
0010
0000
0100
0000
,
0010
0000
0100
0000
,
0001
0000
0100
0000
,
0001
0000
0000
0000
,
0100
0000
0010
0000
,
0100
0000
0010
0000
,
1000
0000
0000
0000
,
0010
0000
0000
0000
,
0100
0000
0000
0000
,
0001
0000
0000
0000
,
1000
0000
0000
0000
,
0100
0000
0000
0000
,
0010
0000
0001
0000
,
0010
0000
0000
0000
,
0001
0000
1000
0000
,
0001
0000
0000
0000
,
1001
0000
0000
0000
;
