#TITLE:fixed mind;
#SUBTITLE:;
#ARTIST:喜緑江美里(C.V.白鳥由里);
#TITLETRANSLIT:;
#SUBTITLETRANSLIT:;
#ARTISTTRANSLIT:KIMIDORI EMIRI (C.V. YURI SHIRATORI);
#CREDIT:DigiMindAxel;
#BANNER:fixed mind.png;
#BACKGROUND:fixed mind-bg.png;
#LYRICSPATH:fixed mind.lrc;
#CDTITLE:DigiMindAxel original simfile.png;
#MUSIC:fixed mind.ogg;
#METERTYPE:DDR X;
#OFFSET:-9.198;
#SAMPLESTART:58.340;
#SAMPLELENGTH:12.000;
#SELECTABLE:YES;
#BPMS:0.000=125.000;
#STOPS:;
#BGCHANGES:;

//---------------dance-single - ----------------
#NOTES:
     dance-single:
     :
     Beginner:
     3:
     0.131,0.211,0.049,0.000,0.000:
1000
0000
0000
0000
,
0001
0000
0000
0000
,
1000
0000
0000
0000
,
0010
0000
0000
0000
,
0100
0000
0000
0000
,
0010
0000
0000
0000
,
0100
0000
0000
0000
,
0001
0000
0000
0000
,
1001
0000
0000
0000
,
0010
0000
0000
0000
,
0100
0000
0010
0000
,
0100
0000
0001
0000
,
1000
0000
0001
0000
,
1000
0000
0010
0000
,
0100
0000
0010
0000
,
0100
0000
0010
0000
,
1001
0000
0010
0000
,
0100
0000
1000
0000
,
0100
0000
0010
0000
,
0001
0000
1000
0000
,
0001
0000
0000
0000
,
0010
0000
0000
0000
,
0100
0000
0000
0000
,
1000
0000
0000
0100
,
0100
0000
0000
0010
,
0010
0000
0000
0000
,
1001
0000
1000
0000
,
0001
0000
0010
0000
,
0100
0000
0010
0000
,
0100
0010
0100
0001
,
1000
0000
0001
0000
,
1000
0000
0010
0000
,
0100
0000
0001
0000
,
0010
0000
0100
0000
,
0010
0000
0100
0000
,
1000
0000
0001
0000
,
1000
0000
0000
0000
,
0010
0100
0001
1000
,
0001
0000
0000
0000
,
1000
0000
0000
0000
,
0100
0000
0000
0000
,
0010
0000
0010
0000
,
0110
0000
0000
0000
,
0100
0000
0000
0000
,
0001
0000
0000
0000
,
0010
0000
0010
0000
,
1001
0000
0100
0010
,
0100
0001
1000
0000
,
0010
0100
0010
0100
,
0001
0010
0001
0000
,
1001
0000
1000
0010
,
1000
0001
0010
0000
,
0100
0010
0100
0010
,
0001
1000
0010
0000
,
1000
0000
0000
0000
,
1000
0000
0000
0000
,
0001
0000
0000
0000
,
0001
0000
0000
0000
;

//---------------dance-single - ----------------
#NOTES:
     dance-single:
     :
     Medium:
     8:
     0.327,0.353,0.156,0.173,0.000:
0200
0000
1000
0000
,
0320
0000
0001
0000
,
0230
0000
1000
0000
,
1300
0000
1000
0001
0000
0001
0000
0000
,
0200
0000
0001
0000
,
0320
0000
1000
0000
,
0230
0000
0001
0000
,
0301
1000
0100
0010
0002
0000
0003
0000
,
0110
0100
0100
0010
,
0010
1000
1000
0010
,
0010
0100
0100
0001
,
0001
1000
1000
0010
,
1001
0100
0100
0100
,
0110
0010
0100
1000
,
0100
0010
0100
0010
,
0010
0001
1000
0001
,
0020
0100
0130
1000
,
0200
1000
1300
0001
,
2000
0001
3001
0010
,
0002
0010
0013
0100
,
0110
1000
1001
0100
,
1100
0100
0110
0001
,
0020
0000
0130
0100
,
0200
0000
0000
1300
,
0002
0000
0000
1003
,
0002
0000
0003
1001
,
1000
0100
0010
0100
1000
0001
0010
0100
,
0000
0000
0000
0010
0100
1000
0001
0010
,
0100
0010
0100
1000
,
0100
1000
0001
1000
0000
0001
0000
0010
,
0100
0010
0100
1000
0000
0000
0000
0000
,
0001
0010
0100
0010
0000
0100
1000
0100
,
1000
0000
0000
0100
0000
1000
0000
0001
,
0010
0100
1000
0100
0000
0010
0100
0010
,
0001
0010
0100
0010
0100
1000
0001
1000
,
0000
0000
0000
0100
0000
1000
0001
0100
,
0010
0000
0110
0000
1000
0001
1000
0000
,
1100
0000
0100
0010
0000
0001
0000
0010
,
0200
0000
0000
0000
0310
0000
0001
1000
,
0001
1000
0100
0010
0100
0000
1000
0000
,
0100
1000
0100
1000
0001
0000
0100
0000
,
0110
0000
0011
0000
0100
1000
0100
0010
,
0200
0000
0000
0310
0000
0000
0000
0000
,
0020
0000
0000
0031
0000
0000
0000
0000
,
0002
0000
0000
1003
0000
0000
0000
0000
,
0110
0000
1001
0000
0010
0100
0010
0100
,
1001
0000
0001
0010
0100
0000
1000
0010
,
0000
0100
0000
0001
1000
0100
1000
0000
,
0001
0000
0010
0000
0010
0100
1000
0010
,
0100
0000
0000
0101
0000
0001
0100
0000
,
1001
0000
0011
0000
1100
0000
0100
1000
,
0001
1000
0100
0010
0000
0001
0000
0000
,
1000
0000
1000
0000
0010
0100
0010
0000
,
0100
0001
0100
0001
1000
0100
1000
0000
,
0020
0000
0000
0030
,
0100
0100
0100
0000
0000
0000
0000
0000
,
0002
0000
0000
0003
,
0010
0010
0010
0000
0000
0000
0000
0000
;

//---------------dance-single - ----------------
#NOTES:
     dance-single:
     :
     Hard:
     9:
     0.439,0.429,0.173,0.313,0.016: // measure 1
1000
0100
0010
0002
0000
0003
0000
0000
,  // measure 2
0100
0100
0200
0000
0000
0310
0000
0000
,  // measure 3
1000
0100
0010
0002
0000
0003
0000
0000
,  // measure 4
1000
0000
0010
0100
0001
0100
0010
0000
,  // measure 5
1000
0010
0100
0002
0000
0003
0000
0000
,  // measure 6
0010
0010
0020
0000
0000
0130
0000
0000
,  // measure 7
1000
0010
0100
0002
0000
0003
0000
0000
,  // measure 8
0010
0100
1000
0001
0100
0010
1000
0001
,  // measure 9
2000
0000
3100
1000
0100
0010
0001
0100
,  // measure 10
0010
0000
0010
1000
0100
0010
0001
1000
,  // measure 11
0001
0000
0000
0200
0000
0320
0000
0230
,  // measure 12
0001
0000
0301
0010
0100
1000
0010
0000
,  // measure 13
1002
0000
0103
0010
0100
0001
0010
0100
,  // measure 14
1000
0000
0100
0000
0100
1000
0100
0010
,  // measure 15
0001
1000
0010
2000
0000
3000
0010
0200
,  // measure 16
0001
0000
0301
1000
0100
0010
0100
1000
,  // measure 17
1002
0000
0100
0000
1003
0001
0010
0100
,  // measure 18
2000
0000
0010
0000
3010
0100
0001
0010
,  // measure 19
0100
0000
1000
0010
0100
0002
0000
1003
,  // measure 20
0100
0010
0100
1000
0001
0000
0100
0000
,  // measure 21
1020
0000
0130
0000
0201
0000
0310
1000
,  // measure 22
0100
0010
0001
1000
0020
0000
0230
0000
,  // measure 23
0302
0000
0000
1000
1003
0000
0010
0000
,  // measure 24
0200
0000
0000
0000
0310
0000
1000
0100
,  // measure 25
0020
0000
0000
0000
0130
0000
1000
0100
,  // measure 26
0020
0000
0030
0110
,  // measure 27
0010
1000
0010
1000
0100
0010
0100
1000
,  // measure 28
0001
0000
1000
0001
0100
1000
0100
0001
,  // measure 29
1000
0000
2002
0000
0000
0000
3003
0001
,  // measure 30
1000
0000
0000
0000
0100
0000
0010
0000
0001
0000
0100
0000
0000
0000
0010
0100
,  // measure 31
0010
1000
0100
0010
0000
0000
0001
0100
,  // measure 32
0001
0010
0100
1000
0000
0100
0001
0100
,  // measure 33
2000
0000
0000
3001
0000
0001
0000
0001
,  // measure 34
0100
0000
0001
0000
0010
0000
0000
0100
1000
0000
0010
0000
0100
0000
0001
0000
,  // measure 35
1000
0100
0010
0100
1000
0010
0100
0010
,  // measure 36
1000
0000
0001
1000
0100
0001
0100
1000
,  // measure 37
0010
0000
2002
0000
0000
0000
3003
0001
,  // measure 38
1000
0000
0100
0010
0001
0100
0000
0010
,  // measure 39
2000
0000
0000
0000
3001
1000
0100
0001
,  // measure 40
0100
1000
0001
0010
0100
1000
1000
0000
,  // measure 41
0001
0100
1000
0100
0010
0000
1000
0000
,  // measure 42
1001
0000
0000
0000
0110
0000
0000
0001
1000
0000
0100
0000
0010
0000
0001
0000
,  // measure 43
1000
0010
0100
0002
0000
1003
0000
0000
,  // measure 44
0001
0010
0100
1000
0000
0000
0000
0010
,  // measure 45
0200
0000
0000
0302
0000
0000
0003
0000
,  // measure 46
1001
0000
0110
0000
1001
0100
0010
0001
,  // measure 47
1001
0000
0101
0000
1010
0000
1000
0100
,  // measure 48
0001
0100
1000
0001
0010
0100
1000
0000
,  // measure 49
0010
0000
0110
0000
0001
0010
1000
0010
,  // measure 50
0001
0000
0100
0001
0000
0010
0100
0100
,  // measure 51
0010
0000
0101
0000
1001
0000
0001
0010
,  // measure 52
1000
0010
0001
1000
0100
0010
0010
0000
,  // measure 53
0100
1100
1001
0011
,  // measure 54
0001
0000
0100
0000
0100
0000
0000
0001
1000
0000
0010
0000
0001
0000
0010
0000
,  // measure 55
2000
0000
0000
3000
,  // measure 56
0100
0100
0200
0000
1000
0000
1300
0000
,  // measure 57
0020
0000
0000
0000
0000
0000
0030
0100
,  // measure 58
0001
0001
0002
2000
0000
0000
0000
3003
;

//---------------dance-single - ----------------
#NOTES:
     dance-single:
     :
     Easy:
     5:
     0.233,0.280,0.189,0.156,0.000:
0002
0000
0000
0000
,
2003
0000
0000
0000
,
3002
0000
0000
0000
,
0103
0010
0100
0000
,
0020
0000
0000
0000
,
0230
0000
0000
0000
,
0320
0000
0000
0000
,
1030
0000
0000
0000
,
1001
0001
0001
1000
,
1000
0100
0100
1000
,
1000
0001
0001
0100
,
0100
0000
0000
0000
,
0110
0001
0001
0001
,
1001
1000
0001
0010
,
0001
1000
0001
1000
,
0001
0000
0000
0000
,
2001
0000
3001
0001
,
0002
0000
0103
0010
,
0200
0000
0310
0010
,
0020
0000
1030
0001
,
1001
0000
0110
0000
,
1001
0000
0110
0000
,
2001
0000
3001
0001
,
0002
0000
0000
0103
,
0020
0000
0000
0130
,
0100
0000
0000
0110
,
1001
1000
0100
1000
,
0001
0000
0010
0100
,
1000
1000
0001
0000
,
0010
0100
0010
0100
,
1001
0000
0000
1000
,
0010
0100
0001
0100
,
0100
0000
0001
0100
,
0001
1001
1000
0001
,
0010
0001
0010
0100
,
1000
0001
0100
0010
,
1000
1001
0000
0000
,
1001
0001
0100
0001
,
2000
0000
3100
0010
,
0001
1000
0001
0000
,
1001
0001
1000
0001
,
1001
1001
0010
0100
,
0002
0000
0000
0003
0000
0000
0000
0000
,
2000
0000
0000
3000
0000
0000
0000
0000
,
0020
0000
0000
0030
0000
0000
0000
0000
,
1001
0110
1000
1000
,
0100
0010
0001
1000
,
0001
1000
0001
0100
,
0010
0100
0010
1000
,
0001
1000
0001
0000
,
1001
1000
0001
0010
,
0100
0010
1001
0110
,
0100
0100
1000
0001
,
0010
0001
0010
0100
,
2000
0000
0000
3000
,
0000
0000
0000
0000
,
0002
0000
0000
0003
;
