#TITLE:@you;
#SUBTITLE:;
#ARTIST:good-cool feat.PON;
#TITLETRANSLIT:;
#SUBTITLETRANSLIT:;
#ARTISTTRANSLIT:;
#CREDIT:DigiMindAxel;
#BANNER:at you.png;
#BACKGROUND:at you-bg.png;
#LYRICSPATH:at you.lrc;
#CDTITLE:pop'n music.png;
#MUSIC:at you.ogg;
#METERTYPE:DDR X;
#OFFSET:-3.716;
#SAMPLESTART:64.049;
#SAMPLELENGTH:12.000;
#SELECTABLE:YES;
#BPMS:0.000=147.000;
#STOPS:;
#BGCHANGES:;

//---------------dance-single - ----------------
#NOTES:
     dance-single:
     :
     Easy:
     5:
     0.242,0.278,0.283,0.116,0.004:
2002
0000
3003
0000
,
2002
0000
3003
0000
,
0220
0000
0330
0000
,
0220
0000
0000
0330
,
0001
0000
0100
0000
,
0001
0000
1000
0000
,
0100
0000
0010
0000
,
0002
0000
0100
0000
,
0103
0000
0010
0000
,
0100
0000
0001
0000
,
1001
0000
1001
0000
,
0110
0000
0110
0000
,
1001
0000
0001
0000
,
1000
0100
1000
0000
,
1001
0000
0001
0000
,
1000
0010
1000
0000
,
1001
0000
0001
0000
,
0010
0000
0100
0000
,
0010
0000
0001
0000
,
0200
0000
0010
0000
,
0310
0000
1000
0000
,
0100
0000
0010
0000
,
1001
0000
1001
0000
,
0110
0000
0110
0000
,
1001
0000
1000
0000
,
0001
0010
0001
0000
,
1001
0000
1000
0000
,
0001
0100
0001
0100
,
0002
0000
0000
0000
,
1003
0100
0010
0000
,
0001
0000
0100
0000
,
0010
0100
0001
0000
,
2000
0000
0000
0000
,
3001
0010
0100
0000
,
1000
0000
0010
0000
,
0100
0100
0100
0000
,
0010
0010
0010
0000
,
1001
0000
1001
0000
,
0001
0010
0100
1000
,
1001
0000
1001
0000
,
1000
0100
0010
0001
,
1001
0000
1001
0000
,
1000
0010
0100
0001
,
1001
0000
0000
1001
,
0000
0000
0000
1001
,
0001
0001
0001
0010
,
0100
1000
0010
0000
,
0100
0100
0100
0001
,
0010
0100
0010
0000
,
0001
0001
0001
0100
,
0010
1000
0010
0000
,
1001
0000
0000
1001
,
0000
0000
0000
0000
,
0110
0000
0000
0110
,
0000
0000
0000
2002
,
0000
3003
0000
0000
,
0000
0000
0000
0000
,
1001
0000
0000
0000
,
1001
0001
1000
1000
,
0001
0010
0100
0000
,
0010
0001
0010
0000
,
0001
0010
0100
0000
,
1000
0010
1000
0010
,
0100
0100
0100
0000
,
0001
1000
0100
0000
,
0010
0010
0010
0000
,
0001
0000
0000
0000
0100
0000
0000
0000
0010
0000
0000
0000
0000
0000
0000
1001
;

//---------------dance-single - ----------------
#NOTES:
     dance-single:
     :
     Medium:
     10:
     0.476,0.473,0.466,0.042,0.083: // measure 1
1100
0000
0000
0000
0100
0000
0000
0000
0100
0000
0000
0100
0000
0000
0000
0000
,  // measure 2
0010
0000
0000
0000
0010
0000
0000
0000
0010
0000
0000
0010
0000
0000
0000
0000
,  // measure 3
0001
0000
0000
0000
0001
0000
0000
0000
0001
0000
0000
0001
0000
0000
0000
0000
,  // measure 4
0100
0020
0000
0000
0000
0000
0000
0000
,  // measure 5
0130
0000
0001
1000
0001
0000
1000
0000
,  // measure 6
0100
1000
0100
0000
0010
0001
1000
0001
,  // measure 7
1000
0100
1000
0000
0010
0100
0010
0000
,  // measure 8
1000
0000
0000
0000
0100
0000
0000
0000
0010
0000
0000
0000
0001
0000
0000
1000
,  // measure 9
0000
0100
1000
0000
0100
1000
0010
0000
,  // measure 10
0100
0010
0100
0000
0010
1000
0010
1000
,  // measure 11
1001
1001
0011
0011
,  // measure 12
1100
1100
1001
1001
,  // measure 13
0001
0000
0100
0000
0001
0000
0100
0000
0010
0000
0000
0010
0000
0000
0000
0000
,  // measure 14
1000
0000
0100
0000
1000
0000
0100
0000
0010
0000
0000
0010
0000
0000
0000
0000
,  // measure 15
0001
0000
1000
0000
0001
0000
1000
0000
0100
0000
0000
0100
0000
0000
0000
0000
,  // measure 16
0010
0001
0010
0001
0010
0001
0010
0001
,  // measure 17
0100
0000
0010
1000
0010
1000
0001
0000
,  // measure 18
0010
0000
0100
0000
1000
0001
1000
0001
,  // measure 19
0010
0000
0100
0010
0100
0010
0001
0000
,  // measure 20
1000
0000
0000
0000
0100
0000
0000
0000
0010
0000
0000
0000
0001
0000
0000
1000
,  // measure 21
0000
0100
1000
0100
1000
0000
0010
0000
,  // measure 22
0100
0001
0100
0001
0010
0000
0100
0000
,  // measure 23
1100
1100
1001
1001
,  // measure 24
0011
0011
1001
0110
,  // measure 25
1000
0000
0010
0000
1000
0000
0010
0000
0100
0000
0000
0100
0000
0000
0000
0000
,  // measure 26
0001
0000
1000
0000
0001
0000
1000
0000
0100
0000
0000
0100
0000
0000
0000
0000
,  // measure 27
0010
0000
0001
0000
0010
0000
0001
0000
0100
0000
0000
0100
0000
0000
0000
0000
,  // measure 28
0010
0100
0010
0100
0010
0100
0010
0100
,  // measure 29
0020
0000
0000
0130
,  // measure 30
0001
0010
0100
0000
1000
0000
1100
0000
,  // measure 31
0010
0001
1000
0000
0010
0000
1010
0000
,  // measure 32
0100
0001
0100
0001
1000
0100
1000
0000
,  // measure 33
0200
0000
0000
0310
,  // measure 34
0001
0100
0010
0000
0100
0000
0101
0000
,  // measure 35
1001
0000
0000
0000
1000
0000
0000
0100
0000
0000
1000
0000
0000
0000
0000
0000
,  // measure 36
0001
0100
0001
0100
0001
0100
0000
0000
,  // measure 37
0001
1000
0001
1000
0001
1000
0000
0000
,  // measure 38
1100
0000
1100
0000
1001
0000
0000
0001
,  // measure 39
0010
0001
1000
0010
0100
0001
1000
0000
,  // measure 40
1001
0000
1001
0000
0011
0000
0000
0100
,  // measure 41
1000
0010
0100
0001
0010
0100
1000
0000
,  // measure 42
1001
0000
1001
0000
0101
0000
0000
0010
,  // measure 43
1000
0001
0010
0100
0010
0001
0100
0000
,  // measure 44
0110
0000
0000
0110
0000
0000
0110
0000
,  // measure 45
0000
1001
0000
0000
0000
1001
0000
0001
,  // measure 46
0010
0100
0010
0100
1000
0000
0010
1000
,  // measure 47
0001
1000
0010
1000
0001
0000
0000
0000
,  // measure 48
0010
0001
0010
0001
0100
0010
0000
1001
,  // measure 49
0000
1000
0100
1000
0001
0100
0001
0000
,  // measure 50
1001
0000
1001
0000
1010
0000
0100
0001
,  // measure 51
0100
0001
1000
0100
0010
0001
0000
0000
,  // measure 52
0110
0000
0000
0110
0000
0000
0110
0000
,  // measure 53
0000
0110
0000
0000
1000
0000
1000
0000
,  // measure 54
1001
0000
0000
1001
0000
0000
1001
0000
,  // measure 55
0000
1001
0000
0000
0001
0000
0220
0000
,  // measure 56
0000
0330
0000
0000
,  // measure 57
0000
1000
1000
0100
,  // measure 58
0011
0000
0000
1100
0000
0000
0011
0000
,  // measure 59
1001
1001
0110
0110
,  // measure 60
1000
0000
0010
0000
1000
0000
0010
0000
0100
0000
0000
0100
0000
0000
0000
0000
,  // measure 61
0001
0000
1000
0000
0001
0000
1000
0000
0100
0000
0000
0100
0000
0000
0000
0000
,  // measure 62
0010
0000
0001
0000
0010
0000
0001
0000
0100
0000
0000
0100
0000
0000
0000
0000
,  // measure 63
0010
0000
0100
0000
0010
0000
0100
0000
0001
0000
0000
0001
0000
0000
0000
0000
,  // measure 64
0010
0000
0001
0000
0010
0000
0001
0000
1000
0000
0000
1000
0000
0000
0000
0000
,  // measure 65
0100
0000
0010
0000
0100
0000
0010
0000
0001
0000
0000
0001
0000
0000
0000
0000
,  // measure 66
0100
0000
0001
0000
0100
0000
0001
0000
1000
0000
0000
1000
0000
0000
0000
0000
,  // measure 67
0100
0000
0010
0000
0001
0000
1000
0000
0100
0000
0010
0000
0001
0000
0000
0101
;

//---------------dance-single - ----------------
#NOTES:
     dance-single:
     :
     Hard:
     13:
     0.689,0.640,0.723,0.200,0.274:
0101
0000
0000
0000
0101
0000
0000
0000
1001
0000
0000
1001
0000
0000
0000
0000
,
1100
0000
0000
0000
1100
0000
0000
0000
1001
0000
0000
1001
0000
0000
0000
0000
,
0011
0000
0000
0000
0011
0000
0000
0000
1001
0000
0000
1001
0000
0000
1000
0000
,
0010
0010
0100
0100
0010
0010
0100
0100
,
1002
0000
0000
0000
1003
0000
0010
0000
0001
0000
0010
0000
2000
0000
0000
3001
,
0000
1000
0001
0010
1000
0010
0001
0010
,
0100
1000
0010
0001
0010
1000
0001
0000
,
0200
0000
0000
0000
0302
0000
0000
0000
2003
0000
0000
0000
3010
0000
0000
0110
,
0000
0100
0001
0010
1000
0010
0002
0000
,
0013
0100
1000
0010
0001
0010
1000
0100
,
1100
0110
0011
0110
,
1100
0101
0110
1010
,
0010
0000
1000
0000
0100
0000
0010
0000
0001
0100
0000
0100
0000
0001
1000
0000
,
0001
0000
0100
0000
1000
0000
0100
0000
0001
1000
0000
1000
0000
0010
0100
0000
,
0001
0000
0010
0000
0100
0000
1000
0000
0001
0100
0000
0100
0000
0001
1000
0000
,
0010
0010
0100
0100
0010
0010
0100
0100
,
2001
0000
3001
1000
0100
0001
0100
1100
,
0000
0010
0001
0100
1000
0100
0001
0010
,
0100
1000
0010
0001
0010
1000
0001
0000
,
2001
0000
0000
0000
3020
0000
0000
0000
0230
0000
0000
0000
0301
0000
0000
1001
,
0000
1000
0001
0100
1000
0100
0001
1001
,
0000
1000
0100
0001
0100
1000
0010
0100
,
0101
0110
1010
0101
,
0110
1100
0110
0011
,
0001
0000
0100
0000
0010
0000
1000
0000
0001
0010
0000
0010
0000
0001
1000
0000
,
0001
0000
0010
0000
1000
0000
0010
0000
0001
1000
0000
1000
0000
0010
1000
0000
,
0001
0000
0100
0000
0010
0000
1000
0000
0001
0010
0000
0010
0000
0001
1000
0000
,
0100
0100
0010
0010
0100
0100
0010
0010
,
0001
0100
0010
0001
0010
0100
1001
0000
,
1000
0001
1000
0001
0010
0000
0100
0000
1000
0000
0001
0000
0100
0000
0000
0000
,
0001
0000
0100
0000
0010
0000
0000
1010
0000
0000
0000
0000
1001
0000
0000
0000
,
0001
0001
0100
0100
0010
0010
1000
1000
,
0001
0100
0010
0001
0010
0100
1001
0000
,
0001
1000
0001
1000
0010
0000
0100
0000
0001
0000
1000
0000
0100
0000
0000
0000
,
1100
0000
0000
0000
1100
0000
0000
1001
0000
0000
0011
0000
0000
0000
0000
0000
,
0001
0001
1000
1000
0010
0110
0000
1001
,
0001
0001
1000
1000
0001
0101
0000
0110
,
1010
0000
1000
0000
0001
0000
0010
0000
1100
0000
0000
1100
0000
0000
1000
0000
,
0100
1000
0010
0001
0010
1000
0001
0000
,
0010
0000
0100
0000
1000
0000
0010
0000
0101
0000
0000
0101
0000
0000
1001
0000
,
1000
0001
0100
1000
0001
0010
1000
0000
,
1001
0000
0001
0000
0100
0000
0010
0000
1010
0000
0000
1010
0000
0000
1001
0000
,
0001
0000
0010
0000
1000
0000
0010
0000
0001
0000
1000
0001
1000
0001
1000
0000
,
1002
0000
0010
0023
0000
0100
0230
0000
,
1000
2300
0000
0010
3010
1001
0000
1010
,
1000
0000
0010
0000
0100
0000
0001
0000
0101
0000
0000
0110
0000
0000
0010
0000
,
1000
0100
0001
0100
1000
0001
1000
0000
,
0001
0000
0010
0000
1000
0000
0010
0000
0011
0000
0000
0011
0000
0000
1001
0000
,
1000
0001
0100
1000
0001
0010
1000
0000
,
1001
1000
0001
0010
1000
0010
0001
1001
,
1000
0000
0100
0000
0010
0000
0001
0000
1000
0000
0100
0010
0100
0010
0100
0000
,
2001
0000
0010
3020
0000
0100
0230
0000
,
0001
0302
0000
0000
1003
0010
0010
0100
,
0102
0000
1000
2003
0000
0100
3200
0000
,
0010
0320
0000
0001
0031
0000
1001
0000
,
0000
0000
1000
0100
0010
0001
1000
0010
,
0100
0000
0010
0000
1000
0001
0000
1000
0001
1000
0000
0001
1000
0000
0000
0000
,
1200
0000
0010
0320
0000
0001
0031
0000
,
1001
1010
0101
1001
,
1000
0000
1000
0000
0010
0000
0010
0000
0100
0000
0000
0101
0000
0001
0100
0001
,
1000
0000
1000
0000
0100
0000
0100
0000
0010
0000
0000
0011
0000
0000
1001
0000
,
0001
0000
0100
0000
0001
1000
0100
1000
0001
0000
0000
1001
0000
0000
1000
0000
,
0100
1000
0100
0000
0010
0100
0010
0000
0011
0000
0000
0011
0000
0000
0001
0000
,
1001
0000
1000
0000
0010
0000
0010
0000
0100
0000
0000
0101
0000
0001
0100
0001
,
1000
0000
1000
0000
0100
0000
0100
0000
0010
0000
0000
0011
0000
0000
1001
0000
,
0001
0000
0100
0000
0010
1000
0100
1000
0010
0000
0000
1010
0000
0000
1000
0000
,
0001
0010
0001
0000
0010
0100
0010
0000
0100
1000
0100
1000
0100
0010
0000
0101
;

//---------------dance-single - ----------------
#NOTES:
     dance-single:
     :
     Beginner:
     3:
     0.112,0.166,0.058,0.000,0.000:
0000
0000
0000
0000
,
0000
0000
0000
0000
,
0000
0000
0000
0000
,
0000
0000
0000
0000
,
0001
0000
0010
0000
,
0001
0000
0010
0000
,
0001
0000
0010
0000
,
0001
0000
0000
0000
,
1000
0000
0001
0000
,
1000
0000
0001
0000
,
1000
0000
1000
0000
,
1000
0000
0000
0000
,
1001
0000
0000
0000
,
0001
0000
0000
0000
,
1001
0000
0000
0000
,
1000
0000
1000
0000
,
1001
0000
0001
0000
,
0100
0000
0001
0000
,
0100
0000
0001
0000
,
0100
0000
0000
0000
,
0010
0000
1000
0000
,
0010
0000
1000
0000
,
0001
0000
0000
0000
,
0001
0000
0000
0000
,
1001
0000
0000
0000
,
1000
0000
0000
0000
,
1001
0000
0000
0000
,
0001
0000
0000
0000
,
0010
0000
0000
0000
,
0100
0000
0000
0000
,
1000
0000
0000
0000
,
0001
0000
0000
0000
,
0010
0000
0000
0000
,
0100
0000
0000
0000
,
1000
0000
0001
0000
,
1000
0000
0000
0000
,
1000
0000
0000
0000
,
1001
0000
0000
0000
,
0001
0000
1000
0000
,
0001
0000
0000
0000
,
1000
0000
0100
0000
,
1000
0000
0000
0000
,
0001
0000
0010
0000
,
0001
0000
0000
0000
,
0000
0000
0100
0000
,
0010
0000
1000
0000
,
0010
0000
0000
0000
,
1000
0000
0001
0000
,
1000
0000
0000
0000
,
0100
0000
1000
0000
,
0100
0000
1000
0000
,
0010
0000
0000
0000
,
0000
0000
0100
0000
,
0001
0000
0000
0000
,
0000
0000
0000
1001
,
0000
0000
0000
0000
,
0000
0000
0000
0000
,
1000
0000
0000
0000
,
0100
0000
0100
0000
,
1000
0000
0000
0000
,
0010
0000
0000
0000
,
0100
0000
0000
0000
,
0001
0000
1000
0000
,
0001
0000
0001
0000
,
0010
0000
0010
0000
,
0001
0000
0001
0000
,
1000
0000
1000
0000
;
