#TITLE:Wuv U;
#SUBTITLE:;
#ARTIST:kors k;
#TITLETRANSLIT:;
#SUBTITLETRANSLIT:;
#ARTISTTRANSLIT:;
#CREDIT:DigiMindAxel;
#BANNER:Wuv U.png;
#BACKGROUND:Wuv U-bg.png;
#LYRICSPATH:;
#CDTITLE:REFLEC BEAT.png;
#MUSIC:Wuv U.ogg;
#METERTYPE:DDR X;
#OFFSET:-1.231;
#SAMPLESTART:11.982;
#SAMPLELENGTH:12.000;
#SELECTABLE:YES;
#BPMS:0.000=173.000,122.000=86.500,154.000=173.000;
#STOPS:27.000=1.0404624
,108.000=0.1734104
,109.000=0.1734104
,110.000=0.1734104
,111.000=0.1734104
;
#BGCHANGES:-8.500=Wuv U.avi=1.000=1=1=0,
99999=-nosongbg-=1.000=0=0=0 // don't automatically add -songbackground-
;

//---------------dance-single - ----------------
#NOTES:
     dance-single:
     :
     Challenge:
     13:
     0.616,0.830,0.371,0.083,0.299: // measure 1
0000
0000
0000
0000
,  // measure 2
0000
0000
0000
0000
,  // measure 3
0000
0000
0000
0000
,  // measure 4
0000
0000
0000
0000
,  // measure 5
2000
0000
0000
0001
3000
0001
1000
0100
,  // measure 6
0010
0000
0000
0001
0100
0001
1000
0000
,  // measure 7
0002
0000
0000
1000
0000
1003
0001
0000
,  // measure 8
1001
0000
0001
0100
1000
0000
0100
0001
,  // measure 9
0000
0000
1000
0100
1000
0000
0001
0000
0100
0000
0000
0000
1001
0000
0000
0000
,  // measure 10
0001
0000
0100
0001
0100
0000
0001
0000
2000
0000
0000
0000
3010
0000
0100
0000
,  // measure 11
0000
0000
0001
1000
0001
0000
0010
0000
0100
0000
1000
0000
0001
0000
0000
0000
,  // measure 12
1001
0000
1000
0100
0001
0000
0100
1000
,  // measure 13
0000
0000
0001
0100
0001
0000
1000
0000
0100
0000
0000
0000
1001
0000
0000
0000
,  // measure 14
1000
0010
1000
0001
0010
0100
0010
0001
,  // measure 15
0000
0000
1000
0010
1000
0000
0001
0000
0010
0000
0000
0000
1001
0000
0000
0000
,  // measure 16
0001
0000
0101
0000
1000
1000
0010
0010
,  // measure 17
1000
0100
0010
0001
1000
0010
0100
0001
,  // measure 18
1000
0000
1100
0000
0001
0001
0001
0000
,  // measure 19
0010
0100
1000
0001
1000
0100
0010
0001
,  // measure 20
1000
0000
1010
0000
0001
0001
0100
0100
,  // measure 21
0001
0010
0100
1000
0001
0100
0010
1000
,  // measure 22
0001
0000
0011
0000
1000
1000
1000
0001
,  // measure 23
0100
0000
0100
0000
0100
0010
0100
0000
,  // measure 24
0001
0000
1001
0000
0100
1000
0100
1000
,  // measure 25
0001
0000
0010
0000
1000
0000
0010
0000
0011
0000
0000
0000
0000
0000
0001
1000
,  // measure 26
0001
1000
0010
0100
0001
0001
0001
1000
,  // measure 27
0100
0010
0001
1000
0100
0001
0100
0000
,  // measure 28
1100
0101
0110
1100
,  // measure 29
1001
0000
1001
0001
0100
0010
0100
0001
,  // measure 30
1000
0100
0001
0100
1000
0001
0010
1000
,  // measure 31
0010
0000
0000
0000
0001
0000
0000
0000
0100
0000
0000
0000
0000
0000
0000
0000
1001
0000
0000
0000
0001
0000
0000
0001
0000
0010
0000
0000
0001
0000
0010
0000
,  // measure 32
0100
0000
0000
0000
1000
0000
0000
1000
0000
0100
0000
0000
1000
0000
0100
0000
0010
0000
0000
0000
0001
0000
0000
0001
0000
0100
0000
0000
0001
0000
0010
0000
,  // measure 33
0100
0000
0000
0000
1000
0000
0000
1000
0000
0010
0000
0000
1000
0000
0100
0000
0010
0000
0001
0000
0100
0000
0010
0000
0000
0000
1001
0000
0000
0000
1000
0000
,  // measure 34
0001
0100
0010
0100
0000
1001
0000
0001
1000
0010
0100
0010
1000
1001
0000
1000
,  // measure 35
0001
0010
0100
0010
0001
1000
0100
0010
0001
0000
0100
0001
1000
0000
0100
0001
,  // measure 36
0000
0100
1000
0001
0200
0000
0000
0000
0301
0100
1000
0100
0001
0000
0100
0010
,  // measure 37
0000
1000
0100
0010
0001
0000
0000
0000
1001
0000
0100
1000
0001
0000
1001
0000
,  // measure 38
0101
0000
0100
0001
1000
0100
0100
0000
1000
0001
0100
0100
0001
1000
0100
0010
,  // measure 39
0002
2000
0000
3003
0001
0010
0100
1000
,  // measure 40
0100
0000
0101
0000
1000
0100
0010
0001
,  // measure 41
0100
0000
1100
0000
0010
0001
0100
1000
,  // measure 42
0100
0000
0000
0000
0001
0000
1000
0000
0000
0000
0010
0100
0010
0000
1000
0000
,  // measure 43
0001
0000
1001
0000
0001
0010
0100
1000
,  // measure 44
0100
0000
0101
0000
1000
0100
0010
0001
,  // measure 45
0100
0000
1100
0000
0001
0010
0100
1000
,  // measure 46
0001
0010
0100
1000
0001
0000
0000
0000
,  // measure 47
1000
0001
1000
0001
1000
0000
0001
0000
1000
0000
0010
0000
0100
0000
1000
0000
,  // measure 48
0100
0000
0001
0000
0010
0000
0100
0000
0010
0000
0001
1000
0010
0000
1000
0000
,  // measure 49
0001
0000
0000
0000
1001
0000
0000
0000
1000
0000
0001
0100
0001
0000
1000
0010
,  // measure 50
1000
0100
0001
0100
1100
0000
0101
0000
,  // measure 51
1010
0000
1001
0000
0001
0010
0100
0001
,  // measure 52
0100
0000
1000
0000
0010
0000
0100
0000
0010
0000
1000
0100
0010
0000
0001
0000
,  // measure 53
0100
0000
1001
0000
1000
0010
0001
0010
,  // measure 54
1000
0000
0100
0000
0010
0000
0100
0000
0000
0000
1000
0001
1000
0000
0001
0000
,  // measure 55
0010
0100
1000
0000
2002
0000
0000
0000
,  // measure 56
0000
0000
3003
0000
;

//---------------dance-single - ----------------
#NOTES:
     dance-single:
     :
     Medium:
     8:
     0.394,0.487,0.248,0.134,0.000: // measure 1
0000
0000
0000
0000
,  // measure 2
0000
0000
0000
0000
,  // measure 3
0000
0000
0000
0000
,  // measure 4
0000
0000
0000
0000
,  // measure 5
1000
0100
0010
0000
,  // measure 6
0001
0010
0100
0000
,  // measure 7
1000
0010
0100
0110
,  // measure 8
1001
0000
1000
0001
1000
0000
0001
0000
,  // measure 9
0010
0000
0100
1000
0010
0000
0010
0000
,  // measure 10
1000
0100
0010
0000
0001
0000
0100
0000
,  // measure 11
0010
1000
0001
1001
,  // measure 12
1000
0000
0001
1000
0001
0000
1000
0000
,  // measure 13
0100
0000
0010
0001
0100
0000
0100
0000
,  // measure 14
0001
0010
0100
0000
1000
0001
1000
0000
,  // measure 15
1001
0000
0000
1000
,  // measure 16
1001
0000
0010
0000
0100
1000
0100
0000
,  // measure 17
1000
0001
1000
0001
1000
0001
1000
0000
,  // measure 18
0010
0000
0110
0000
0100
0010
0100
0000
,  // measure 19
0001
1001
1000
1001
,  // measure 20
1000
0000
0100
0000
0010
0001
0010
0000
,  // measure 21
0001
1000
0001
1000
0001
1000
0001
0000
,  // measure 22
0100
0000
0110
0000
0010
0100
0010
0000
,  // measure 23
2000
0000
0000
3000
,  // measure 24
0001
1001
0100
0010
,  // measure 25
0100
0010
0100
0000
1010
0000
0000
0101
,  // measure 26
0000
1001
0010
0100
,  // measure 27
0010
0100
0010
0000
0001
0100
0001
0000
,  // measure 28
1001
1000
0001
1000
,  // measure 29
0010
0110
1000
1000
,  // measure 30
0001
0000
0001
0000
0100
0010
0100
0010
,  // measure 31
1000
0001
1000
0000
1002
0000
0000
0000
,  // measure 32
2003
0000
3200
0000
,  // measure 33
0320
0000
0031
1000
,  // measure 34
0001
0010
0100
1000
,  // measure 35
0001
0000
1000
0000
0010
0100
0020
0000
,  // measure 36
1030
0001
2000
0000
3100
0010
0001
1000
,  // measure 37
0001
1000
0010
0000
0100
0001
2000
0000
,  // measure 38
3010
1000
0002
0000
1003
1000
0001
0001
,  // measure 39
2002
0000
0000
3003
1000
0000
0001
0100
,  // measure 40
0001
0000
1000
0100
0000
1000
0000
1000
,  // measure 41
0001
0000
1000
0001
,  // measure 42
1000
0010
0100
0010
,  // measure 43
1000
0000
1001
0000
0001
0000
1000
0100
,  // measure 44
1000
0000
0001
0100
0000
0001
0000
0001
,  // measure 45
1000
0000
0000
0000
0010
0100
0010
0000
,  // measure 46
1000
0001
1000
0010
0100
0000
0000
0000
,  // measure 47
0001
1000
0001
1000
0001
0100
0001
0000
,  // measure 48
0101
0000
0000
0000
1000
0100
1000
0000
,  // measure 49
1100
0000
0000
0000
0010
0100
0010
0000
,  // measure 50
1000
0001
1000
0000
0001
0000
0010
0000
,  // measure 51
0100
0000
1000
0000
0001
0010
0001
0000
,  // measure 52
0011
0000
0000
0000
1000
0010
1000
0000
,  // measure 53
1010
0000
0000
0000
1001
0000
0000
1000
,  // measure 54
0000
0000
0001
0000
0000
0100
0010
0100
,  // measure 55
0001
0001
2002
0000
,  // measure 56
0000
0000
3003
0000
;

//---------------dance-single - ----------------
#NOTES:
     dance-single:
     :
     Easy:
     5:
     0.245,0.286,0.072,0.206,0.000: // measure 1
0000
0000
0000
0000
,  // measure 2
0000
0000
0000
0000
,  // measure 3
0000
0000
0000
0000
,  // measure 4
0000
0000
0000
0000
,  // measure 5
2000
0000
0000
0000
,  // measure 6
3002
0000
0000
0000
,  // measure 7
2003
0000
3000
1001
,  // measure 8
0001
1000
0001
0000
,  // measure 9
0100
0010
0100
0000
,  // measure 10
0001
1000
0001
0000
,  // measure 11
1000
0100
1000
0000
,  // measure 12
0001
1000
0001
0000
,  // measure 13
0100
0010
0100
0000
,  // measure 14
0001
0010
0001
0000
,  // measure 15
2002
0000
0000
3003
,  // measure 16
1000
0100
1000
1000
,  // measure 17
0001
0001
0000
0000
,  // measure 18
0100
0010
0100
0100
,  // measure 19
0010
0010
0000
0000
,  // measure 20
1000
0100
1000
1000
,  // measure 21
0001
0001
0000
0000
,  // measure 22
0010
0001
1000
1000
,  // measure 23
0002
0000
0000
0000
,  // measure 24
0003
1000
0001
1000
,  // measure 25
1000
0001
1001
0000
,  // measure 26
0100
0010
0100
0100
,  // measure 27
0010
0010
0100
0000
,  // measure 28
0220
0000
0000
0000
,  // measure 29
0330
0000
1000
0001
,  // measure 30
0100
0100
0010
0010
,  // measure 31
0100
0010
2000
0000
,  // measure 32
3002
0000
2003
0000
,  // measure 33
3002
0000
0203
0000
,  // measure 34
0320
0000
0230
0000
,  // measure 35
0320
0000
1030
0000
,  // measure 36
0100
0000
0010
0000
,  // measure 37
0001
0000
1000
1001
,  // measure 38
0001
1001
1000
0001
,  // measure 39
2000
0000
3001
1000
,  // measure 40
0001
0000
0100
0001
,  // measure 41
0100
0000
0010
1000
,  // measure 42
0010
0000
1000
0001
,  // measure 43
1000
0000
0010
0100
,  // measure 44
0010
0000
1000
0100
,  // measure 45
1000
0000
0001
0010
,  // measure 46
0001
0010
0002
0000
,  // measure 47
0003
0000
1000
0001
,  // measure 48
1000
0001
1000
0100
,  // measure 49
1000
0000
0001
0010
,  // measure 50
0001
1000
0001
1000
,  // measure 51
0001
0000
0100
0001
,  // measure 52
0100
0000
0010
1000
,  // measure 53
0010
0000
0000
0000
1000
0000
0000
0001
,  // measure 54
0000
0000
1000
0000
0000
0100
0000
0000
,  // measure 55
0010
0000
0220
0000
,  // measure 56
0000
0000
0330
0000
;

//---------------dance-single - ----------------
#NOTES:
     dance-single:
     :
     Hard:
     11:
     0.529,0.773,0.506,0.206,0.119: // measure 1
0000
0000
0000
0000
,  // measure 2
0000
0000
0000
0000
,  // measure 3
0000
0000
0000
0000
,  // measure 4
0000
0000
0000
0000
,  // measure 5
1010
0000
0000
0010
0000
0010
0100
0001
,  // measure 6
0010
0001
0000
1000
0100
1000
0001
0000
,  // measure 7
1001
0000
0000
0100
0000
0100
0110
0000
,  // measure 8
1001
0000
0001
1000
0100
0000
0000
1000
,  // measure 9
0000
1000
0001
0010
0100
0000
1001
0000
,  // measure 10
0010
1000
0010
1000
0001
0000
0010
0001
,  // measure 11
0000
0010
0001
1000
0100
0000
1100
0000
,  // measure 12
1001
0000
1000
0001
0010
0000
0000
0001
,  // measure 13
0000
0001
1000
0100
0010
0000
1001
0000
,  // measure 14
0001
0100
0010
1000
0001
0010
0100
1000
,  // measure 15
0010
0010
0010
1001
,  // measure 16
0001
0000
1001
0000
0001
0100
0001
0100
,  // measure 17
0001
0001
1000
1000
0001
1000
0100
0000
,  // measure 18
1000
0000
1001
0000
0001
1000
0001
0000
,  // measure 19
0100
0101
1000
1100
,  // measure 20
1000
0000
1001
0000
1000
0010
1000
0010
,  // measure 21
1000
1000
0001
0001
1000
0001
0010
0000
,  // measure 22
0001
0000
1001
0000
1000
0100
1000
0000
,  // measure 23
0001
0001
0002
0000
,  // measure 24
1003
1001
0011
0011
,  // measure 25
0100
1000
0100
0010
0110
0000
0000
1001
,  // measure 26
0000
1000
0001
0000
0100
0010
0100
0000
,  // measure 27
0001
0100
1000
0100
0001
0000
0000
0000
,  // measure 28
1001
0110
1001
1100
,  // measure 29
0011
1001
1010
1010
,  // measure 30
0100
0001
0010
0100
0010
0001
0010
0001
,  // measure 31
1000
0010
2000
0000
3002
0000
0000
0000
,  // measure 32
0203
0000
0320
0000
,  // measure 33
2030
0000
0000
0000
0000
0000
0000
0000
3001
0010
0200
0000
0000
1000
0000
1300
,  // measure 34
0001
0010
0200
0000
0000
0010
0000
0310
0001
1000
0200
0000
0000
0010
0000
0310
,  // measure 35
0100
1000
0001
0000
0001
0000
0001
0000
1001
0000
1000
0100
0002
0000
0000
0103
,  // measure 36
0000
1000
0100
0010
0002
0000
0000
0000
1003
0100
0010
0001
1000
0000
0010
0100
,  // measure 37
0000
0010
0100
0010
1000
0000
0000
0000
1001
0000
0001
0000
2200
0000
3300
0000
,  // measure 38
1001
0000
1000
0000
0022
0000
0033
0000
1000
0001
0100
0010
0100
0001
1000
0100
,  // measure 39
2000
0002
0000
3003
1100
0000
0010
0001
,  // measure 40
0100
0000
0001
1000
0000
0100
0010
0001
,  // measure 41
1000
0000
1001
0000
0100
1000
0010
0100
,  // measure 42
0010
0000
1000
0001
0000
1000
0001
0010
,  // measure 43
0100
0000
0110
0000
0011
0000
0100
1000
,  // measure 44
0010
0000
1000
0001
0000
0010
0100
1000
,  // measure 45
0001
0000
1001
0000
1000
0001
0100
0001
,  // measure 46
1000
0100
1000
0100
0020
0000
0000
0000
,  // measure 47
0000
0000
0030
0000
0001
0010
1000
0010
,  // measure 48
0001
0000
0101
0000
1000
0100
0001
0100
,  // measure 49
1000
0000
1010
0000
0001
0010
0100
1000
,  // measure 50
0001
0010
0100
0010
0001
0000
1001
0000
,  // measure 51
0110
0000
1001
0000
1000
0100
0001
0100
,  // measure 52
1000
0000
0101
0000
0001
0010
1000
0010
,  // measure 53
0001
0000
1010
0000
0110
0000
0000
0101
,  // measure 54
0000
0000
1100
0000
0000
1000
1000
0001
,  // measure 55
0010
0100
1000
0000
2020
0000
0000
0000
,  // measure 56
0000
0000
3030
0000
;

//---------------dance-single - ----------------
#NOTES:
     dance-single:
     :
     Beginner:
     2:
     0.080,0.112,0.103,0.000,0.000: // measure 1
0000
0000
0000
0000
,  // measure 2
0000
0000
0000
0000
,  // measure 3
0000
0000
0000
0000
,  // measure 4
0000
0000
0000
0000
,  // measure 5
1000
0000
0000
0000
,  // measure 6
0000
0000
0000
0001
,  // measure 7
0000
0000
0000
1001
,  // measure 8
0000
0000
0000
0000
,  // measure 9
0001
0000
0000
0000
,  // measure 10
1000
0000
0000
0000
,  // measure 11
0000
0000
0000
0000
,  // measure 12
0001
0000
0000
0000
,  // measure 13
0000
0000
0000
0000
,  // measure 14
1000
0000
0000
0000
,  // measure 15
0000
0000
0000
0000
,  // measure 16
1001
0000
0000
0000
,  // measure 17
1000
0000
0000
0000
,  // measure 18
1000
0000
0000
0000
,  // measure 19
0001
0000
0000
0000
,  // measure 20
0001
0000
0000
0000
,  // measure 21
0001
0000
0000
0000
,  // measure 22
0100
0000
0000
0000
,  // measure 23
0010
0000
0000
0000
,  // measure 24
0100
0000
0000
0000
,  // measure 25
0001
0000
0000
0000
,  // measure 26
1001
0000
0000
0000
,  // measure 27
1000
0000
0000
0000
,  // measure 28
1001
0000
0000
0000
,  // measure 29
0000
0000
0001
0000
,  // measure 30
0000
0000
1000
0000
,  // measure 31
0000
0000
0001
0000
,  // measure 32
0000
0000
0000
0000
,  // measure 33
0000
0000
1001
0000
,  // measure 34
0000
0000
0010
0000
,  // measure 35
0000
0000
0110
0000
,  // measure 36
0000
0000
1000
0000
,  // measure 37
0000
0000
1000
0000
,  // measure 38
0001
0000
0001
0000
,  // measure 39
0000
0000
1001
0000
,  // measure 40
0000
0000
0001
0000
,  // measure 41
0000
0000
1000
0000
,  // measure 42
0000
0000
0000
0000
,  // measure 43
0000
0000
0010
0000
,  // measure 44
0000
0000
0100
0000
,  // measure 45
0000
0000
0010
0000
,  // measure 46
0000
0000
0000
0000
,  // measure 47
0000
0000
1000
0000
,  // measure 48
0000
0000
0001
0000
,  // measure 49
0000
0000
1000
0000
,  // measure 50
0000
0000
1000
0000
,  // measure 51
0000
0000
1001
0000
,  // measure 52
0000
0000
0001
0000
,  // measure 53
0000
0000
1001
0000
,  // measure 54
0000
0000
0000
0000
,  // measure 55
0000
0000
1001
0000
;
