#TITLE:Welcome!!;
#SUBTITLE:;
#ARTIST:kors k;
#TITLETRANSLIT:;
#SUBTITLETRANSLIT:;
#ARTISTTRANSLIT:;
#CREDIT:DigiMindAxel;
#BANNER:Welcome!!.png;
#BACKGROUND:Welcome!!-bg.png;
#LYRICSPATH:;
#CDTITLE:jubeat.png;
#MUSIC:Welcome!!.ogg;
#METERTYPE:DDR X;
#OFFSET:-5.860;
#SAMPLESTART:11.193;
#SAMPLELENGTH:12.000;
#SELECTABLE:YES;
#BPMS:0.000=180.000,208.000=90.000,224.000=180.000;
#STOPS:;
#BGCHANGES:;

//---------------dance-single - ----------------
#NOTES:
     dance-single:
     :
     Easy:
     6:
     0.306,0.300,0.048,0.064,0.000: // measure 1
0001
1000
0100
0000
,  // measure 2
0010
0001
1000
0000
,  // measure 3
0010
0100
0010
0100
,  // measure 4
0020
0000
0000
0030
,  // measure 5
1000
1000
1000
0000
,  // measure 6
0001
1000
0100
0000
,  // measure 7
0010
0010
0010
0000
,  // measure 8
0001
0100
0010
0000
,  // measure 9
1000
1000
1000
0000
,  // measure 10
0100
0010
0001
0000
,  // measure 11
0010
0010
0010
0000
,  // measure 12
0001
1000
0100
0000
,  // measure 13
0010
0001
0010
0001
,  // measure 14
0010
0001
0010
0001
,  // measure 15
0100
0010
0100
0010
,  // measure 16
0100
0010
0100
0010
,  // measure 17
1000
0100
1000
0100
,  // measure 18
1000
0001
1000
0001
,  // measure 19
0010
0100
1000
0010
,  // measure 20
0200
0000
0000
0000
,  // measure 21
0310
0010
0010
0000
,  // measure 22
0100
0100
0100
0000
,  // measure 23
0001
0001
0001
0000
,  // measure 24
1000
0001
1000
0001
,  // measure 25
0010
0010
0010
0000
,  // measure 26
0100
0100
0100
0000
,  // measure 27
1000
1000
1000
0000
,  // measure 28
0001
1000
0001
1000
,  // measure 29
0010
0100
0010
0000
,  // measure 30
0100
0001
0010
0100
,  // measure 31
1000
0001
0010
0000
,  // measure 32
0001
0010
0100
0010
,  // measure 33
0001
0100
0010
0000
,  // measure 34
0100
0010
0100
0010
,  // measure 35
1000
0100
0010
0001
,  // measure 36
2000
0000
0000
3000
,  // measure 37
1001
0000
0000
0001
0000
0000
0001
0000
,  // measure 38
1001
0000
1000
1000
,  // measure 39
0100
0010
0100
0010
,  // measure 40
0001
0100
0010
1000
,  // measure 41
0010
0000
0000
0010
0000
0000
0010
0000
,  // measure 42
0110
0000
0001
0001
,  // measure 43
0100
0010
0100
0010
,  // measure 44
1000
0100
0010
0001
,  // measure 45
0100
0000
0000
0100
0000
0000
0100
0000
,  // measure 46
0110
0000
1000
1000
,  // measure 47
0001
0010
0001
0010
,  // measure 48
0100
1000
0010
0100
,  // measure 49
0001
0000
0000
0001
0000
0000
0001
0000
,  // measure 50
1001
0000
1000
1000
,  // measure 51
0100
0010
0100
0010
,  // measure 52
0001
1000
0010
0100
,  // measure 53
0002
0000
0000
0000
,  // measure 54
0000
0000
0000
0000
,  // measure 55
2003
0000
0000
0000
,  // measure 56
0000
0000
0000
0000
,  // measure 57
3001
0000
0010
0000
,  // measure 58
0001
0000
0100
0000
,  // measure 59
0010
0000
1000
0000
,  // measure 60
0100
0000
0010
0000
,  // measure 61
0001
1000
0001
0000
,  // measure 62
1000
0001
1000
0000
,  // measure 63
0100
0010
0100
0010
,  // measure 64
0100
0000
0000
0000
,  // measure 65
1000
0001
1000
0001
,  // measure 66
0010
0100
0010
0001
,  // measure 67
0100
0010
0100
0010
,  // measure 68
1000
0001
0010
0001
,  // measure 69
1000
0100
1000
0100
,  // measure 70
1000
0010
0100
0001
,  // measure 71
0010
0100
0010
0100
,  // measure 72
1000
0010
0100
0000
,  // measure 73
0001
1000
0001
1000
,  // measure 74
0100
0010
0100
0010
,  // measure 75
0001
0100
0001
0100
,  // measure 76
0010
1000
0010
1000
,  // measure 77
0100
0010
0001
1000
,  // measure 78
0010
0100
0010
0100
,  // measure 79
0001
0010
0100
0010
,  // measure 80
0002
0000
0000
0003
,  // measure 81
2002
0000
0000
0000
,  // measure 82
0000
0000
0000
0000
,  // measure 83
0000
0000
0000
0000
,  // measure 84
0000
0000
3003
0000
;

//---------------dance-single - ----------------
#NOTES:
     dance-single:
     :
     Medium:
     11:
     0.530,0.600,0.655,0.120,0.000: // measure 1
1001
1001
0100
0010
,  // measure 2
0101
0101
0010
0100
,  // measure 3
1001
0001
0110
1000
,  // measure 4
0010
0100
0010
0100
0010
0000
0000
0000
,  // measure 5
1000
0010
0100
0000
0001
0100
0001
0000
,  // measure 6
0010
0100
1000
0000
1100
0000
1100
0000
,  // measure 7
1001
0000
0001
1000
0001
1000
0001
0000
,  // measure 8
0010
0001
0100
0000
0101
0000
0101
0000
,  // measure 9
0010
1000
0100
0000
1000
0100
1000
0000
,  // measure 10
0001
0010
0100
0000
1100
0000
1100
0000
,  // measure 11
1001
0000
0001
0100
0001
0100
0001
0000
,  // measure 12
1000
0100
0010
0001
0010
0000
0011
0000
,  // measure 13
0100
1000
0000
1000
0000
1000
0001
0100
,  // measure 14
0000
0001
0000
0001
0000
0001
0010
0100
,  // measure 15
0000
1000
0000
1000
0000
1000
0100
0010
,  // measure 16
0000
0001
0000
0001
0000
0001
0100
0010
,  // measure 17
1000
0100
1000
0000
0001
0010
0001
1000
,  // measure 18
0010
0100
0010
0000
0100
0010
0100
0010
,  // measure 19
1000
0100
1000
0000
0001
0010
0001
0010
,  // measure 20
0200
0000
0000
0300
,  // measure 21
1001
1001
0110
0110
,  // measure 22
1001
1001
0011
0011
,  // measure 23
1100
1100
1001
1001
,  // measure 24
0010
0100
0010
0000
0010
0000
0110
0000
,  // measure 25
1001
1001
1010
1010
,  // measure 26
0101
0101
1001
1001
,  // measure 27
0210
0320
0230
0320
,  // measure 28
1000
1030
1001
1001
,  // measure 29
0011
0011
1001
1001
,  // measure 30
1100
1100
1001
1001
,  // measure 31
0110
0110
0101
0101
,  // measure 32
0010
0100
0010
0000
0010
0000
0010
0000
,  // measure 33
1001
1001
1100
1100
,  // measure 34
1001
1001
0101
0101
,  // measure 35
0120
0230
0320
0130
,  // measure 36
0001
1000
0000
1000
0000
1000
0010
0000
,  // measure 37
1000
0001
0000
1000
0001
1000
0000
0001
,  // measure 38
1000
0010
0100
0001
,  // measure 39
1000
0100
0000
1000
0100
1000
0100
1000
,  // measure 40
0000
0010
0000
0010
0000
0010
0100
0000
,  // measure 41
0001
0100
0000
0001
0000
0001
0100
0000
,  // measure 42
1001
0000
0110
0110
,  // measure 43
0001
1000
0000
0001
1000
0001
1000
0001
,  // measure 44
0000
0010
0000
0010
0000
0010
0000
0010
,  // measure 45
0100
1000
0000
0001
0100
0001
0000
0100
,  // measure 46
0001
0000
0110
0110
,  // measure 47
0001
0010
0000
0001
0010
0001
0010
0001
,  // measure 48
0000
0100
0000
0010
0000
0100
0001
0000
,  // measure 49
1000
0100
0000
1000
0000
1000
0100
1000
,  // measure 50
0100
0010
1001
1001
,  // measure 51
0010
0100
0000
0001
0100
0001
0100
0001
,  // measure 52
0000
1000
0000
1000
0000
0000
0110
0000
,  // measure 53
0020
0000
0000
0000
,  // measure 54
0000
0000
0000
0130
,  // measure 55
0002
0000
0000
0000
,  // measure 56
0000
0000
0000
1003
,  // measure 57
0001
0000
0010
0000
1100
0000
0000
0001
,  // measure 58
0000
0010
1100
0000
,  // measure 59
1000
0000
0010
0000
0101
0000
0000
1000
,  // measure 60
0000
0010
0101
0000
,  // measure 61
0001
0000
1000
0000
0110
0000
0000
0001
,  // measure 62
0000
1000
0110
0000
,  // measure 63
0100
0010
1001
0000
,  // measure 64
0220
0000
0000
0330
,  // measure 65
1000
0010
0100
0000
0001
0100
0001
0000
,  // measure 66
1000
0100
0010
0000
0100
1000
0100
1000
,  // measure 67
0001
0100
0000
0001
0000
0100
0000
0001
,  // measure 68
0000
0100
0000
0010
1000
0000
1001
0000
,  // measure 69
0100
0001
0010
0000
0001
0010
0001
0000
,  // measure 70
0010
0100
1000
0000
0100
1000
0100
1000
,  // measure 71
0001
0100
0000
0001
0000
0100
0000
0001
,  // measure 72
0000
1000
0100
0010
0001
0000
0011
0000
,  // measure 73
0100
1000
0100
0000
0010
0100
0010
0000
,  // measure 74
0001
0100
0010
0000
0100
0010
1000
0000
,  // measure 75
0001
0010
0001
0000
1000
0100
1000
0000
,  // measure 76
0001
0010
0100
0000
1000
0100
0010
0000
,  // measure 77
0001
1000
0100
1000
0100
0000
1100
0000
,  // measure 78
1000
0001
0100
0001
0100
0000
0101
0000
,  // measure 79
0010
1000
0001
0000
0010
0100
1000
0000
,  // measure 80
0120
0000
0000
0130
,  // measure 81
2002
0000
0000
0000
,  // measure 82
0000
0000
0000
0000
,  // measure 83
0000
0000
0000
0000
,  // measure 84
0000
0000
3003
0000
;

//---------------dance-single - ----------------
#NOTES:
     dance-single:
     :
     Hard:
     13:
     0.654,0.733,0.327,0.599,0.144: // measure 1
1100
0000
1100
0000
0010
0001
1000
0000
,  // measure 2
0011
0000
0011
0000
0100
1000
0001
0000
,  // measure 3
0100
0001
0010
0000
0100
1000
0010
0000
,  // measure 4
1000
0100
0010
0001
1000
0000
1001
0000
,  // measure 5
0001
0000
0000
0001
0000
0000
0100
0000
0010
0000
1000
0000
0100
0000
0010
0000
,  // measure 6
0100
0000
0000
0100
0000
0000
1000
0000
0001
0000
1000
0000
1001
0000
0000
0000
,  // measure 7
1100
0000
0010
0001
0010
1000
0010
0001
,  // measure 8
1000
0000
0000
1000
0000
0000
0010
0000
0100
0000
0000
0000
0110
0000
0000
0000
,  // measure 9
1000
0000
0000
1000
0000
0000
0100
0000
0010
0000
0001
0000
0100
0000
0010
0000
,  // measure 10
0100
0000
0000
0100
0000
0000
0001
0000
1000
0000
0001
0000
1001
0000
0000
0000
,  // measure 11
1010
0000
0100
0010
0100
1000
0001
0100
,  // measure 12
0001
0000
0000
0001
0000
0000
0010
0000
0100
0000
0000
0000
0110
0000
0000
0000
,  // measure 13
2000
0000
0000
3200
0000
0000
0320
0000
0000
0032
0000
0000
0013
0000
0001
0000
,  // measure 14
2000
0000
0000
3020
0000
0000
0230
0000
0000
0302
0000
0000
0103
0000
0001
0000
,  // measure 15
2000
0000
0000
3200
0000
0000
0320
0000
0000
0032
0000
0000
0013
0000
0001
0000
,  // measure 16
2000
0000
0000
3020
0000
0000
0230
0000
0000
0302
0000
0000
0103
0000
0001
0000
,  // measure 17
2001
0000
0000
3200
0000
0000
0320
0000
0000
0031
1000
0000
0001
0000
0000
0000
,  // measure 18
2000
0000
0000
3020
0000
0000
0230
0000
0000
0301
1000
0000
0001
0000
1000
0000
,  // measure 19
0100
0010
0100
0010
0001
0100
0010
1000
,  // measure 20
0200
0000
0000
0310
,  // measure 21
1001
0000
1001
0000
1000
1000
1000
0000
,  // measure 22
0010
0100
0010
1000
0010
0100
0010
0000
,  // measure 23
1001
0000
1001
0000
0001
0001
0001
0000
,  // measure 24
0100
0010
0100
0001
0100
0100
0100
0000
,  // measure 25
1001
0000
1001
0000
1000
0100
1000
0000
,  // measure 26
0001
0010
0001
0100
0010
1000
0100
0000
,  // measure 27
2000
3020
0032
0023
,  // measure 28
1030
0001
1000
0001
0110
0000
0110
0000
,  // measure 29
1001
0000
1001
0000
0001
0010
0001
0000
,  // measure 30
1000
0100
1000
0010
0100
0001
0010
0000
,  // measure 31
1001
0000
1001
0000
1000
0100
1000
0000
,  // measure 32
0010
0100
0010
1000
0010
0010
0010
0000
,  // measure 33
1001
0000
1001
0000
0001
0010
0001
0000
,  // measure 34
0100
0010
0100
0001
0100
0010
0100
0000
,  // measure 35
0002
0203
2300
3200
,  // measure 36
0300
0002
0000
2003
0000
3002
0000
1003
,  // measure 37
0001
0010
0000
0001
0010
0100
0000
0010
,  // measure 38
0100
1000
0100
1000
0100
1000
0010
0000
,  // measure 39
1000
0010
0000
1000
0010
0100
0010
0100
,  // measure 40
0000
0002
0000
2003
0000
3001
1000
0000
,  // measure 41
0010
0100
0000
0010
0000
0010
0100
0001
,  // measure 42
0010
0001
0010
0001
0010
0000
1001
0000
,  // measure 43
0001
0010
0000
0001
0010
0100
0010
0100
,  // measure 44
0000
2000
0000
3002
0000
2003
0000
3001
,  // measure 45
0010
0100
0000
0010
0001
0100
0000
0010
,  // measure 46
1000
0100
1000
0100
1000
0000
1001
0000
,  // measure 47
0001
0100
0000
0001
0100
0010
0100
0010
,  // measure 48
0000
2000
0000
3002
0000
1003
0001
0000
,  // measure 49
1000
0100
0000
1000
0000
1000
0100
0010
,  // measure 50
0001
0100
0001
0100
0001
0000
1001
0000
,  // measure 51
1000
0001
0000
1000
0001
0010
0001
0010
,  // measure 52
0000
1100
0000
1100
0000
0000
1001
0000
,  // measure 53
0002
0000
0000
0000
0000
0103
0000
0002
0000
0000
0000
0000
2003
0000
0000
0000
,  // measure 54
3200
0302
0203
2300
,  // measure 55
3020
0000
0000
0000
0000
0130
0000
0002
0000
0000
0000
0000
0023
0000
0000
0000
,  // measure 56
0230
2300
3002
0203
,  // measure 57
0310
0000
0010
0000
0010
0010
0000
0100
,  // measure 58
0000
0100
0100
0000
0110
0000
0000
0000
,  // measure 59
0001
0000
0001
0000
0001
0001
0000
1000
,  // measure 60
0000
1000
1000
0000
1001
0000
0000
0000
,  // measure 61
0010
0000
0010
0000
0010
0010
0000
0100
,  // measure 62
0000
0100
0100
0000
0110
0000
0000
0000
,  // measure 63
1000
0000
1000
0000
1000
1000
0000
0000
,  // measure 64
2002
0000
0000
3003
,  // measure 65
0001
0000
0100
0001
0000
0000
1000
0000
0010
0000
0001
0000
0010
0000
1000
0000
,  // measure 66
0100
0000
0010
0100
0000
0000
1000
0000
0100
0000
0001
0000
0100
0000
1000
0000
,  // measure 67
0010
0100
0010
0100
0001
0010
0001
0010
,  // measure 68
0100
0000
0000
0100
0000
0000
0100
0000
1100
0000
0000
0000
1001
0000
0000
0000
,  // measure 69
1000
0000
0010
1000
0000
0000
0001
0000
0010
0000
1000
0000
0010
0000
0001
0000
,  // measure 70
1000
0000
0100
1000
0000
0000
0001
0000
0100
0000
1000
0000
0100
0000
0001
0000
,  // measure 71
0010
0100
0010
0100
1000
0010
1000
0010
,  // measure 72
0100
0001
0001
0001
1000
0000
1100
0000
,  // measure 73
0020
0000
0000
0032
0000
0000
0203
0000
0000
0320
0000
0000
1030
0000
0100
0000
,  // measure 74
0020
0000
0000
0032
0000
0000
0203
0000
0000
0320
0000
0000
1030
0000
0100
0000
,  // measure 75
0020
0000
0000
0032
0000
0000
0103
0000
0010
0000
0100
0000
0010
0000
1000
0000
,  // measure 76
0020
0000
0000
0230
0000
0000
0301
0000
0010
0000
0100
0000
0010
0000
0001
0000
,  // measure 77
2000
0000
0000
3200
0000
0000
0320
0000
0000
0031
1000
0000
0001
0000
0000
0000
,  // measure 78
0010
0000
0100
0000
1000
0000
0100
0000
0010
0000
0100
0000
1000
0001
1000
0000
,  // measure 79
0010
0100
0010
1000
0100
0001
0100
1000
,  // measure 80
0120
0000
0000
0130
,  // measure 81
2002
0000
0000
0000
,  // measure 82
0000
0000
0000
0000
,  // measure 83
0000
0000
0000
0000
,  // measure 84
0000
0000
3003
0000
;

//---------------dance-single - ----------------
#NOTES:
     dance-single:
     :
     Challenge:
     16:
     0.849,0.833,0.447,0.495,0.507: // measure 1
1001
1000
0001
0010
0100
1000
0010
0000
,  // measure 2
1001
1000
0001
0100
0010
0100
0001
0000
,  // measure 3
1001
0001
1000
0100
0011
0100
1000
0010
,  // measure 4
0100
0001
0100
0001
1000
0100
1000
0100
0010
0001
1000
0100
0010
0000
0000
0000
,  // measure 5
1001
0000
1000
0010
0000
1000
0001
0010
0001
0000
1000
0000
0100
0000
0010
0000
,  // measure 6
0001
0000
1000
0010
0000
1000
0001
0010
0001
0000
1000
0001
1000
0000
0100
0000
,  // measure 7
0010
0000
0000
0000
0001
0000
1000
0100
1000
0000
0001
0100
0001
0000
1000
0000
,  // measure 8
1100
0000
0000
1100
0000
0000
1100
0000
0010
0000
0001
0100
0001
0000
1000
0000
,  // measure 9
0100
0000
0010
0001
0000
1000
0001
0010
0001
0000
1000
0000
0010
0000
0100
0000
,  // measure 10
0001
0000
1000
0010
0000
1000
0001
0010
0001
0000
1000
0001
1000
0000
0100
0000
,  // measure 11
0010
0000
0000
0000
0001
0000
0100
0010
0100
0000
0001
0100
0001
0000
1000
0000
,  // measure 12
1010
0000
0000
1010
0000
0000
1010
0000
0100
0000
0001
1000
0001
0000
0010
0000
,  // measure 13
0100
0000
1000
0100
0000
0100
0010
0000
0001
0010
0000
0010
0100
0000
1000
0000
,  // measure 14
0001
0000
0100
0010
0000
0010
1000
0000
0100
0010
0000
0010
0001
0000
0010
0000
,  // measure 15
0100
0000
0010
0001
0000
0001
0100
0000
0010
1000
0000
1000
0100
0000
0010
0000
,  // measure 16
0001
0000
1000
0010
0000
1000
0001
0000
0010
0001
0000
0010
0100
0000
1000
0000
,  // measure 17
0010
0000
0100
0001
0000
1000
0100
0000
0010
0100
1000
0100
0010
0000
0001
0000
,  // measure 18
0100
0000
0010
1000
0000
0001
0010
0000
0100
0010
0001
0000
0010
0100
1000
0010
,  // measure 19
0100
0000
0001
1000
0000
0100
1000
0000
0001
1000
0000
0100
1000
0000
0010
0100
,  // measure 20
0002
0000
0000
1003
,  // measure 21
1200
0000
2300
0000
3010
0010
0200
0000
,  // measure 22
0301
0001
0010
0010
0100
0100
1000
1000
,  // measure 23
0002
0000
0203
0000
0310
0010
0200
0000
,  // measure 24
0301
0001
1000
1000
0010
0010
0010
0000
,  // measure 25
1002
0000
0023
0000
0031
0001
0100
0000
,  // measure 26
0010
0010
1000
1000
0100
0100
0010
0010
,  // measure 27
0002
0203
2300
3200
,  // measure 28
0301
0010
0100
0010
0001
1000
0010
1000
,  // measure 29
1002
0000
0203
0000
0301
0001
2000
0000
,  // measure 30
3100
0100
0010
0010
0001
0001
0100
0100
,  // measure 31
0020
0000
2030
0000
3100
0100
0020
0000
,  // measure 32
0031
0001
0010
0010
0100
0100
0100
0000
,  // measure 33
1002
0000
0203
0000
0310
0010
2000
0000
,  // measure 34
3001
0000
1000
0100
1000
0000
0001
1000
0001
0100
0001
0100
0001
0100
0001
0100
,  // measure 35
0002
0000
0023
0000
2030
0000
3010
0001
,  // measure 36
1000
2020
3030
0220
0330
0101
0001
1000
,  // measure 37
0100
1100
0000
0010
0001
1001
0000
1000
,  // measure 38
0001
0100
1000
0100
0001
0100
0110
0000
,  // measure 39
1000
1100
0000
0010
0001
1000
0100
0010
,  // measure 40
0000
0202
0303
2020
3030
0010
0110
0000
,  // measure 41
1000
1010
0000
1010
0000
0100
0001
0010
,  // measure 42
0001
0100
1000
0100
0001
0010
0110
0000
,  // measure 43
1000
1010
0000
0100
0001
0010
1000
0010
,  // measure 44
0000
0022
0033
2200
3300
0011
0100
1000
,  // measure 45
0010
1010
0000
0100
0001
0011
0000
0100
,  // measure 46
1000
0010
0001
0010
1000
0100
0011
0000
,  // measure 47
0100
0110
0000
1000
0001
0010
1000
0010
,  // measure 48
0000
0022
0033
2200
3300
0010
0110
0000
,  // measure 49
0001
0011
0000
0011
0000
0100
1000
0001
,  // measure 50
0010
1000
0010
0001
1000
0100
0011
0000
,  // measure 51
0100
0110
0000
1000
0001
0010
1000
0010
,  // measure 52
0000
0000
0202
0000
0303
0000
1010
0000
0010
0100
0010
0100
0001
1000
0001
1000
,  // measure 53
0002
0000
0000
0000
0000
0100
0000
0203
0000
0000
0000
0000
0302
0000
0000
0000
,  // measure 54
0023
0230
2300
3200
,  // measure 55
2300
0000
0000
0000
0000
0010
0000
3020
0000
0000
0000
0000
2030
0000
0000
0000
,  // measure 56
3002
0023
0230
0320
,  // measure 57
0031
1000
0100
1000
0001
1000
0000
0100
,  // measure 58
0010
0001
0010
0100
1000
0000
1001
0000
,  // measure 59
0001
1000
0010
1000
0001
1000
0000
0010
,  // measure 60
0100
0001
0100
0010
1000
0000
1001
0000
,  // measure 61
0100
0010
0001
1000
0010
1000
0000
0010
,  // measure 62
0100
0001
1000
0100
1000
0000
1001
0000
,  // measure 63
0001
1000
0001
1000
0100
1000
0100
1000
0001
0010
0001
0010
0100
1000
0100
1000
,  // measure 64
0020
0000
0000
0130
,  // measure 65
0101
0000
0100
0010
0000
1000
0100
0000
0001
0000
0100
0000
1000
0000
0001
0000
,  // measure 66
0100
0000
0010
1000
0000
0100
0010
0001
0010
0000
0100
0010
0100
0000
1000
0000
,  // measure 67
0001
0000
0100
0010
0100
0000
0001
0100
0001
0000
1000
0000
0010
0000
1000
0000
,  // measure 68
0001
0000
0010
0001
0000
0010
0001
0000
0010
0000
0100
0000
1010
0000
0000
0000
,  // measure 69
1001
0000
0001
1000
0000
0001
0010
0000
1000
0000
0010
0000
0001
0000
1000
0000
,  // measure 70
0100
0000
0010
0100
0000
1000
0010
0100
0010
0000
0100
0001
0100
0000
0010
0000
,  // measure 71
1000
0000
0100
1000
0100
0000
0010
0100
0010
0100
0001
0010
0001
0000
0010
0000
,  // measure 72
0200
1000
1000
1000
1300
0010
0101
0000
,  // measure 73
0001
0000
0010
0100
0000
0100
1000
0000
0010
0100
0000
0100
0001
0000
0010
0000
,  // measure 74
0100
0000
0010
0001
0000
0001
1000
0000
0010
0100
0000
0100
0001
0000
0010
0000
,  // measure 75
0100
0000
0010
0001
0000
0001
1000
0000
0010
0000
0100
0000
0001
0000
1000
0000
,  // measure 76
0100
0000
0010
0100
0000
0100
1000
0000
0001
0000
0100
0000
0010
0000
0100
0000
,  // measure 77
1001
0000
0001
0010
0000
0100
1000
0000
0001
0100
0010
0000
0100
0000
0001
0000
,  // measure 78
1001
0000
1000
0010
0000
0100
0001
0000
0100
0000
0010
0000
0100
0001
0010
0100
,  // measure 79
1000
0001
1000
0001
1000
0001
1000
0001
0010
0001
0010
0001
1000
0100
1000
0100
,  // measure 80
2000
0001
0000
0001
0000
3001
0110
0000
,  // measure 81
2020
0000
0000
0000
,  // measure 82
0000
0000
0000
0000
,  // measure 83
0000
0000
0000
0000
,  // measure 84
0000
0000
3030
0000
;

//---------------dance-single - ----------------
#NOTES:
     dance-single:
     :
     Beginner:
     3:
     0.124,0.192,0.120,0.000,0.000: // measure 1
1001
0000
0000
0000
,  // measure 2
1001
0000
0000
0000
,  // measure 3
1001
0000
0000
0000
,  // measure 4
1001
0000
0000
0000
,  // measure 5
0100
0000
0000
0000
,  // measure 6
0100
0000
0000
0000
,  // measure 7
0100
0000
0000
0000
,  // measure 8
0100
0000
0000
0000
,  // measure 9
0010
0000
0000
0000
,  // measure 10
0010
0000
0000
0000
,  // measure 11
0010
0000
0000
0000
,  // measure 12
0010
0000
0000
0000
,  // measure 13
0001
0000
0000
0000
,  // measure 14
1000
0000
0000
0000
,  // measure 15
0100
0000
0000
0000
,  // measure 16
0010
0000
0000
0000
,  // measure 17
0001
0000
0000
0000
,  // measure 18
0100
0000
0000
0000
,  // measure 19
0010
0000
0000
0000
,  // measure 20
0100
0000
0000
0000
,  // measure 21
1001
0000
0000
0000
,  // measure 22
0010
0000
0000
0000
,  // measure 23
1001
0000
0000
0000
,  // measure 24
0100
0000
0000
0000
,  // measure 25
1001
0000
0000
0000
,  // measure 26
0010
0000
0000
0000
,  // measure 27
1001
0000
0000
0000
,  // measure 28
0100
0000
0000
0000
,  // measure 29
1001
0000
0000
0000
,  // measure 30
0010
0000
0100
0000
,  // measure 31
1001
0000
0000
0000
,  // measure 32
0100
0000
0010
0000
,  // measure 33
1001
0000
0000
0000
,  // measure 34
0010
0000
0100
0000
,  // measure 35
1001
0000
0000
0000
,  // measure 36
1001
0000
0000
0000
,  // measure 37
0010
0000
0000
0000
,  // measure 38
0000
0000
0000
0000
,  // measure 39
0100
0000
0010
0000
,  // measure 40
0100
0000
0000
0000
,  // measure 41
0001
0000
0000
0000
,  // measure 42
1000
0000
0000
0000
,  // measure 43
0100
0000
1000
0000
,  // measure 44
0100
0000
0000
0000
,  // measure 45
0010
0000
0000
0000
,  // measure 46
0001
0000
0000
0000
,  // measure 47
0100
0000
0010
0000
,  // measure 48
0100
0000
0000
0000
,  // measure 49
0001
0000
0000
0000
,  // measure 50
1000
0000
0000
0000
,  // measure 51
0100
0000
1000
0000
,  // measure 52
0100
0000
0000
0000
,  // measure 53
1001
0000
0000
0000
,  // measure 54
0000
0000
0000
0000
,  // measure 55
0001
0000
0000
0000
,  // measure 56
0000
0000
0000
0000
,  // measure 57
1000
0000
0000
0000
,  // measure 58
0000
0000
0000
0000
,  // measure 59
0100
0000
0000
0000
,  // measure 60
0000
0000
0000
0000
,  // measure 61
0010
0000
0000
0000
,  // measure 62
0000
0000
0000
0000
,  // measure 63
0001
0000
0000
0000
,  // measure 64
1000
0000
0000
0000
,  // measure 65
0010
0000
0010
0000
,  // measure 66
0010
0000
0010
0000
,  // measure 67
0100
0000
0100
0000
,  // measure 68
0100
0000
0000
0000
,  // measure 69
0001
0000
0001
0000
,  // measure 70
0001
0000
0001
0000
,  // measure 71
1000
0000
1000
0000
,  // measure 72
1000
0000
0000
0000
,  // measure 73
0100
0000
0100
0000
,  // measure 74
0010
0000
0010
0000
,  // measure 75
0100
0000
0100
0000
,  // measure 76
0010
0000
0000
0000
,  // measure 77
0001
0000
0001
0000
,  // measure 78
1000
0000
1000
0000
,  // measure 79
0001
0000
0001
0000
,  // measure 80
1000
0000
0000
0000
,  // measure 81
1001
0000
0000
0000
;
