#TITLE:ホワイトレクチャー;
#SUBTITLE:;
#ARTIST:アルファ;
#TITLETRANSLIT:WHITE LECTURE;
#SUBTITLETRANSLIT:;
#ARTISTTRANSLIT:ALPHA;
#CREDIT:DigiMindAxel;
#BANNER:WHITE LECTURE.png;
#BACKGROUND:WHITE LECTURE-bg.png;
#LYRICSPATH:WHITE LECTURE.lrc;
#CDTITLE:beatmania.png;
#MUSIC:WHITE LECTURE.ogg;
#METERTYPE:DDR X;
#OFFSET:-9.648;
#SAMPLESTART:37.063;
#SAMPLELENGTH:12.000;
#SELECTABLE:YES;
#BPMS:0.000=105.000;
#STOPS:;
#BGCHANGES:;

//---------------dance-single - ----------------
#NOTES:
     dance-single:
     :
     Easy:
     3:
     0.153,0.153,0.229,0.094,0.000:
1001
0000
0000
0000
,
1001
0000
0000
0000
,
1001
0000
0000
0000
,
0002
0000
0000
0003
,
0110
0000
1000
0000
,
1001
0000
0001
0000
,
0110
0000
1000
0000
,
1001
0000
0001
0000
,
1001
0000
1000
0000
,
0110
0000
0001
0000
,
1001
0000
1000
0000
,
1001
0000
0001
0000
,
1001
1000
0001
0000
,
0100
0001
0100
0000
,
0010
1000
0010
0000
,
2000
0000
3002
0000
,
1003
0100
1000
0000
,
0001
0010
0001
0000
,
0100
0010
0100
0000
,
1001
0000
1000
0000
,
2000
0000
0000
0000
,
3200
0000
0000
0000
,
0320
0000
0000
0000
,
0032
0000
0000
0000
,
2003
0000
0000
0000
,
3002
0000
0000
0000
,
0003
1000
0000
1000
,
0000
0001
0000
0001
,
1001
0000
0010
0000
,
0110
0000
1000
0000
,
1001
0000
0100
0000
,
0110
0000
0001
0000
,
1001
0000
1000
0000
,
0110
0000
1000
0000
,
0110
0000
0001
0000
,
0110
0000
0001
0000
,
1001
1000
0001
1000
;

//---------------dance-single - ----------------
#NOTES:
     dance-single:
     :
     Medium:
     8:
     0.345,0.346,0.344,0.135,0.125:
2010
0000
3001
0000
,
0102
0000
1003
0000
,
0210
0000
0310
0000
,
0002
0000
1000
0000
1003
0100
0010
0000
,
0101
0000
0000
0000
1000
0000
0000
0000
0010
0000
0000
0010
0000
0000
0000
0000
,
1010
0000
0000
0000
0001
0000
0000
0000
0100
0000
0000
0100
0000
0000
0000
0000
,
1100
0000
0000
0000
0001
0000
0000
0000
0010
0000
0000
0010
0000
0000
0000
0000
,
0011
0000
0000
0000
1000
0000
0000
0000
0100
0000
0000
0100
0000
0000
0000
0000
,
1001
0000
0000
1000
0000
0000
0000
0000
0010
0000
0000
0100
0000
0000
0000
0000
,
1001
0000
0000
0001
0000
0000
0000
0000
0100
0000
0000
0010
0000
0000
0000
0000
,
1001
0000
0000
1000
0000
0000
0000
0000
0010
0000
0000
0100
0000
0000
0000
0000
,
0001
0001
1000
1000
0100
0010
0001
0000
,
0100
0001
0100
0001
1000
0100
1000
0000
,
0010
1000
0010
1000
0001
0010
0001
0000
,
0100
0001
0010
0000
0100
1000
0010
0000
,
2001
3200
0320
0030
,
0001
1000
0001
0010
0100
0000
1000
0001
,
1000
0100
0010
0001
1000
0000
1000
0000
,
0010
0100
0010
1000
0001
1000
0010
0100
,
0001
1000
0000
0001
1000
0000
0000
0000
,
0010
0000
0000
0020
0000
0000
0000
0000
0100
0000
0000
0000
0130
0000
0000
0000
,
0100
0000
0000
0200
0000
0000
0000
0000
0010
0000
0000
0000
0310
0000
0000
0000
,
1000
0000
0000
2000
0000
0000
0000
0000
0001
0000
0000
0000
3001
0000
0000
0000
,
0001
0000
0000
0002
0000
0000
0000
0000
1000
0000
0000
0000
1003
0000
0000
0000
,
0010
0000
0000
0020
0000
0000
0000
0000
0100
0000
0000
0000
0130
0000
0000
0000
,
0100
0000
0000
0200
0000
0000
0000
0000
0010
0000
0000
0000
0310
0000
0000
0000
,
1000
1100
1000
1100
,
0010
0001
0010
0100
0010
0001
0010
0100
,
1100
0000
0000
1100
0000
0000
0000
0000
0001
0000
0100
0000
0010
0000
1000
0000
,
0011
0000
0000
0011
0000
0000
0000
0000
1000
0000
0010
0000
0100
0000
0001
0000
,
1010
0000
0000
1010
0000
0000
0000
0000
0001
0000
0010
0000
0100
0000
1000
0000
,
0101
0000
0000
0101
0000
0000
0000
0000
1000
0000
0100
0000
0010
0000
0001
0000
,
1001
0000
0000
1001
0000
0000
0000
0000
0010
0000
0100
0000
0001
0000
0010
0000
,
1001
0000
0000
1001
0000
0000
0000
0000
0100
0000
0010
0000
1000
0000
0100
0000
,
1001
0000
0000
1001
0000
0000
0000
0000
1000
0000
0100
0000
0010
0000
0001
0000
,
0110
0000
0000
0110
0000
0000
0000
0000
0001
0000
0010
0000
0100
0000
1000
0000
,
0101
0100
1100
0100
0011
0010
1010
0010
;

//---------------dance-single - ----------------
#NOTES:
     dance-single:
     :
     Hard:
     12:
     0.531,0.500,0.344,0.094,0.625: // measure 1
0102
0000
0000
0100
0000
0000
0000
0000
1000
0000
0000
1003
0000
0000
0000
0000
,  // measure 2
2010
0000
0000
0010
0000
0000
0000
0000
0001
0000
0000
3001
0000
0000
0000
0000
,  // measure 3
0120
0000
0000
0100
0000
0000
0000
0000
1000
0000
0000
1030
0000
0000
0000
0000
,  // measure 4
0010
0000
0000
0100
0010
0000
0000
0100
0010
0000
1000
0000
1000
0000
0000
0000
,  // measure 5
1001
0000
0100
0000
0010
0000
0001
0000
2000
0000
0000
3100
0000
0000
0000
0000
,  // measure 6
1001
0000
0010
0000
0100
0000
1000
0000
0002
0000
0000
0013
0000
0000
0000
0000
,  // measure 7
1001
0000
0100
0000
0010
0000
0001
0000
2000
0000
0000
3010
0000
0000
0000
0000
,  // measure 8
1001
0000
0010
0000
0100
0000
1000
0000
0002
0000
0000
0103
0000
0000
0000
0000
,  // measure 9
1001
0000
0000
0001
0000
0000
0100
0000
0010
0000
1000
0000
0100
0000
0000
0000
,  // measure 10
1001
0000
0000
1000
0000
0000
0010
0000
0100
0000
0001
0000
0010
0000
0001
1000
,  // measure 11
0001
0000
1000
0001
1000
0000
0010
0100
0010
0000
0100
0010
0100
0000
0000
0001
,  // measure 12
1000
0000
1000
0000
0001
0100
0000
0100
0000
0010
0000
0010
1000
0001
1000
0001
,  // measure 13
1000
0000
0100
0000
1000
0001
0000
0100
0000
0010
0000
0100
0001
0000
1000
0000
,  // measure 14
0001
0000
0010
0000
0001
0000
1000
0010
0000
0100
0000
0010
1000
0000
0001
0000
,  // measure 15
1000
0000
0010
0000
0100
0001
0000
1000
0000
0100
0000
1000
0001
0000
1000
0000
,  // measure 16
0001
0000
0100
0000
0010
0000
1000
0001
0000
0010
0000
0001
1000
0000
1000
0000
,  // measure 17
0010
1000
0010
0000
1000
0001
0000
0010
0000
0100
0000
1000
0001
0000
0001
0000
,  // measure 18
0100
0001
0100
0000
0001
0000
1000
0100
0000
0010
0000
0001
1000
0000
1000
0000
,  // measure 19
0010
1000
0020
0000
0100
0000
0130
0001
0200
0000
0010
0000
0310
0100
0010
0000
,  // measure 20
1000
0100
0010
0000
0001
0000
0001
0010
0100
1000
0000
0010
0100
0000
0001
0000
,  // measure 21
1001
0000
1000
0001
1000
0010
0000
0010
0000
0100
0000
0100
0001
0000
1000
0000
,  // measure 22
1010
0000
0010
1000
0001
0010
0000
0010
0000
0100
0000
0100
1000
0000
0001
0000
,  // measure 23
0101
0000
0100
0010
1000
0100
0000
0100
0000
0010
0000
0010
0100
0000
1000
0000
,  // measure 24
1001
0000
0001
0010
0100
1000
0000
1000
0000
0010
0000
0010
0100
0000
0001
0000
,  // measure 25
0011
0000
0010
0100
1000
0010
0000
0010
0000
0100
0000
0100
0001
0000
1000
0000
,  // measure 26
1100
0000
0100
0010
0001
1000
0000
1000
0000
0010
0000
0010
1000
0000
0100
0000
,  // measure 27
0010
1001
0010
1001
,  // measure 28
0001
0000
0001
0000
0001
1000
0000
0100
0000
1000
0000
0010
0100
0000
0001
0000
,  // measure 29
0101
0000
0000
1001
0000
0000
1000
0000
0001
0000
0001
0000
0100
0010
0100
0000
,  // measure 30
0110
0000
0000
1001
0000
0000
0001
0000
1000
0000
0100
0000
0010
0000
0000
0000
,  // measure 31
0011
0000
0000
1001
0000
0000
1000
0000
0001
0000
0010
0001
0010
0000
0000
0000
,  // measure 32
1100
0000
0000
1001
0000
0000
0001
1000
0001
0000
0010
0000
0100
0000
1000
0000
,  // measure 33
0110
0000
0000
1001
0000
0000
0010
0100
0010
0000
1000
0001
1000
0100
0010
0000
,  // measure 34
1001
0000
0000
0110
0000
0000
0100
0010
0100
0000
0001
1000
0001
0010
0100
0000
,  // measure 35
0110
0000
0000
1001
0000
0000
0010
0100
0010
0000
1000
0001
1000
0100
0010
0000
,  // measure 36
1001
0000
0000
0110
0000
0000
0100
0010
0100
0000
0001
0000
0001
0010
0100
1000
,  // measure 37
0001
0100
0001
1000
0100
1000
0010
0100
0001
0100
1000
0100
0001
0010
0100
1000
;

//---------------dance-single - ----------------
#NOTES:
     dance-single:
     :
     Beginner:
     1:
     0.060,0.075,0.062,0.000,0.000:
1000
0000
0000
0000
,
1000
0000
0000
0000
,
1000
0000
0000
0000
,
1000
0000
0000
0000
,
1001
0000
0000
0000
,
0001
0000
0000
0000
,
0001
0000
0000
0000
,
0001
0000
0000
0000
,
1000
0000
0000
0000
,
1000
0000
0000
0000
,
0010
0000
0000
0000
,
0100
0000
0000
0000
,
1001
0000
0000
0000
,
0001
0000
0000
0000
,
0001
0000
0000
0000
,
0000
0000
0000
0000
,
1001
0000
0000
0000
,
1000
0000
0000
0000
,
1000
0000
0000
0000
,
0001
0000
0000
0000
,
0010
0000
0000
0000
,
0010
0000
0000
0000
,
0010
0000
0000
0000
,
0010
0000
0000
0000
,
0100
0000
0000
0000
,
0100
0000
0000
0000
,
0000
0000
0000
0000
,
0000
0000
0000
0000
,
1001
0000
0000
0000
,
1000
0000
0000
0000
,
0001
0000
0000
0000
,
1000
0000
0000
0000
,
1001
0000
0000
0000
,
0001
0000
0000
0000
,
1000
0000
0000
0000
,
0001
0000
0000
0000
,
1001
0000
0000
0000
;

//---------------dance-single - ----------------
#NOTES:
     dance-single:
     :
     Challenge:
     14:
     0.717,0.615,0.666,0.042,0.870:
0100
0001
0100
0001
0100
0000
0010
0000
1000
0001
1000
0001
0000
0000
0000
0000
,
1000
0100
1000
0100
1000
0000
0010
0000
0100
0010
0100
0010
0000
0000
0000
0000
,
0100
0001
0100
0001
0100
0000
0010
0000
1000
0100
1000
0100
0000
0000
0000
0000
,
2000
0000
0000
0001
0001
0000
0000
0001
3001
1000
0000
0010
0100
0000
0110
0000
,
1001
0000
0001
0100
0001
1000
0100
0010
0001
0000
0000
0001
0100
0010
0100
0000
,
1001
0000
1000
0100
1000
0001
0100
0001
1000
0100
0010
0000
0000
0001
0100
0010
,
0100
0001
0010
1000
0010
0001
0010
0100
1000
0000
0100
1000
0000
0000
0010
0100
,
0001
0000
0100
0001
0000
0100
0001
0010
0100
0000
0010
0100
0000
0000
1000
0000
,
1001
0000
0001
0010
0001
0000
1000
0001
0100
1000
0100
0001
0010
0000
0100
0010
,
0100
0000
1000
0010
0000
1000
0001
0010
0100
1000
0001
0000
1001
0000
1000
0100
,
1100
0000
0010
0001
0011
0000
1000
0100
1100
0000
0010
0001
0011
0000
0000
0100
,
1100
0000
1001
0000
0001
0010
1000
0010
0001
1000
0100
0010
0001
0001
1000
1000
,
0010
0000
0110
0000
0100
0010
1000
0100
0001
0100
1000
0001
0010
0000
0011
0000
,
0110
0000
1001
0000
1000
0001
0100
1000
0100
0001
0010
0100
0010
0000
0011
0000
,
1100
0000
1001
0000
0001
1000
0100
0010
0001
0001
0000
1000
1000
0000
0010
0000
,
0201
0001
0302
1000
2003
0100
3100
0010
,
0001
0100
1000
0100
0001
0000
0101
0000
1010
0000
0000
0000
0110
0000
0110
0000
,
1000
0010
0001
0010
1000
0000
1100
0000
0011
0000
0000
0000
1001
0000
0000
0000
,
1000
0100
0001
0100
0001
0100
1000
0010
0001
0010
0001
0010
1000
0100
0010
0000
,
0100
1000
1001
0000
0010
0000
0100
1000
0001
0001
0000
0100
0100
0000
0010
0000
,
1001
0000
0001
0100
0001
0010
0100
1000
0000
1000
0000
0010
0100
0000
0110
0000
,
1001
0000
1000
0001
1000
0010
0100
0001
0000
0001
0000
0010
0100
0000
0110
0000
,
1001
0000
0001
1000
0001
0100
0010
1000
0000
1000
0001
0100
0010
0000
0110
0000
,
1001
0000
1000
0001
1000
0100
0010
0001
0000
0001
0000
1000
0010
0000
1010
0000
,
1001
0000
0001
1000
0001
0100
0010
1000
0000
1000
0001
0010
0100
0000
0110
0000
,
1001
0000
1000
0001
1000
0010
0100
0001
0000
0001
0000
1000
0100
0000
1100
0000
,
0001
0010
0001
0000
1100
0000
0000
0000
0001
0010
0001
0000
1100
0000
0000
0000
,
0110
0000
0110
0000
0010
1000
0000
0100
0000
0010
0000
0001
0100
0000
0110
0000
,
1001
0000
1000
0010
1010
0000
0001
0100
0001
0000
1001
0000
1000
0001
0100
0010
,
1010
0000
0001
0010
0100
0001
0100
0010
0001
0000
0000
1001
0000
0000
1010
0000
,
0010
0100
0001
0010
1000
0010
0001
0000
0010
0100
1000
0001
0100
0000
0000
0000
,
0010
1000
0100
0010
0100
1000
0001
0100
0010
0000
0000
0110
0000
0000
0101
0000
,
1001
0000
0000
1001
0000
0000
1000
0001
0100
1000
0100
0010
1000
0001
1000
0000
,
1001
0000
0000
1001
0000
0000
0001
1000
0010
0001
0010
0100
0001
1000
0001
0000
,
1001
0000
0000
1001
0000
0000
1000
0001
0010
1000
0010
0100
1000
0001
0100
0000
,
1001
0000
0000
1001
0000
0000
0001
1000
0100
0001
1000
0100
0010
1000
0001
0100
,
1001
0001
0010
0100
1001
1000
0100
0010
1001
0001
0100
0010
1001
1000
0010
0100
;
