#TITLE:私の彼は石油王(Y&Co.EURO OIL MIX);
#SUBTITLE:;
#ARTIST:キーヤキッスぱにっく;
#TITLETRANSLIT:WATASHI NO KARE WA SEKIYUOU(Y&Co.EURO OIL MIX);
#SUBTITLETRANSLIT:;
#ARTISTTRANSLIT:KEY-A-KISS PANIC;
#GENRE:;
#CREDIT:DigiMindAxel;
#BANNER:WATASHI NO KARE WA SEKIYUOU(Y&Co.EURO OIL MIX).png;
#BACKGROUND:WATASHI NO KARE WA SEKIYUOU(Y&Co.EURO OIL MIX)-bg.png;
#LYRICSPATH:;
#CDTITLE:SUPER EUROBEAT.png;
#MUSIC:WATASHI NO KARE WA SEKIYUOU(Y&Co.EURO OIL MIX).ogg;
#OFFSET:-4.786000;
#SAMPLESTART:60.268993;
#SAMPLELENGTH:12.000000;
#SELECTABLE:YES;
#BPMS:0.000000=160.000000
;
#STOPS:
;
#BGCHANGES:;
#KEYSOUNDS:;
#ATTACKS:;

//---------------dance-single - ----------------
#NOTES:
     dance-single:
     :
     Easy:
     7:
     0.364066,0.402895,0.310999,0.103666,0.000000,295.000000,259.000000,36.000000,12.000000,0.000000,0.000000,0.364066,0.402895,0.310999,0.103666,0.000000,295.000000,259.000000,36.000000,12.000000,0.000000,0.000000:
0000
0000
0000
0000
,
1000
0001
1000
0001
,
1000
0001
0100
0010
,
0100
0001
1000
0001
,
2002
0000
0000
3003
,
1000
0010
1000
0010
,
0100
0010
0100
0010
,
0100
0001
0100
0001
,
1000
0001
1000
0001
,
0010
0001
0010
0001
,
1000
0100
1000
0100
,
1000
0001
1000
0001
,
0200
0000
0000
0000
,
0310
0010
0010
1001
,
0100
0001
0100
0001
,
0100
0100
0100
1001
,
0010
1000
0010
1000
,
0010
0010
0010
1001
,
0100
0001
0100
0001
,
0100
0100
0100
1001
,
0010
0100
0010
1000
,
0001
0100
0001
0100
,
0010
0100
0010
1000
,
0100
0010
0001
0010
,
0100
1000
0100
0010
,
0001
1000
0001
1000
,
0010
0100
0010
1000
,
0100
0010
0001
0010
,
0100
1000
0100
0010
,
1001
0010
0001
0100
,
1001
0100
1000
0010
,
1001
0100
0010
1000
,
1001
0010
0100
0010
,
0100
0001
0010
0000
,
0100
1000
0100
0010
,
1001
0100
1001
0010
,
1001
0010
0100
0000
,
0001
0010
0001
0010
,
0011
0011
0011
0000
,
1000
0100
1000
0100
,
1000
0100
0010
0001
,
1000
0100
1000
0100
,
1100
1100
1100
0000
,
0010
0100
0001
0010
,
0001
1001
1000
1001
,
0100
0001
0100
0001
,
0101
0101
0101
0000
,
0010
0100
0001
1000
,
0001
1001
1000
1001
,
0010
1000
0010
1000
,
0010
0100
0010
0100
,
0002
0000
0000
0000
,
1003
0010
0100
0000
,
0001
1001
1000
1001
,
0010
0001
0100
0001
,
1000
1001
0001
1001
,
1000
0010
1000
0001
,
1000
1001
0001
1001
,
0001
0100
0010
1000
,
1001
0001
1001
0100
,
0010
1000
0100
0010
,
0001
0001
0100
0100
,
0020
0000
0230
0000
,
0310
0010
1000
1000
,
0002
0000
0203
0000
,
0310
0010
1000
1000
,
0020
0000
0230
0000
,
0301
0010
0100
1001
,
0001
0001
0100
0100
,
1001
0100
0010
0001
,
0100
0010
0100
2002
,
0000
0000
0000
3003
;

//---------------dance-single - ----------------
#NOTES:
     dance-single:
     :
     Medium:
     11:
     0.522034,0.526863,0.509693,0.017278,0.008639,423.000000,364.000000,59.000000,2.000000,0.000000,0.000000,0.522034,0.526863,0.509693,0.017278,0.008639,423.000000,364.000000,59.000000,2.000000,0.000000,0.000000:
0000
0000
0000
0000
,
1000
0001
1000
0001
,
0100
0010
0100
0010
,
1000
0001
1000
0001
,
1000
0000
0010
0000
0000
0100
0000
0000
0010
0000
0000
0100
0000
0000
0010
0000
,
1000
0100
0010
0000
0100
0000
1000
0000
,
0001
0100
0010
0000
0100
0000
0001
0000
,
0010
0100
1000
0000
0100
0000
0010
0000
,
0001
0100
1000
0100
,
0001
0010
0100
0000
0010
0000
0001
0000
,
1000
0010
0100
0000
0010
0000
1000
0001
,
0000
0001
0000
0001
0000
0001
0101
0000
,
1010
0101
1010
0101
,
1001
0000
0010
0001
0010
0000
1001
0000
,
0010
0100
0010
1000
0010
0100
0010
0000
,
1001
0000
0100
1000
0100
0000
1001
0000
,
0100
0001
0100
0010
0100
0001
0100
0000
,
1001
0000
0010
0001
0010
0000
1001
0000
,
0010
1000
0010
0100
0010
1000
0010
0000
,
1001
0000
0100
1000
0100
0000
1001
0000
,
0010
0100
0000
0100
0000
0001
0010
0100
,
1000
0001
0100
1000
,
0100
0001
0010
0100
,
0010
0100
0010
0000
0001
1000
0001
0000
,
1000
0010
1000
0000
0001
0100
0001
0000
,
1001
1000
0010
0001
,
0010
1000
0100
0010
,
0001
0100
0001
0000
1000
0001
1000
0000
,
0100
1000
0100
0000
0010
0100
0010
0000
,
1001
0000
0010
1000
0010
0000
1001
0000
,
1001
0000
0100
1000
0100
0000
1001
0000
,
1001
0000
0010
0001
0010
0000
1001
0000
,
1001
0010
0100
1000
,
1100
0000
0101
0000
0010
0100
0010
0000
,
0101
0000
1100
0000
0010
0001
0010
0000
,
1001
1001
1001
1001
,
1000
0001
0010
0100
1000
0000
0000
0000
,
0010
0100
0010
0000
0010
0100
0010
0000
,
1010
0000
1001
0000
1001
0000
0100
0010
,
0001
0010
0100
0010
,
0001
1000
0100
0000
1000
0001
0010
0000
,
0100
0010
0100
0000
0100
0010
0100
0000
,
0011
1001
1001
0010
,
0100
0000
1000
0001
0010
0000
0001
1000
,
0100
1100
0100
1001
,
0010
0100
0010
0000
0010
0100
0010
0000
,
1100
1001
1001
0100
,
0010
0000
0001
0010
0100
0000
0010
0000
,
0011
0110
1100
1001
,
0100
0000
0010
0000
0001
0010
0100
1000
,
0001
0000
0010
0000
0100
0000
1000
0010
,
0100
0001
0000
0001
0000
0001
0010
0100
,
0000
1000
0100
0010
0001
0000
0000
0000
,
0100
0010
0100
0010
0100
0000
1001
0000
,
0010
0100
0010
1000
0010
0100
0010
0000
,
1000
0001
1000
0001
1000
0000
1001
0000
,
0010
0001
0010
0100
0010
0001
0010
0000
,
0100
0010
0100
0010
0100
0000
1001
0000
,
0010
0100
0010
1000
0010
0100
0010
0000
,
1000
0001
1000
0001
1000
0000
1001
0000
,
0100
1000
0100
0010
0100
1000
0001
0000
,
0010
1001
0010
1001
,
1000
0100
0010
0000
0001
0010
0100
0000
,
0010
1001
0010
1001
,
0001
0010
0100
0000
1000
0100
0010
0000
,
0100
1001
0100
1001
,
1000
0100
0010
0000
0001
0010
0100
0000
,
0010
1001
0010
1001
,
0001
0100
0010
0000
1000
0010
0100
0000
,
1001
0010
0100
1001
,
1000
0100
0010
0001
1000
0000
2002
0000
,
0000
0000
0000
3003
;

//---------------dance-single - ----------------
#NOTES:
     dance-single:
     :
     Hard:
     13:
     0.640510,0.619838,0.621998,0.069111,0.215972,519.000000,447.000000,72.000000,8.000000,0.000000,0.000000,0.640510,0.619838,0.621998,0.069111,0.215972,519.000000,447.000000,72.000000,8.000000,0.000000,0.000000:
0000
0000
0000
0000
,
1000
0010
0000
0100
0000
0010
0000
0100
,
0000
0001
0000
1000
0000
0001
0000
1000
,
0000
0001
0000
0100
0000
0010
1000
0100
,
0000
0000
0011
0000
0000
1001
0000
0000
1100
0000
0000
0110
0000
0000
1001
0000
,
1000
0000
0010
0000
0100
0000
0010
0000
1000
0000
0000
1000
0000
0000
1000
0000
,
0000
0000
0001
0000
0100
0000
0010
0000
0100
0000
0000
0100
0000
0000
0100
0000
,
0000
0000
0001
0000
1000
0000
0100
0000
1000
0000
0000
1000
0000
0000
1000
0000
,
0000
0000
0002
0000
0000
0203
0000
0000
0320
0000
0000
2030
0000
0000
3001
0000
,
1001
0000
1000
0000
0000
0100
0000
0000
0001
0000
0000
0100
0000
0000
1000
0000
,
0000
0000
0001
0000
0000
0010
0000
0000
1000
0000
0000
0010
0000
0000
0001
0000
,
0000
0000
0100
0000
0000
0100
0000
0000
0010
0000
0000
0010
0000
0000
0100
0000
,
1001
1100
0011
1001
,
1000
0000
0000
0010
1000
0000
0000
0010
1000
0000
0000
0000
1001
0000
0000
0010
,
0100
0001
0100
1000
0100
0001
0100
1000
,
0100
0000
0000
0001
0010
0000
0000
0001
0010
0000
0000
0000
1001
0000
0000
0100
,
0010
1000
0010
0001
0010
1000
0010
0001
,
0010
0000
0000
1000
0100
0000
0000
1000
0100
0000
0000
0000
1001
0000
0000
0100
,
0010
1000
0010
0001
0010
1000
0010
0001
,
0010
0000
0000
1000
0100
0000
0000
1000
0100
0000
0000
0000
1001
0000
0000
0010
,
0100
0001
0100
1000
0100
0001
0100
1000
,
1001
0000
0010
0001
0010
0000
1001
0000
,
0100
0010
0000
0010
0000
1000
0010
1000
,
0100
0001
0100
1000
0010
0001
0010
1000
,
0100
0001
0100
1000
0010
0001
0010
1000
,
1001
0000
0100
1000
0100
0000
1001
0000
,
0010
0100
0000
0100
0000
0010
1000
0001
,
0010
1000
0010
0001
0100
1000
0100
0001
,
0010
1000
0010
0001
0100
1000
0100
0001
,
1001
0000
0010
0100
0010
0000
1100
0000
,
1001
0000
0100
0010
0100
0000
0110
0000
,
1001
0000
0010
0100
0010
1000
1010
0000
,
1002
0100
1003
0000
,
1001
0100
0010
0100
1000
0001
0100
0000
,
0100
0001
0100
0010
1000
0100
0010
0100
,
1100
1100
0011
0011
,
1001
0010
0100
1000
1001
0000
0000
0000
,
0001
0100
1000
0010
0001
0100
1000
0010
,
0001
0000
0011
0000
0011
0000
1000
0100
,
0002
0000
0103
1000
0001
0010
0001
1000
,
0001
0001
0101
0000
0001
0001
0101
0000
,
1000
0100
0001
0010
1000
0100
0001
0010
,
1000
0000
1100
0000
1100
0000
0001
0010
,
1000
0000
0010
1000
0100
1000
0010
1000
,
0100
0100
1100
0000
0100
0100
1100
0000
,
0001
0100
1000
0010
0001
0100
1000
0010
,
0001
0000
0101
0000
0101
0000
1000
0010
,
0001
0000
0010
0100
0001
0010
0100
0010
,
0001
0001
1001
0000
0001
0001
1001
0000
,
1000
0100
0001
0100
1000
0010
0100
0001
,
1000
0010
0001
0010
1000
0100
0010
0001
,
1000
0010
0000
0010
0000
0010
0100
0001
,
0000
0001
0010
0100
1000
0000
0000
0000
,
1001
0000
0000
0010
1000
0000
0000
0010
1000
0000
0000
0000
1001
0000
0000
0010
,
0100
0001
0100
1000
0100
0001
0100
1000
,
0100
0000
0000
0001
0010
0000
0000
0001
0010
0000
0000
0000
1001
0000
0000
0100
,
0010
1000
0010
0001
0010
1000
0010
0001
,
0010
0000
0000
1000
0100
0000
0000
1000
0100
0000
0000
0000
1001
0000
0000
0010
,
0100
0001
0100
1000
0100
0001
0100
1000
,
0100
0000
0000
0001
0010
0000
0000
0001
0010
0000
0000
0000
1001
0000
0000
0100
,
0010
1000
0010
0001
0010
1000
0100
0010
,
0001
0000
0000
0001
0100
0000
0000
0100
0010
0000
0000
0010
1000
0000
0000
0000
,
1010
0000
1000
0000
1001
0000
0000
0000
1010
0000
1000
0000
1001
0000
0000
1000
,
0010
0000
0000
0010
0100
0000
0000
0100
0001
0000
0000
0000
1001
0000
0000
0000
,
0011
0000
0001
0000
1001
0000
0000
0000
0011
0000
0001
0000
1001
0000
0000
0001
,
0100
0000
0000
0100
0010
0000
0000
0010
1000
0000
0000
0000
1001
0000
0000
0000
,
1100
0000
0100
0000
0110
0000
0000
0000
1100
0000
0100
0000
0110
0000
0000
0010
,
0001
0000
0000
0001
1000
0000
0000
1000
0100
0000
0000
0100
0010
0000
0000
0000
,
0101
0100
0110
0000
1010
0010
0110
0000
,
1001
0101
0110
1010
,
1000
0100
0001
0010
1000
0000
2002
0000
,
0000
0000
0000
3003
;

//---------------dance-single - ----------------
#NOTES:
     dance-single:
     :
     Beginner:
     2:
     0.119710,0.148480,0.034555,0.000000,0.000000,97.000000,93.000000,4.000000,0.000000,0.000000,0.000000,0.119710,0.148480,0.034555,0.000000,0.000000,97.000000,93.000000,4.000000,0.000000,0.000000,0.000000:
0000
0000
0000
0000
,
1000
0000
0000
0000
,
0000
0001
0000
0000
,
0000
1000
0000
0000
,
0000
0001
0000
0000
,
0000
0100
0000
0000
,
0000
0010
0000
0000
,
0000
0100
0000
0000
,
0000
0010
0000
0000
,
0000
0100
0000
0000
,
0000
0001
0000
0000
,
0000
1000
0000
0000
,
1001
0000
0000
0000
,
0001
0000
0000
0000
,
0010
0000
0000
0000
,
0001
0000
0000
0000
,
1000
0000
0000
0000
,
0100
0000
0000
0000
,
1000
0000
0000
0000
,
0001
0000
0000
0000
,
1000
0000
0000
0000
,
0010
0000
0010
0000
,
0010
0000
0000
0000
,
0100
0000
0100
0000
,
0100
0000
0000
0000
,
0001
0000
0001
0000
,
0001
0000
0000
0000
,
1000
0000
1000
0000
,
1000
0000
0000
0000
,
1001
0000
0000
0000
,
0010
0000
0000
0000
,
0001
0000
0000
0000
,
1000
0000
0000
0000
,
0100
0000
0000
0000
,
1000
0000
0000
0000
,
1001
0000
0000
0000
,
0010
0000
0010
0000
,
0001
0000
0001
0000
,
0001
0000
0000
0000
,
1000
0000
1000
0000
,
1000
0000
0000
0000
,
0010
0000
0010
0000
,
0010
0000
0000
0000
,
0100
0000
0100
0000
,
0100
0000
0000
0000
,
0001
0000
1000
0000
,
0001
0000
0000
0000
,
1000
0000
0001
0000
,
1000
0000
0000
0000
,
0010
0000
0100
0000
,
0010
0000
0100
0000
,
0010
0000
0000
1000
,
0000
0000
0000
0000
,
0001
0000
0000
0000
,
1000
0000
1000
0000
,
1000
0000
0000
0000
,
0010
0000
0010
0000
,
0010
0000
0000
0000
,
0100
0000
0100
0000
,
0100
0000
0000
0000
,
0001
0000
0001
0000
,
0001
0000
1000
0000
,
0001
0000
0001
0000
,
1000
0000
0010
0000
,
0100
0000
0100
0000
,
0010
0000
0100
0000
,
0001
0000
0001
0000
,
1000
0000
0001
0000
,
1000
0000
0000
1001
;

//---------------dance-single - ----------------
#NOTES:
     dance-single:
     :
     Challenge:
     16:
     0.888569,0.960749,0.742942,0.224610,0.721345,720.000000,634.000000,86.000000,26.000000,0.000000,0.000000,0.888569,0.960749,0.742942,0.224610,0.721345,720.000000,634.000000,86.000000,26.000000,0.000000,0.000000:
// measure 0
0000
0000
0000
0000
,  // measure 1
1000
0000
0001
0000
0000
0100
0000
0000
1000
0000
0000
0100
0000
0000
0010
0000
,  // measure 2
0000
0000
1000
0000
0000
0010
0000
0000
0001
0000
0000
0010
0000
0000
0100
0000
,  // measure 3
0000
0000
0001
0000
0000
0100
0000
0000
1000
0000
0000
0100
0000
0000
0010
0000
,  // measure 4
0000
0000
1001
0000
0000
1100
0000
0000
0110
0000
0000
0011
0000
0000
1001
0000
,  // measure 5
1000
0000
0010
0100
0000
0010
0100
0000
0001
0100
0000
0001
1000
0000
0100
0000
,  // measure 6
0000
0000
0010
0100
0000
0010
0100
0000
1000
0010
0000
1000
0001
0000
0100
0000
,  // measure 7
0000
0000
0001
1000
0000
0001
1000
0000
0100
0010
0000
0100
1000
0000
0001
0000
,  // measure 8
0000
0000
1010
0000
0000
0110
0000
0000
0101
0000
0000
1001
0000
0000
1100
0000
,  // measure 9
1001
0000
0010
0100
0000
0100
1000
0000
1000
0100
0000
0100
0010
0000
0001
0000
,  // measure 10
0000
0000
0100
0010
0000
0010
1000
0000
1000
0001
0000
0001
0100
0000
0010
0000
,  // measure 11
0000
0000
0100
0000
0001
0010
0001
0010
0100
1000
0100
1000
0010
0100
0010
0100
,  // measure 12
0001
0101
1010
0101
,  // measure 13
1001
0000
0100
0010
0001
0000
0001
0010
0100
0000
0000
0000
1001
0000
1000
0001
,  // measure 14
1000
0100
0001
0010
1000
0100
0001
0010
,  // measure 15
1000
0000
0100
0010
0001
0000
0001
0010
0100
0000
0000
0000
1001
0000
0001
1000
,  // measure 16
0001
0100
1000
0010
0001
0100
1000
0010
,  // measure 17
1001
0000
0010
0100
1000
0000
1000
0100
0010
0000
0000
0000
1001
0000
0001
0010
,  // measure 18
0001
0100
1000
0010
0001
0100
1000
0010
,  // measure 19
1001
0000
0100
0010
0001
0000
0001
0010
0100
0000
0000
0000
1001
0000
1000
0001
,  // measure 20
1000
0000
0100
1000
0100
0000
0010
0100
0010
0000
0001
0010
0001
0010
0100
1000
,  // measure 21
0001
0100
0001
0100
0001
0100
0010
1000
,  // measure 22
0100
1000
0100
1000
0100
0001
0100
1000
,  // measure 23
0001
0100
0010
0000
1000
0010
0100
0000
0001
0010
0100
1000
0010
0000
1000
0000
,  // measure 24
0001
0010
0100
0000
1000
0100
0010
0000
0001
0100
0010
1000
0100
0000
0010
0000
,  // measure 25
1001
0010
0001
0010
0001
0100
0010
1000
,  // measure 26
0010
1000
0010
1000
0100
0001
0100
1000
,  // measure 27
0001
1000
0010
0000
0100
0001
1000
0000
0001
0010
0100
1000
0010
0000
1000
0000
,  // measure 28
0100
0010
0001
0000
0010
0100
1000
0000
0010
0100
0010
0100
0001
1000
0100
0000
,  // measure 29
1001
0001
0100
0001
0100
0001
1100
0000
,  // measure 30
1001
1000
0100
1000
0100
1000
0101
0000
,  // measure 31
1001
0001
0010
0001
0010
0001
0101
0000
,  // measure 32
2001
0000
0100
0000
3001
0010
0100
1000
,  // measure 33
1001
0000
0001
0000
0010
0000
0100
0000
0010
0001
1000
0000
0010
0000
0000
0000
,  // measure 34
1000
0000
0010
0000
0001
0000
0010
0000
1000
0100
0010
0000
0001
0010
0100
0000
,  // measure 35
2020
3030
0202
0303
2020
3030
0202
0303
,  // measure 36
1001
0110
1001
0110
2002
0000
3003
0000
,  // measure 37
0001
1000
0010
0000
1000
0001
0010
0000
0001
1000
0010
0000
1000
0001
0010
0000
,  // measure 38
1100
0000
0000
0000
1001
0000
0000
0000
1001
0000
0000
0000
0001
0010
0100
1000
,  // measure 39
0020
0000
1030
0100
0001
1000
0100
0010
,  // measure 40
1000
0100
0010
0000
1001
0000
0000
0000
1000
0100
0010
0000
1001
0000
0000
0000
,  // measure 41
1000
0001
0010
0000
0001
1000
0010
0000
1000
0001
0010
0000
0001
1000
0010
0000
,  // measure 42
0101
0000
0000
0000
1001
0000
0000
0000
1001
0000
0000
0000
1000
0100
0010
0001
,  // measure 43
2000
0000
3001
0100
1000
0100
0010
1000
,  // measure 44
0001
0100
0010
0000
1001
0000
0000
0000
0001
0100
0010
0000
1001
0000
0000
0000
,  // measure 45
1000
0100
0010
0000
0100
1000
0010
0000
1000
0100
0010
0000
0100
1000
0010
0000
,  // measure 46
0101
0000
0000
0000
1001
0000
0000
0000
1001
0000
0000
0000
1000
0010
0100
0001
,  // measure 47
2000
0000
3001
0100
1000
0100
0010
1000
,  // measure 48
0001
0010
0100
0000
1010
0000
0000
0000
1000
0100
0010
0000
0101
0000
0000
0000
,  // measure 49
1001
0000
0100
0000
0010
0000
0001
0000
1000
0010
0100
0010
1000
0010
0100
0000
,  // measure 50
1001
0010
0100
1000
0001
0100
0001
1000
,  // measure 51
1100
0001
0000
0001
0000
0001
0100
0110
,  // measure 52
0000
1010
0110
0101
2002
0000
3003
0000
,  // measure 53
1001
0000
0100
1000
0010
0000
0010
1000
0100
0000
0000
0000
1001
0000
0001
1000
,  // measure 54
0100
0000
1000
0000
0010
0100
0010
0000
0100
0001
0100
0000
0010
1000
0010
0000
,  // measure 55
1000
0000
0010
0100
0001
0000
0001
0100
0010
0000
0000
0000
1001
0000
0100
0010
,  // measure 56
1000
0000
0100
0000
0010
0100
0010
0000
0001
0100
0001
0000
1000
0010
1000
0000
,  // measure 57
1001
0000
0010
0100
0001
0000
0001
0100
0010
0000
0000
0000
1001
0000
1000
0001
,  // measure 58
0010
0000
0100
0000
1000
0010
1000
0000
0001
0100
0001
0000
0100
0010
0100
0000
,  // measure 59
0001
0000
0010
0100
1000
0000
1000
0100
0010
0000
0000
0000
1001
0000
0010
0100
,  // measure 60
0001
0000
0010
0000
0100
0010
0100
0010
0001
0100
0001
0100
0010
1000
0100
0000
,  // measure 61
1001
0000
0100
0010
0001
0000
0001
0010
0100
0000
1000
0000
1001
0000
0010
0100
,  // measure 62
0001
0010
0001
0010
0100
1000
0100
1000
0010
0100
0010
0100
0001
0010
0100
0000
,  // measure 63
1001
0000
0100
0010
0001
0000
0001
0010
0100
0000
1000
0000
1010
0000
0100
0001
,  // measure 64
1000
0100
1000
0100
0010
0001
0010
0001
1000
0010
1000
0010
0100
0001
0010
0000
,  // measure 65
0011
0000
0100
1000
0010
0000
0010
1000
0100
0000
0010
0000
1001
0000
0100
0001
,  // measure 66
1000
0100
1000
0100
0010
0001
0010
0001
0010
0100
0010
0100
1000
0010
0100
0000
,  // measure 67
1001
0000
0001
0010
0100
0000
0100
0010
0001
0000
0100
0000
1001
0000
0010
0100
,  // measure 68
0001
0010
0001
0010
0100
1000
0100
1000
0010
0100
0010
0100
0001
1000
0100
0010
,  // measure 69
2002
3003
0022
0033
0220
0330
2200
3300
,  // measure 70
1001
0110
1001
0110
1001
0000
0220
0000
,  // measure 71
0000
0000
0000
0330
;
