#TITLE:Vanilla;
#SUBTITLE:;
#ARTIST:Gackt;
#TITLETRANSLIT:;
#SUBTITLETRANSLIT:;
#ARTISTTRANSLIT:;
#GENRE:;
#CREDIT:DigiMindAxel;
#BANNER:Vanilla.png;
#BACKGROUND:Vanilla-bg.png;
#LYRICSPATH:Vanilla.lrc;
#CDTITLE:DigiMindAxel original simfile.png;
#MUSIC:Vanilla.ogg;
#OFFSET:-0.108000;
#SAMPLESTART:54.019985;
#SAMPLELENGTH:21.360001;
#SELECTABLE:YES;
#BPMS:0.000000=178.000000
;
#STOPS:
;
#BGCHANGES:0.000=Vanilla.avi=1.000=1=0=1===CrossFade==,
99999=-nosongbg-=1.000=0=0=0 // don't automatically add -songbackground-
;
#KEYSOUNDS:;
#ATTACKS:;

//---------------dance-single - ----------------
#NOTES:
     dance-single:
     :
     Easy:
     7:
     0.337567,0.363449,0.105411,0.202038,0.000000,269.000000,257.000000,12.000000,23.000000,0.000000,0.000000,0.337567,0.363449,0.105411,0.202038,0.000000,269.000000,257.000000,12.000000,23.000000,0.000000,0.000000:
0000
0000
0000
0000
,
0000
0000
0000
0000
,
2002
0000
0000
3003
,
1000
0001
0010
0100
,
0010
0001
0100
0000
,
0010
0100
0010
1000
,
2002
0000
0000
3003
,
1000
0001
0010
0100
,
0010
0001
0100
0000
,
0010
0100
0010
0100
,
0001
0010
0001
0010
,
0100
1000
0001
0000
,
1000
0010
0100
0010
,
0100
0010
1000
0000
,
0001
0010
0100
0010
,
0100
0010
0001
0000
,
1000
1000
0001
0001
,
0010
0001
1000
0001
,
0010
0001
0020
0000
,
0130
1000
0200
0000
,
0310
0001
0020
0000
,
0130
1000
0100
0010
,
0001
0100
0010
0100
,
0010
0100
0001
0000
,
0010
0100
1000
0100
,
0010
0001
1000
0000
,
0001
1000
0100
1000
,
0100
1000
0001
0000
,
0100
0100
0010
0010
,
2000
0000
3002
0000
,
2003
0000
3000
0000
,
0001
0001
0100
0100
,
0002
0000
0203
0000
,
0302
0000
2003
0000
,
3020
0000
0030
0000
,
0100
0010
1000
0001
,
0010
0000
0001
0000
,
0200
0000
0320
0000
,
2030
0000
0000
0000
,
0000
0000
3001
0000
,
0010
0001
0010
0001
,
0100
0010
0100
0010
,
1001
0010
0100
0000
,
1001
0100
0010
0001
,
1000
0010
1000
0010
,
0100
0001
0100
0001
,
1001
0100
0010
0000
,
1001
0010
0100
0000
,
1000
0010
1000
0010
,
0100
0001
1000
0000
,
1001
0100
0010
0000
,
1001
0100
0010
0000
,
0001
0010
0001
0010
,
0100
1000
0001
0000
,
1001
0010
0100
0000
,
1001
0010
0100
0000
,
1000
0100
1000
0100
,
1000
0001
1000
0001
,
0010
0100
0010
0100
,
1000
0010
1000
0010
,
0100
0001
0100
0001
,
0010
0100
0010
0100
,
1000
0001
1000
0001
,
0100
0010
0100
0010
,
1000
0100
1000
0100
,
0010
0001
0010
0001
,
1000
0010
1000
0010
,
0100
0001
0100
0001
,
0010
0100
0010
0100
,
1000
0100
1000
0100
,
0010
0100
0010
0100
,
1000
0010
1000
0001
,
2002
0000
0000
3003
,
1000
0001
0010
0100
,
0010
0001
0100
0000
,
0001
0010
0100
1000
,
2002
0000
0000
3003
,
1000
0001
0010
0100
,
0010
0001
0100
0000
,
0010
0000
0010
0000
0000
1000
0001
2000
,
0000
0000
0000
0000
,
0000
0000
0000
0000
,
0000
0000
0000
3000
;

//---------------dance-single - ----------------
#NOTES:
     dance-single:
     :
     Challenge:
     12:
     0.495683,0.654208,0.641251,0.289881,0.004392,395.000000,322.000000,73.000000,33.000000,0.000000,0.000000,0.495683,0.654208,0.641251,0.289881,0.004392,395.000000,322.000000,73.000000,33.000000,0.000000,0.000000:
// measure 0
0000
0000
0000
0000
,  // measure 1
0000
0000
0000
0000
,  // measure 2
0200
0000
0000
0000
,  // measure 3
0300
0001
0001
0000
1000
1000
0000
0001
,  // measure 4
0010
0010
0000
0020
0000
0000
0030
0000
,  // measure 5
0000
0001
0001
1000
1000
0001
0001
0100
,  // measure 6
0200
0000
0000
0000
,  // measure 7
0300
0001
0001
0000
1000
1000
0000
0001
,  // measure 8
0010
0010
0000
0020
0000
0000
0030
0000
,  // measure 9
0000
0001
0100
0010
1000
0001
0100
0101
,  // measure 10
0000
0100
0010
1000
0001
0010
0001
0010
,  // measure 11
0001
0001
0000
0101
0000
0001
0100
0010
,  // measure 12
1000
1000
0000
1010
0000
1000
0001
0010
,  // measure 13
0001
0000
0010
0101
0000
0000
0000
0010
,  // measure 14
0001
1000
0000
0001
0100
0010
0100
0010
,  // measure 15
1000
0000
0000
1000
0000
0000
1010
0000
0000
0000
1000
0000
0001
0000
0010
0000
,  // measure 16
0100
0010
1000
0010
0001
0010
0001
0010
,  // measure 17
0100
0010
0001
0100
0110
0000
0101
0000
,  // measure 18
0001
0001
0000
0002
0000
0000
0003
0000
,  // measure 19
0100
0100
0000
0200
0000
0000
0300
0000
,  // measure 20
0010
0010
0000
0020
0000
0000
0030
0000
,  // measure 21
1000
1000
0001
0001
0100
0100
0001
0001
,  // measure 22
0100
0010
0000
1000
0001
0010
0001
0010
,  // measure 23
0001
0001
0000
0101
0000
0001
0100
0001
,  // measure 24
0100
1000
0100
1000
0100
1000
0001
1000
,  // measure 25
0001
1000
0000
0000
0000
0000
0000
0100
,  // measure 26
0001
0010
0001
0000
0100
0010
0100
0010
,  // measure 27
1000
1000
0000
1010
0000
1000
0001
0010
,  // measure 28
0001
0010
1000
0010
1000
0010
0001
0010
,  // measure 29
0002
0000
0203
0000
,  // measure 30
0320
0000
0000
0000
0030
0000
0000
1000
,  // measure 31
0001
0010
0001
0000
1000
0001
0100
0010
,  // measure 32
1000
0000
0001
0020
0000
0000
0030
0000
,  // measure 33
0002
0000
2003
0000
,  // measure 34
3020
0000
0030
0000
,  // measure 35
0100
0010
0100
0001
0100
0010
0100
0001
,  // measure 36
0100
0000
0000
0011
0000
0000
0000
0000
,  // measure 37
0110
0000
0101
0000
,  // measure 38
1001
0011
0011
0000
1010
1010
0000
0101
,  // measure 39
0000
0101
0000
0000
1010
0000
0000
0000
,  // measure 40
0110
0000
0000
0011
0000
0101
0000
1010
,  // measure 41
0000
0202
0000
0000
0303
0000
0000
0010
,  // measure 42
0001
0000
0000
0101
0000
0000
0000
0010
,  // measure 43
1000
0000
0000
1010
0000
0010
0100
0001
,  // measure 44
0110
0000
0000
1001
0000
0101
0000
0101
,  // measure 45
0000
2002
0000
0000
3003
0000
0000
0000
,  // measure 46
1010
0000
0010
0101
0000
0000
0000
0010
,  // measure 47
0101
0000
0000
1001
0000
0000
0000
0001
,  // measure 48
0011
0000
0100
0110
0000
0000
0001
0011
,  // measure 49
0000
2002
0000
0000
3003
0000
0000
0010
,  // measure 50
0100
0000
0000
0110
0000
0000
0000
0010
,  // measure 51
0001
0000
0000
0011
0000
1000
1010
0001
,  // measure 52
0101
0000
0000
0110
0000
0001
0010
0010
,  // measure 53
0000
0002
0000
0000
0003
0000
0000
0010
,  // measure 54
0001
0000
0000
1001
0000
0000
0000
0010
,  // measure 55
1000
0000
0000
0101
0000
0000
0000
0001
,  // measure 56
0101
0000
1000
1010
0000
0101
0000
0011
,  // measure 57
0000
2002
0000
0000
3003
0000
0000
0010
,  // measure 58
0100
0000
0000
0110
0000
0000
0000
0010
,  // measure 59
0001
0000
0000
0011
0000
0010
0001
0100
,  // measure 60
0101
0000
0000
1001
0000
0110
0000
1001
,  // measure 61
0000
0202
0000
0000
0303
0000
0000
0000
,  // measure 62
0011
0000
0010
0101
0000
0000
0000
0010
,  // measure 63
0110
0000
0000
1001
0000
0000
0000
1000
,  // measure 64
1010
0000
0001
0101
0000
0000
1000
1010
,  // measure 65
0000
0202
0000
0000
0303
0000
0000
0010
,  // measure 66
0001
0000
0000
0101
0000
0000
0000
0010
,  // measure 67
1000
0000
0000
1010
0000
0001
1000
0001
,  // measure 68
0110
0000
0000
0101
0000
0100
0010
0010
,  // measure 69
0000
2000
0000
0000
3000
0000
0000
0010
,  // measure 70
0100
0000
0000
1001
0000
0000
0000
0010
,  // measure 71
0001
0000
0000
0101
0000
0010
1000
0001
,  // measure 72
0200
0000
0000
0000
,  // measure 73
0300
0001
0001
0000
1000
1000
0000
0001
,  // measure 74
0010
0010
0000
0020
0000
0000
0030
0000
,  // measure 75
0000
0001
0001
1000
1000
0001
0001
0100
,  // measure 76
0200
0000
0000
0000
,  // measure 77
0300
0001
0001
0000
1000
1000
0000
0001
,  // measure 78
0010
0010
0000
0020
0000
0000
0030
0000
,  // measure 79
0001
0000
0100
0000
0000
0010
0010
0020
,  // measure 80
0000
0000
0000
0000
,  // measure 81
0000
0000
0000
0000
,  // measure 82
0000
0000
0000
0030
;

//---------------dance-single - ----------------
#NOTES:
     dance-single:
     :
     Hard:
     13:
     0.614898,0.726897,0.219606,0.562193,0.065882,490.000000,465.000000,25.000000,64.000000,0.000000,0.000000,0.614898,0.726897,0.219606,0.562193,0.065882,490.000000,465.000000,25.000000,64.000000,0.000000,0.000000:
0000
0000
0000
0000
,
0000
0000
0000
0000
,
1020
0100
0000
0130
,
0000
0001
0001
0100
0010
0010
1000
0100
,
0010
0001
0000
0120
0000
0000
1030
0000
,
0000
0001
0010
1000
0010
0001
1000
0100
,
0020
0001
0000
0031
,
0000
1000
1000
0010
0100
0100
0001
0010
,
0100
1000
0000
0120
0000
0000
1030
0000
,
0000
0000
0001
0000
0010
0000
1000
0000
0010
0000
0001
0100
0001
0000
0001
0000
,
1000
0100
1000
0001
0100
1000
0100
0001
,
0010
1000
0000
1010
0000
0001
0010
0001
,
0100
1000
0000
1100
0000
0001
0010
0001
,
1000
0000
0010
0100
0001
0000
1000
0001
,
1000
0100
1000
0001
0010
1000
0010
0001
,
1000
0100
0010
0001
0000
0001
0010
0100
,
1000
0001
0100
0001
1000
0001
0100
0001
,
1000
0000
0100
0000
0010
0000
0100
0000
1000
0000
0010
0100
0010
0000
0010
0000
,
2000
0100
0000
3002
0000
0000
0103
0000
,
0002
0010
0000
2003
0000
0000
3001
0000
,
0200
0010
0000
0302
0000
0000
1003
0001
,
0010
0001
0010
0000
0100
1000
0100
0000
1000
0000
0010
1000
0010
0000
0010
0000
,
1000
0100
1000
0001
0100
1000
0100
0001
,
0010
1000
0000
1010
0000
0001
0100
0001
,
0010
1000
0010
0001
1000
0100
0010
0001
,
0100
0020
0000
0000
0030
0000
1000
0001
,
1000
0100
1000
0001
0010
1000
0010
0001
,
0100
1000
0000
1100
0000
0010
0100
0010
,
1000
0001
0100
1000
0100
0001
0010
0000
,
1002
0013
2100
3001
,
2002
0000
0000
0000
3003
0000
0000
1000
,
0001
0010
1000
0010
0001
0010
0100
0010
,
0002
0103
2000
3100
,
0002
0013
2000
3010
,
2002
0000
0000
0000
3003
0000
0000
1000
,
0001
0100
1000
0100
0001
0100
0010
0100
,
0002
0000
0013
0100
1000
0000
0010
0000
,
0102
1003
2100
3001
,
1000
0001
0001
1000
0100
0100
1000
0001
,
0100
0001
1000
0000
1001
0000
0000
0000
,
0012
0000
1003
0100
1000
0001
0100
0001
,
0000
0000
2002
0000
0000
0000
0000
0000
3003
0000
0010
0000
0100
0000
1000
0010
,
2000
0000
0000
0000
0000
0000
3002
0000
0000
0000
0000
0000
1003
0000
0001
0100
,
0002
0000
0000
1003
0010
0001
0010
1000
,
0002
0000
0000
0103
0010
0100
0001
1000
,
0000
0000
2002
0000
0000
0000
0000
0000
3003
0000
0000
0000
0001
0000
0100
0010
,
0200
0000
0000
0000
0000
0000
0302
0000
0000
0000
0000
0000
1003
0000
0100
0010
,
0200
0000
0000
0000
0000
0000
2300
0000
0000
0000
0000
0000
3001
0000
0100
0001
,
0200
0000
0000
0301
0010
0001
1000
0010
,
0000
0000
2020
0000
0000
0000
0000
0000
3030
0000
0100
0000
0010
0000
0001
0100
,
0002
0000
0000
0000
0000
0000
2003
0000
0000
0000
0000
0000
3001
0000
0010
0001
,
0020
0000
0000
0031
0000
1000
0100
0010
,
0002
0000
0000
1003
0100
1000
0001
0100
,
0000
0000
0202
0000
0000
0000
0000
0000
0303
0000
0000
0000
1000
0000
0001
0010
,
0002
0000
0000
0000
0000
0000
2003
0000
0000
0000
0000
0000
3001
0000
0100
0010
,
0200
0000
0000
0320
0000
0000
0030
1000
,
0001
0010
0001
0100
0001
1000
0001
0100
,
0001
0010
0001
0100
0001
1000
0001
0010
,
0002
0000
1000
1003
0000
0100
1000
0100
,
0020
0000
0001
0031
0100
0010
0010
1000
,
1000
0001
0010
0001
0100
0001
1000
0001
,
0100
0001
0010
0001
0100
0001
1000
0001
,
0200
0000
0001
0301
0000
1000
0010
1000
,
0002
0000
0010
0013
0000
0100
0010
0100
,
1000
0001
0100
0001
0010
0001
0100
0001
,
1000
0001
0100
0001
0010
0001
1000
0010
,
0200
0000
0001
0301
0000
1000
0100
1000
,
0020
0000
0100
0130
0001
1000
1000
0001
,
0001
1000
0100
1000
0010
1000
0100
1000
,
0001
1000
0100
1000
0010
1000
0001
0010
,
0200
0000
1000
1300
0000
0010
0100
0010
,
2000
0000
0000
0000
0000
0000
3001
0000
0000
0000
0100
0010
0100
0000
0100
0000
,
2001
0100
0001
3100
,
0000
1000
1000
0100
0010
0010
0100
1000
,
0001
0100
0000
1002
0000
0000
0103
0000
,
0000
0001
0100
1000
0001
0010
1000
0001
,
2000
0100
0001
3100
,
0000
1000
1000
0010
0100
0100
0010
1000
,
0100
0010
0000
1002
0000
0000
0013
0000
,
0100
1000
0001
1000
0000
1100
1100
2002
,
0000
0000
0000
0000
,
0000
0000
0000
0000
,
0000
0000
0000
3003
;

//---------------dance-single - ----------------
#NOTES:
     dance-single:
     :
     Medium:
     10:
     0.417880,0.508828,0.298665,0.518271,0.000000,333.000000,299.000000,34.000000,59.000000,0.000000,0.000000,0.417880,0.508828,0.298665,0.518271,0.000000,333.000000,299.000000,34.000000,59.000000,0.000000,0.000000:
0000
0000
0000
0000
,
0000
0000
0000
0000
,
2002
0000
0000
3003
,
0000
0001
0001
0000
1000
1000
0000
0100
,
0010
0001
0000
0220
0000
0000
0330
0000
,
0000
0001
0010
0100
1000
0001
0100
0000
,
2002
0000
0000
3003
,
0000
0001
0001
0000
1000
1000
0000
0100
,
0010
0001
0000
0220
0000
0000
0330
0000
,
0000
0001
0100
0010
1000
0001
0100
0001
,
0000
1000
0000
1000
0000
0001
0000
0001
,
0000
0100
0000
0100
0000
0001
0100
0010
,
0000
0010
0000
0010
0000
1000
0000
1000
,
0000
0001
0000
0001
0000
0010
0001
1000
,
0000
1000
0000
1000
0000
0010
0000
0010
,
0000
0100
0000
0100
0000
0001
1000
0100
,
0000
0100
0000
0100
0000
0010
0000
0010
,
0000
0001
0000
0001
0000
1000
0100
0010
,
0001
0100
0000
0101
0000
0000
0000
0000
,
1000
0100
0000
1100
0000
0000
0000
0000
,
0010
0100
0000
0110
0000
0000
0000
0000
,
1001
0011
1100
0011
,
0000
1000
0000
1000
0000
0010
0000
0010
,
0000
0100
0000
0100
0000
0001
0010
0100
,
1000
0001
0000
0001
0000
0100
0000
0100
,
0000
0010
0000
0010
0000
1000
0000
1000
,
0001
0010
0000
0010
0000
0100
0000
0100
,
0000
1000
0000
1000
0000
0001
0100
0010
,
1000
0001
0000
0001
0000
1000
0000
1000
,
0002
0000
2003
0000
,
3020
0000
0000
0000
0030
0000
0000
1000
,
0100
1000
0001
0000
0100
0001
0100
0000
,
1002
0000
0023
0000
,
0230
0000
2300
0000
,
0002
0000
3003
0000
,
0001
1000
0100
0000
0010
0100
0010
0000
,
0102
0000
0000
2000
0000
0000
3003
0000
,
0200
0000
0320
0000
,
0030
1000
1000
0000
0001
0001
0000
0100
,
0000
0100
0000
0000
0110
0000
0000
0000
,
1002
0000
0000
0013
0000
0100
0000
1000
,
0000
2020
0000
0000
3030
0000
0000
1000
,
0002
0000
0000
0013
0000
0000
0000
0001
,
2000
0000
0000
3100
0000
0010
0000
0001
,
0100
0000
0000
0001
0000
0010
0000
0100
,
0000
2020
0000
0000
3030
0000
0000
0000
,
2001
0000
0000
3100
0000
0000
0000
1000
,
0002
0000
0000
0013
0000
0000
0000
0100
,
2000
0000
0000
3010
0000
0000
0100
0001
,
0000
2002
0000
0000
3003
0000
0000
0100
,
2000
0000
0000
3001
0000
0000
0000
0010
,
0002
0000
0000
1003
0000
0100
0000
0010
,
0002
0000
0000
0103
0000
0010
1000
0010
,
0000
2002
0000
0000
3003
0000
0000
1000
,
0002
0000
0000
0013
0000
0000
0000
0001
,
2000
0000
0000
3100
0000
0000
0000
1000
,
0001
0010
0000
0100
0000
1000
0010
0100
,
0000
2002
0000
0000
3003
0000
0000
0001
,
0100
0001
0000
1001
0000
0000
0000
1000
,
0100
1000
0000
1001
0000
0010
0000
0010
,
0100
0001
0000
0010
0100
1000
0000
1100
,
0000
2002
0000
0000
3003
0000
0000
0000
,
0001
0100
0010
0100
0000
0100
0000
0001
,
1000
0100
0000
2002
0000
0000
3003
0100
,
0010
1000
0000
0001
0000
0001
1000
0100
,
0000
2002
0000
0000
3003
0010
0000
0010
,
1000
0100
1000
0010
0000
0100
0000
0100
,
0001
0010
0000
0011
0000
0001
1000
0010
,
1000
0001
0000
0001
0000
0100
0010
0100
,
0000
2002
0000
0000
3003
0000
0000
0010
,
0100
0001
0000
0001
0000
1000
0000
0100
,
1000
0001
0000
0001
0000
1000
0100
0010
,
2002
0000
0000
3003
,
0000
0001
0001
0000
1000
1000
0000
0100
,
0010
0001
0000
0220
0000
0000
0330
0000
,
0000
0001
0010
0100
1000
0001
0100
0000
,
2002
0000
0000
3003
,
0000
0001
0001
0000
1000
1000
0000
0100
,
0010
0001
0000
0220
0000
0000
0330
0000
,
0001
0000
0001
0000
0001
0100
0100
2002
,
0000
0000
0000
0000
,
0000
0000
0000
0000
,
0000
0000
0000
3003
;

//---------------dance-single - ----------------
#NOTES:
     dance-single:
     :
     Beginner:
     2:
     0.127999,0.175411,0.035137,0.000000,0.000000,102.000000,98.000000,4.000000,0.000000,0.000000,0.000000,0.127999,0.175411,0.035137,0.000000,0.000000,102.000000,98.000000,4.000000,0.000000,0.000000,0.000000:
0000
0000
0000
0000
,
0000
0000
0000
0000
,
0001
0000
0000
0000
,
0100
0000
0000
0000
,
0000
0000
0000
0000
,
0010
0000
0000
0000
,
1000
0000
0000
0000
,
0100
0000
0000
0000
,
0000
0000
0000
0000
,
0010
0000
0000
0000
,
0001
0000
0000
0000
,
1000
0000
0000
0000
,
0001
0000
0000
0000
,
1000
0000
0000
0000
,
0100
0000
0000
0000
,
0100
0000
0000
0000
,
0010
0000
0000
0000
,
0010
0000
0000
0000
,
0001
0000
0000
0000
,
0100
0000
0000
0000
,
0001
0000
0000
0000
,
1000
0000
0000
0000
,
0100
0000
0100
0000
,
0100
0000
0000
0000
,
0010
0000
0010
0000
,
0010
0000
0000
0000
,
0001
0000
1000
0000
,
0001
0000
0000
0000
,
1000
0000
0100
0000
,
0010
0000
0010
0000
,
0001
0000
0000
0000
,
0100
0000
0010
0000
,
0100
0000
0001
0000
,
0010
0000
0100
0000
,
1000
0000
0000
0000
,
0001
0000
0100
0000
,
0001
0000
0001
0000
,
1000
0000
1000
0000
,
0100
0000
0000
0000
,
0000
0000
0000
0000
,
1001
0000
1000
0000
,
0001
0000
0000
0000
,
0100
0000
0000
0000
,
0010
0000
0000
0000
,
1000
0000
0001
0000
,
1000
0000
0000
0000
,
0100
0000
0000
0000
,
0010
0000
0000
0000
,
0001
0000
1000
0000
,
0001
0000
0000
0000
,
0010
0000
0000
0000
,
0100
0000
0000
0000
,
1000
0000
0001
0000
,
1000
0000
0000
0000
,
0100
0000
0000
0000
,
0010
0000
0000
0000
,
1001
0000
0001
0000
,
1000
0000
0000
0000
,
0100
0000
0000
0000
,
0010
0000
0000
0000
,
0001
0000
0100
0000
,
0010
0000
0000
0000
,
1000
0000
0000
0000
,
0001
0000
0000
0000
,
0010
0000
0001
0000
,
0100
0000
0000
0000
,
0010
0000
0100
0000
,
0010
0000
0000
0000
,
1000
0000
0010
0000
,
0100
0000
0000
0000
,
0001
0000
1000
0000
,
0001
0000
0000
0000
,
1001
0000
0000
0000
,
0100
0000
0000
0000
,
0010
0000
0000
0000
,
0001
0000
0010
0000
,
0100
0000
0000
0000
,
1000
0000
0000
0000
,
0010
0000
0000
0000
,
0100
0000
0000
0000
0000
0000
0000
1001
;
