#TITLE:Twinkle Wonderland;
#SUBTITLE:;
#ARTIST:Qrispy Joybox feat.Sana;
#TITLETRANSLIT:;
#SUBTITLETRANSLIT:;
#ARTISTTRANSLIT:;
#CREDIT:DigiMindAxel;
#BANNER:Twinkle Wonderland.png;
#BACKGROUND:Twinkle Wonderland-bg.png;
#LYRICSPATH:Twinkle Wonderland.lrc;
#CDTITLE:REFLEC BEAT.png;
#MUSIC:Twinkle Wonderland.ogg;
#METERTYPE:DDR X;
#OFFSET:-0.981;
#SAMPLESTART:11.167;
#SAMPLELENGTH:12.000;
#SELECTABLE:YES;
#BPMS:0.000=188.000;
#STOPS:;
#BGCHANGES:-4.000=Twinkle Wonderland.avi=1.000=1=1=0,
99999=-nosongbg-=1.000=0=0=0 // don't automatically add -songbackground-
;

//---------------dance-single - ----------------
#NOTES:
     dance-single:
     :
     Easy:
     5:
     0.235,0.299,0.098,0.225,0.000:
0000
0000
0000
0000
,
0000
0000
0000
0000
,
0000
0000
0000
0000
,
0000
0000
0000
0000
,
0000
0000
0000
0000
,
0000
0000
0000
0000
,
1001
0000
0001
0000
,
0000
0100
0000
0100
0000
0100
0000
0000
,
1001
0000
1000
0000
,
0001
0100
0001
0000
,
0010
0000
0100
0000
,
0010
0001
0010
0000
,
0100
0000
1000
0000
,
0010
0100
0010
0000
,
2001
0000
0000
0000
0000
0000
0000
0002
,
0000
0000
0000
3003
,
1000
0000
0100
0000
,
1000
0000
0100
0000
,
0010
0000
0100
0000
,
0010
0000
0001
0000
,
0100
0000
0010
0000
,
0100
0000
0010
0000
,
0100
0000
0001
0000
,
2000
0000
3000
0000
,
1001
0000
0000
0001
0000
0000
1000
0000
,
0000
0001
0000
0000
0000
0000
0000
0000
,
1001
0000
0000
1000
0000
0000
0001
0000
,
0000
1000
0000
0000
0000
0000
0000
0000
,
1001
0000
0000
0001
0000
0000
1000
0000
,
0000
0001
0000
0000
0000
0000
0000
0000
,
1001
0000
0000
1000
0000
0000
0002
0000
,
0000
0000
0103
0000
,
0020
0000
0000
0000
,
0230
0000
0000
0000
,
0302
0000
0000
0000
,
1003
0100
0010
0000
,
0002
0000
0000
0000
,
0203
0000
0000
0000
,
0320
0000
0000
0000
0000
0000
0000
0130
,
0000
0110
0000
0000
0000
0000
0000
0000
,
1000
0000
0000
0100
0000
0000
1000
0000
,
0000
0100
0000
0000
0000
0000
0000
0000
,
0010
0000
0000
0001
0000
0000
0010
0000
,
0000
0001
0000
0000
0000
0000
0000
0000
,
0100
0000
0000
0010
0000
0000
0100
0000
,
0000
0010
0000
0000
0000
0000
0000
0000
,
0100
0000
0000
0001
0000
0000
1000
0000
,
0000
0100
0000
0000
0000
0000
0000
0000
,
2000
0000
0000
0000
0000
0000
0000
3002
,
0000
0000
0000
0000
,
2003
0000
0000
0000
0000
0000
0000
3002
,
0000
0000
0000
0000
,
0023
0000
0000
0000
0000
0000
0000
0230
,
0000
0000
0000
0000
,
0310
0000
0110
0000
,
0000
1000
0000
1000
0000
1000
0000
0000
,
0001
0010
0001
0000
,
0010
0100
1000
0000
,
0010
0100
0010
0000
,
0100
0001
0010
0000
,
0100
0010
0100
0000
,
1000
0100
0010
0000
,
1002
0000
0000
0000
0000
0000
0000
2000
,
0000
0000
0000
3003
,
0001
0100
0001
0000
,
1000
0100
0010
0000
,
0100
1000
0100
0000
,
0010
0001
0100
0000
,
0010
0100
0010
0000
,
0100
0001
0010
0000
,
0200
0000
0000
1000
0000
0000
0000
2300
,
0000
0000
0000
0000
,
3002
0000
0000
0000
0000
0000
0000
0023
,
0000
0000
0000
0000
,
0230
0000
0000
0000
,
0000
0000
0000
0000
,
0000
0000
0300
0000
;

//---------------dance-single - ----------------
#NOTES:
     dance-single:
     :
     Medium:
     10:
     0.418,0.486,0.274,0.186,0.000:
0000
0000
0000
0000
,
0000
0000
0000
0000
,
0000
0000
0000
0000
,
0000
0000
0000
0000
,
0000
0000
0000
0000
,
0000
0000
0000
0000
,
0011
0000
0110
0000
,
0000
1100
0000
1100
0000
1100
0000
0000
,
0001
0100
0001
0000
1000
0100
1000
0000
,
0001
1000
0001
0000
0010
0000
0100
0000
,
1000
0010
1000
0000
0010
0100
0010
0000
,
0100
0001
0010
0000
0100
0000
1000
0000
,
0010
0100
0010
0000
0100
0001
0100
0000
,
0010
1000
0100
0000
0010
0000
0001
0000
,
0101
0000
0000
0110
0000
0000
0000
2020
,
0000
0000
0000
3030
,
1001
0000
1000
0000
0100
0010
0001
0100
,
0000
0100
0000
0000
0010
0000
1000
0000
,
0100
0000
0100
0000
0010
0001
1000
0010
,
0000
0000
0000
0000
0100
0010
0000
0000
,
0100
0000
0100
0000
0010
1000
0100
0010
,
0000
0010
0000
0000
0001
0000
0100
0000
,
0010
0000
0010
0000
1000
0100
0010
0001
,
0000
0001
0000
0100
0000
0000
0000
0000
,
0001
1000
0000
0001
0100
0000
0001
1000
,
0000
0001
0100
0000
0000
0000
0000
0000
,
0001
1000
0000
0100
1000
0000
0001
1000
,
0000
0100
1000
0000
0000
0000
0000
0000
,
0100
0010
0000
0001
0100
0000
0010
1000
,
0000
0100
0010
0000
0000
0000
0000
0000
,
0001
1000
0000
0100
0010
0000
1001
0000
,
0000
1001
0000
0000
1001
0000
0000
0000
,
1000
0010
0001
0010
,
1000
0100
0001
0100
,
1000
0001
0100
0001
,
1000
0001
1000
0000
0100
0010
0000
0000
,
0001
0010
1000
0010
,
0001
0100
1000
0100
,
0001
0000
0010
0000
0100
0000
1000
0010
,
0000
0110
0000
0000
0000
0000
0000
0000
,
0100
0001
0000
1000
0100
0000
0010
0001
,
0000
1000
0010
0000
0000
0000
0000
0000
,
1000
0001
0000
0010
0100
0000
1000
0001
,
0000
0010
0100
0000
0000
1100
0000
0000
,
0010
0001
0000
0100
0010
0000
1000
0100
,
0000
0010
0001
0000
0000
0000
0000
0000
,
0100
0010
0000
1000
0001
0000
1001
0000
,
0000
2002
0000
0000
0000
0000
3003
0000
,
0002
0000
0000
0000
0000
0000
0000
2003
,
0000
0000
0000
0000
,
3002
0000
0000
0000
0000
0000
0000
2003
,
0000
0000
0000
0000
,
3200
0000
0000
0000
0000
0000
0000
0320
,
0000
0000
0000
0000
,
0130
0000
0110
0000
,
0000
0101
0000
0101
0000
0101
0000
0000
,
0001
1000
0100
0000
0010
0100
0010
0000
,
0001
0100
1000
0100
,
0001
0010
0100
0000
0010
0001
0010
0000
,
0200
0000
1000
0000
1000
1300
0000
0000
,
0010
0100
0010
0000
0100
0001
0010
0000
,
0001
0010
1000
0010
,
1001
0000
0000
0101
0000
0000
0000
2002
,
0000
0000
0000
3003
,
1000
0100
0010
0000
0100
0010
0100
0000
,
1000
0001
0010
0000
0100
0000
1000
0000
,
0010
0100
0001
0000
1000
0100
0010
0000
,
0100
1000
0001
0000
0010
0000
0100
0000
,
0010
0001
0010
0000
0001
0010
0100
0000
,
1000
0001
0100
0000
0010
0000
1000
0000
,
1010
0000
0000
0110
0000
0000
0000
2002
,
0000
0000
0000
3003
,
0012
0000
0000
0000
0000
0000
0100
0200
,
0000
0000
0000
0303
,
0220
0000
0000
0000
,
0000
0000
0000
0000
,
0000
0000
0330
0000
;

//---------------dance-single - ----------------
#NOTES:
     dance-single:
     :
     Hard:
     13:
     0.599,0.748,0.450,0.538,0.000: // measure 1
0000
0000
0000
0000
,  // measure 2
0000
0000
0000
0000
,  // measure 3
0000
0000
0000
0000
,  // measure 4
0000
0000
0000
0000
,  // measure 5
0000
0000
0000
0000
,  // measure 6
0000
0000
0000
0000
,  // measure 7
1100
0000
1100
0000
,  // measure 8
0000
1001
0000
1001
0000
1001
0000
0000
,  // measure 9
1000
0010
0100
1000
0100
0010
1000
0001
,  // measure 10
0010
0100
0010
0001
1000
0010
0000
0000
,  // measure 11
1000
0100
0010
1000
0010
0100
1000
0002
,  // measure 12
0000
0000
0000
0000
0000
0013
0000
0000
,  // measure 13
0001
0100
0010
0001
0010
0100
0001
1000
,  // measure 14
0100
0010
0100
1000
0001
0100
0000
0000
,  // measure 15
2020
0000
3030
2002
0000
0000
3003
0202
,  // measure 16
0000
0000
0000
0303
,  // measure 17
1001
0000
1100
0000
0100
1000
0010
0100
,  // measure 18
0000
0110
0000
0000
0010
0100
0010
0100
,  // measure 19
0001
0000
1001
0000
1000
0100
0010
0002
,  // measure 20
0000
0000
0100
0000
0103
0010
0000
0000
,  // measure 21
1001
0000
0011
0000
0010
0001
0100
0010
,  // measure 22
0000
1010
0000
0000
0010
0100
0010
0100
,  // measure 23
0001
0000
1001
0000
1000
0100
0010
0001
,  // measure 24
0000
0011
0000
1002
0000
1000
0000
1003
,  // measure 25
0001
0001
0010
0100
0100
0010
0001
0001
,  // measure 26
1000
0020
0000
0000
0100
0000
0130
0000
,  // measure 27
0001
0001
0100
0010
0010
0100
0001
0001
,  // measure 28
0010
0200
0000
0010
0000
0010
0000
0310
,  // measure 29
0001
0001
1000
0010
0010
1000
0001
0001
,  // measure 30
0010
0200
0000
0000
0010
0000
0310
0000
,  // measure 31
0001
0001
1000
0100
0100
1000
2002
0000
,  // measure 32
3003
0022
0000
0033
2200
0000
3300
0000
,  // measure 33
1002
0100
1000
0103
,  // measure 34
0001
0100
1000
0100
0001
0010
0100
0000
,  // measure 35
2001
0010
0001
3010
,  // measure 36
0100
0001
0010
1000
0010
0001
0000
0000
,  // measure 37
2001
0100
0001
3100
,  // measure 38
1000
0010
0001
0010
1000
0100
0010
0000
,  // measure 39
1002
0000
0100
0000
1000
0000
0103
0010
,  // measure 40
0000
2002
0000
0000
0000
0000
3003
0000
,  // measure 41
1000
1000
0010
0100
0100
0001
0010
0010
,  // measure 42
0100
1000
0001
0100
0001
1000
0100
0000
,  // measure 43
0010
0010
0001
1000
1000
0010
0100
0100
,  // measure 44
0001
1000
1000
0100
0000
2002
0000
3003
,  // measure 45
0001
0001
0100
0010
0010
1000
0100
0100
,  // measure 46
1000
0010
0100
0010
1000
0001
0010
0000
,  // measure 47
0100
0100
1000
0010
0010
0000
2020
0000
,  // measure 48
3030
0202
0000
0000
0000
0000
0303
0000
,  // measure 49
1002
0000
0000
0000
0000
0000
1003
0200
,  // measure 50
0000
0000
0000
0300
,  // measure 51
2002
0000
0000
0000
0000
0000
3003
0220
,  // measure 52
0000
0000
0000
0000
0000
0000
0000
0330
,  // measure 53
2001
0000
0000
0000
0000
0000
3010
0200
,  // measure 54
0000
0000
0000
0300
,  // measure 55
0101
0000
0101
0000
,  // measure 56
0000
1001
0000
1001
0000
1001
0000
0000
,  // measure 57
0001
0010
0100
0001
0100
0010
0001
1000
,  // measure 58
0010
0001
0010
1000
0100
0010
0000
0000
,  // measure 59
0100
1000
0001
0100
1000
0100
0010
1000
,  // measure 60
0000
1000
0000
0010
0100
0001
0000
0000
,  // measure 61
1000
0100
0010
1000
0010
0100
1000
0001
,  // measure 62
0100
1000
0100
0001
0010
0100
0000
0000
,  // measure 63
0022
0000
0033
2200
0000
0000
3300
0220
,  // measure 64
0000
0000
0000
0330
,  // measure 65
0001
0100
1000
0001
0010
1000
0001
1000
,  // measure 66
0100
0010
0001
1000
0001
0010
0001
0000
,  // measure 67
1000
0100
0001
1000
0010
0001
1000
0001
,  // measure 68
0010
0100
1000
0001
1000
0100
1000
0000
,  // measure 69
0001
0010
1000
0010
0001
1000
0100
0001
,  // measure 70
0100
1000
0001
0010
0100
1000
0001
0000
,  // measure 71
0202
0000
0303
0220
0000
0000
0330
2020
,  // measure 72
0000
0000
0000
3030
,  // measure 73
2020
0000
0000
0000
3000
0000
0100
0200
,  // measure 74
0000
0000
0000
0330
,  // measure 75
2002
0000
0000
0000
,  // measure 76
0000
0000
0000
0000
,  // measure 77
0000
0000
3003
0000
;

//---------------dance-single - ----------------
#NOTES:
     dance-single:
     :
     Beginner:
     3:
     0.123,0.181,0.088,0.000,0.000:
0000
0000
0000
0000
,
0000
0000
0000
0000
,
0000
0000
0000
0000
,
0000
0000
0000
0000
,
0000
0000
0000
0000
,
0000
0000
0000
0000
,
1001
0000
0000
0000
,
0000
1000
0000
0000
0000
0000
0000
0000
,
0001
0000
1000
0000
,
0001
0000
0000
0000
,
1000
0000
0001
0000
,
1000
0000
0000
0000
,
0010
0000
0100
0000
,
0010
0000
0000
0000
,
0100
0000
0000
0000
,
0100
0000
0000
0000
,
0001
0000
0000
0000
,
0010
0000
0000
0000
,
0100
0000
0000
0000
,
1000
0000
0000
0000
,
0001
0000
0000
0000
,
0100
0000
0000
0000
,
0010
0000
0000
0000
,
0100
0000
0000
0000
,
1001
0000
0000
0000
,
0000
0000
0000
0000
,
0110
0000
0000
0000
,
0000
0000
0000
0000
,
1001
0000
0000
0000
,
0000
0000
0000
0000
,
0110
0000
0000
0000
,
0000
0000
0000
0000
,
1001
0000
0000
0000
,
1000
0000
0000
0000
,
0001
0000
0000
0000
,
1000
0000
0000
0000
,
0100
0000
0000
0000
,
1000
0000
0000
0000
,
0100
0000
0000
0000
,
1000
0000
0000
0000
,
0010
0000
0010
0000
,
0010
0000
0000
0000
,
0100
0000
0100
0000
,
0100
0000
0000
0000
,
0010
0000
0010
0000
,
0010
0000
0000
0000
,
0100
0000
0000
0100
,
0000
0100
0000
0000
0000
0000
0000
0000
,
1001
0000
0000
0000
,
0000
0000
0000
0000
,
0000
0000
0000
0000
,
0000
0000
0000
0000
,
0001
0000
0000
0000
,
0000
0000
0000
0000
,
1001
0000
0000
0000
,
0000
0001
0000
0000
0000
0001
0000
0000
,
0100
0000
0010
0000
,
0100
0000
0000
0000
,
0010
0000
1000
0000
,
0010
0000
0000
0000
,
1000
0000
0001
0000
,
1000
0000
0000
0000
,
0001
0000
0010
0000
,
0001
0000
0000
0000
,
0100
0000
0010
0000
,
0100
0000
0010
0000
,
0100
0000
0010
0000
,
0100
0000
0010
0000
,
1000
0000
0001
0000
,
1000
0000
0001
0000
,
1000
0000
0000
0000
0000
0000
0000
1001
,
0000
0000
0000
0000
,
0001
0000
0000
0000
0000
0000
0000
0010
,
0000
0000
0000
0000
,
0100
0000
0000
0000
;
