#TITLE:Time to Empress;
#SUBTITLE:;
#ARTIST:dj TAKA feat.wac & secret K;
#TITLETRANSLIT:;
#SUBTITLETRANSLIT:;
#ARTISTTRANSLIT:;
#CREDIT:DigiMindAxel;
#BANNER:Time to Empress.png;
#BACKGROUND:Time to Empress-bg.png;
#LYRICSPATH:Time to Empress.lrc;
#CDTITLE:beatmania IIDX.png;
#MUSIC:Time to Empress.ogg;
#METERTYPE:DDR X;
#OFFSET:-7.240;
#SAMPLESTART:81.781;
#SAMPLELENGTH:12.000;
#SELECTABLE:YES;
#BPMS:0.000=148.000;
#STOPS:;
#BGCHANGES:;

//---------------dance-single - ----------------
#NOTES:
     dance-single:
     :
     Beginner:
     5:
     0.216,0.273,0.132,0.000,0.000:
0001
0000
0001
0000
,
0010
0000
0100
0000
,
1000
0000
1000
0001
,
0000
0000
0001
0001
,
1001
0000
0010
0000
,
0001
1000
0001
0000
,
0100
0000
0010
0000
,
1000
0001
1000
0001
,
1000
0000
0010
0000
,
0100
0000
0001
0000
,
0010
0100
1000
0001
,
1000
0000
0000
0000
,
1001
0000
0001
0000
,
0010
0001
0010
0000
,
0001
0000
1000
0000
,
0100
1000
0100
1000
,
0100
0000
1000
0000
,
0010
0000
0100
0000
,
0110
0000
0110
0000
,
1001
0000
0000
0000
,
1001
0000
1000
0000
,
0100
1000
0100
0000
,
1000
0001
1000
0001
,
0010
0000
0000
0000
,
1001
0000
0001
0000
,
0010
0001
0010
0000
,
0001
1000
0001
1000
,
0100
1000
0100
1000
,
0001
0000
0110
0000
,
1001
0000
0000
0000
,
1001
0000
1000
0000
,
0010
1000
0010
0000
,
1000
0000
0001
0000
,
0010
0010
0001
0010
,
0100
1000
0100
0000
,
1000
0000
0001
0000
,
1000
0100
0010
0001
,
1000
0000
0110
0000
,
1001
0000
0001
0000
,
1000
0000
0001
0000
,
1000
0000
1000
0000
,
0010
0000
0010
0000
,
0100
0000
0100
0000
,
0001
0000
0001
0000
,
0010
0000
0010
0000
,
1001
0000
0000
0000
,
0001
0010
0100
1000
,
0010
0000
0010
0000
,
1000
0010
1000
0000
,
0001
0010
0100
1000
,
0010
0000
0010
0000
,
0100
0001
0100
0000
,
0001
1000
0001
1000
,
0001
0000
0000
0000
,
1001
0000
1000
1000
,
0010
0000
0100
0000
,
0010
0100
0010
0000
,
1000
0100
0010
0001
,
0100
0100
0100
0000
,
0001
1000
0001
0000
,
0010
0001
0010
0100
,
1000
1000
1000
1000
,
1001
0000
0001
0000
,
0010
0000
0001
0000
,
1000
0000
0100
0000
,
1000
0000
0000
0000
,
1001
0000
0000
0000
;

//---------------dance-single - ----------------
#NOTES:
     dance-single:
     :
     Medium:
     11:
     0.488,0.464,0.596,0.099,0.000:
1001
0000
1000
0100
0010
0000
0100
1000
,
0002
1000
2003
3001
,
1000
0010
0100
0000
0010
0100
0001
0001
,
0000
0100
0000
0100
0100
0000
0110
0000
,
1001
0011
1010
0011
,
0001
1000
0000
0200
0000
1300
0001
0000
,
0010
0100
1000
1000
0000
0000
0010
1000
,
0100
1100
0101
1100
,
1000
0001
1000
0000
0001
0100
0000
0100
,
0000
0001
1000
0000
1000
0001
0000
0100
,
0000
0001
0000
0100
0000
0010
1000
0200
,
0000
0000
0000
0300
,
1001
1100
0101
1100
,
1000
0001
0000
0200
0000
0301
1000
0000
,
0100
0010
0001
0001
0000
0000
0100
0001
,
0010
0011
1010
0011
,
0001
0001
0100
0000
0010
0010
0100
0000
,
0010
1000
1000
0100
0010
0001
0000
0000
,
0101
0100
0110
0010
,
1001
1001
1001
1001
,
0100
0010
1000
0001
0001
0010
0100
1000
,
0020
1000
1030
0001
,
0100
0010
0000
1000
0000
1000
0000
1000
,
0001
0100
0000
0100
0000
0000
0000
0000
,
0010
0100
0001
1000
1000
0100
0010
0000
,
0002
0100
0103
0010
,
1000
0001
0000
0020
0000
0031
1000
0100
,
1000
0100
0000
2000
0000
3100
0010
0000
,
0011
1010
0011
1010
,
1001
0000
0000
0000
,
1001
1010
1001
1010
,
1000
0100
0000
2000
0000
3100
0010
0000
,
0001
0100
0010
0010
0000
0000
0100
0010
,
1000
1001
0101
1001
,
0001
0010
0010
0000
0100
0010
0010
0000
,
0001
1000
1000
0001
0010
0100
0000
1000
,
0000
1000
0000
1000
0000
0100
0010
0001
,
0001
1001
0110
1001
,
0001
0010
0100
0000
1000
0100
0010
0000
,
0001
1000
0001
0010
0100
1000
0010
0000
,
1000
0100
0010
0000
0001
0010
0100
0000
,
1000
0001
1000
0100
0010
0010
0010
0000
,
1001
0000
0011
0000
0001
0100
0100
0000
,
1001
0000
1100
0000
1000
0001
0001
0000
,
0101
0110
1010
0110
,
1001
0000
0000
0000
,
1000
1100
1001
0101
,
0010
1000
0100
0100
0000
1000
0001
0000
,
0001
0011
1001
1010
,
0100
0001
0010
0010
0001
0010
0100
0000
,
1000
1010
1001
0011
,
0100
1000
0010
0000
1000
0001
0000
0001
,
0000
0101
0000
1001
0000
1000
0100
1000
,
0020
0000
0000
0030
,
1001
0101
0110
1010
,
1000
0001
0100
0001
0000
0010
0100
0000
,
1000
0001
0100
0020
0000
1030
0100
0010
,
0001
0100
0001
1000
0100
1000
0001
0000
,
1001
1010
0110
0101
,
0001
1000
0010
1000
0100
0010
0000
0001
,
0000
0011
0000
1001
0000
0100
1000
0100
,
0100
1100
0101
1100
,
1001
0000
0100
0000
0010
0001
0100
0000
,
0010
1000
0100
0000
1000
0100
0010
0000
,
0100
0010
0001
0000
0100
0001
0010
0100
,
0000
0100
0000
0100
0010
0010
0010
0000
,
1001
0000
0000
0000
;

//---------------dance-single - ----------------
#NOTES:
     dance-single:
     :
     Hard:
     13:
     0.608,0.519,0.373,0.166,0.190:
1001
0000
0010
0100
1000
0001
1000
0100
,
0020
0000
0001
0000
0100
0000
0031
1000
,
0001
0000
0010
0000
0001
0000
1000
0000
0100
0000
0000
1000
0001
0000
0001
0000
,
0000
0000
0100
0000
0000
0000
0100
0000
0010
0100
0010
0100
0010
0000
1000
0000
,
1001
0000
0000
1000
0100
0000
0000
1000
0001
0000
0000
0100
0001
0000
0000
1000
,
0100
0000
0000
0010
0000
0000
0002
0000
0000
0000
1003
0000
0100
0000
0001
0000
,
0100
1000
0001
0200
0000
0301
0010
0100
,
1000
0100
0001
0100
1000
0001
1000
0000
,
0010
0100
0010
1000
0100
0010
0000
0010
,
0100
1000
0001
0100
0001
1000
0000
1010
,
0000
0110
0000
1010
0000
0010
0100
0100
,
0000
0001
0000
0001
0010
0100
1000
0001
,
1001
0000
0000
0001
0010
0000
0000
0001
1000
0000
0000
0010
1000
0000
0000
0001
,
0010
0000
0000
0100
0000
0000
2000
0000
0000
0000
3001
0000
0100
0000
0001
0000
,
0010
1000
0010
0002
0000
1003
0100
1000
,
0001
0100
1000
0100
0001
0010
0100
1000
,
0010
0100
0010
1000
0100
0010
0000
0010
,
0001
0010
0100
1000
0010
0100
0000
1010
,
0000
0110
0000
0101
0000
1001
0100
0010
,
0110
1001
0110
1001
,
0010
0000
0100
0000
0001
0000
1000
0100
1000
0000
0100
0000
0010
0000
0001
0000
,
0100
0000
0001
0010
0001
0000
1000
0000
0000
0000
1000
0000
0100
0000
0010
0000
,
0001
0100
0000
0101
0000
0101
0000
0100
,
0001
2000
0000
3020
0100
0100
0100
0130
,
1001
0000
0100
0000
0010
0000
0001
0100
0001
0000
0010
0000
0100
0000
1000
0000
,
0010
0000
1000
0100
1000
0000
0001
0000
0000
0000
0001
0000
0010
0000
0100
0000
,
1000
0010
0000
1010
0000
0010
1000
0001
,
0010
0001
0000
0011
0000
0020
0001
0001
,
0031
0000
0100
0000
1000
0000
0100
0000
0001
0000
0010
0100
0010
0000
0100
0000
,
0220
0000
0000
0330
,
1001
0000
0000
1000
0010
0000
0000
0010
0100
0000
0000
0100
0001
0000
0000
0001
,
1000
0010
1000
0002
0000
1003
0100
0010
,
0001
0100
0010
0200
0000
0301
0010
0001
,
1000
0100
0010
0001
1000
0001
1000
0000
,
1001
0000
0100
0000
0010
0000
0001
0100
0001
0000
1000
0000
0000
0000
1000
0000
,
0001
0000
0010
0000
0100
0000
1000
0010
1000
0000
0001
0000
0000
0000
0011
0000
,
0000
0110
0000
0011
0000
0010
0100
1000
,
1001
0110
1001
0110
,
1000
0100
0010
0010
0001
0010
0001
1000
,
0000
0010
0100
0100
0001
0100
1000
0100
,
0000
0002
0010
0013
0000
0200
1000
1300
,
0001
0010
0100
1000
0020
0000
0000
0030
,
0100
0010
0100
0000
0001
0000
1000
0000
0100
0000
0010
0000
0001
0000
1000
0000
,
0010
0100
0010
0000
1000
0000
0001
0000
0010
0000
0100
0000
1000
0000
0001
0000
,
0010
0001
0010
0000
0100
0000
1000
0000
0001
0100
0001
0000
0010
0000
0100
0000
,
0220
0000
0000
0330
,
1001
0000
0000
1000
0010
0000
0000
0010
1000
0000
0000
1000
0001
0000
0000
0001
,
0100
0010
0100
0001
0000
0001
0010
0100
,
1000
0000
0010
1000
0010
0000
1000
0000
0000
0000
1000
0000
0100
0000
0010
0000
,
0001
1000
0100
0100
1000
0100
0010
0000
,
1001
0000
0000
0001
0100
0000
0000
0100
0001
0000
0000
0001
1000
0000
0000
1000
,
0010
0100
0010
1000
0001
1000
0000
1100
,
0000
0110
0000
1100
0000
0100
0010
0001
,
0000
0100
0000
0100
0010
0010
0010
0000
,
1001
0000
0000
1000
0100
0000
0000
0100
1000
0000
0000
1000
0001
0000
0000
0001
,
0100
0010
0100
0001
0000
0001
0100
0010
,
1000
0000
0100
1000
0100
0000
2000
0000
0000
0000
3001
0000
0010
0000
0100
0000
,
0010
0001
1000
0010
0100
0100
0001
0000
,
1001
0000
0000
0001
0010
0000
0000
0010
0001
0000
0000
0001
1000
0000
0000
1000
,
0010
0100
0001
0010
0001
0100
0000
0110
,
0000
1010
0000
0110
0000
0010
1000
0001
,
1001
0000
0110
0000
1001
1000
0100
0010
,
1001
0000
0010
0100
2000
0010
0000
3010
,
0100
0001
0010
0100
0020
0001
0000
0031
,
1000
0001
0010
0100
1000
0100
0010
0010
,
0000
0001
0000
1000
0010
0010
0010
1000
,
1001
0000
0000
0000
;

//---------------dance-single - ----------------
#NOTES:
     dance-single:
     :
     Easy:
     7:
     0.332,0.355,0.273,0.099,0.000:
1000
0001
1000
0001
,
0200
0000
0010
0000
,
0301
0000
1000
0000
0001
0000
1000
0010
,
0000
0000
0100
0100
,
0110
0001
1000
0001
,
0100
0000
0000
0020
0000
0000
0000
0000
,
1030
0001
1000
0000
,
0100
1000
0100
0010
,
0001
0001
1001
0000
,
0010
0100
1000
0000
,
0100
1000
0100
0010
,
0001
0000
0000
0000
,
0110
1000
0001
1000
,
0010
0000
0000
0200
0000
0000
0000
0000
,
0301
1000
0001
0010
,
0100
1000
1000
1000
,
1001
0100
0010
0001
,
1000
0001
0010
0100
,
1001
1000
0110
0001
,
1001
1000
1000
1000
,
1001
0010
0100
1000
,
0010
0001
0010
1000
,
0100
0000
0010
0000
0001
0000
0100
0020
,
0000
0000
1030
0000
,
1001
0100
0010
0001
,
0100
1000
0100
0001
,
0010
0100
1000
0001
,
1001
0010
0100
1000
,
1001
1001
0001
1000
,
0220
0000
0000
0330
,
1001
0100
0010
0001
,
2000
0000
0000
0001
0000
0000
3001
0000
,
0001
0010
0100
1000
,
0001
1001
1000
1001
,
0100
0010
0001
0100
,
0001
0100
0010
1000
,
0002
0000
0000
1000
0000
0000
1003
0000
,
1001
0001
1001
1000
,
1001
0100
0010
0001
,
0010
1000
0010
0001
,
0010
0100
1000
0100
,
0001
0100
1000
1001
,
1001
0200
0301
0010
,
0100
0020
0130
1000
,
0010
0100
0001
1001
,
1001
0000
0000
0000
,
1000
0100
0010
0001
,
2000
0000
0000
0010
0000
0000
3010
0000
,
0100
0001
0010
0100
,
1000
0110
0001
0110
,
1001
0001
1000
0000
,
1001
1000
0001
0000
,
0010
0100
1000
0010
,
0000
0000
0100
0100
,
1001
1000
0001
0010
,
0001
0100
0010
0100
,
0002
0000
0000
1000
0000
0000
1003
0000
,
0001
0010
0100
0010
,
1001
0001
1000
1000
,
0100
0000
0010
0000
0001
1000
0000
0000
,
0010
0100
0001
0010
,
1001
0001
1001
1000
,
1001
0010
0100
1000
,
0100
0001
0100
1000
,
0100
0010
0001
0010
,
1000
0010
0001
0001
,
1001
0000
0000
0000
;

//---------------dance-single - ----------------
#NOTES:
     dance-single:
     :
     Challenge:
     15:
     0.794,0.683,0.298,0.265,0.671: // measure 1
0001
0000
0000
0001
1000
0000
0000
1000
0100
0000
0000
0100
0010
0000
0000
0010
,  // measure 2
0002
0000
0100
0100
0203
0000
0310
1000
,  // measure 3
0100
0000
0000
0100
0010
0000
0000
0010
0001
0000
0000
0001
0100
0000
0110
0000
,  // measure 4
0000
0000
1000
0000
0000
0000
1000
0000
0001
1000
0001
1000
0001
0000
1000
0000
,  // measure 5
0010
0000
0000
0010
0100
0000
0000
0100
0001
0100
0001
1000
0100
0000
0010
0000
,  // measure 6
0001
0100
0000
0010
0000
0000
0200
0000
0000
0000
0301
0000
1000
0100
1000
0000
,  // measure 7
0001
0000
0010
0100
1000
0000
0020
0000
0000
0000
0130
0000
0001
0000
0010
0000
,  // measure 8
0100
0000
1000
0010
1000
0000
0001
0100
0001
0000
1000
0000
0100
0000
0010
0000
,  // measure 9
0001
0000
0001
0000
0001
0000
1000
0010
0100
0000
0020
0000
0000
0000
0130
0000
,  // measure 10
0001
0000
0010
0000
0100
0000
0010
0001
0100
0000
0020
0000
0000
0000
1030
0000
,  // measure 11
0000
1001
0000
1001
0000
1001
0001
0101
,  // measure 12
0000
0000
0100
0000
0000
0000
0100
0000
0010
0100
0010
0100
0010
0000
0100
0000
,  // measure 13
1001
0000
0000
1000
0100
0000
0000
0100
0010
0100
0010
0001
0010
0000
0100
0000
,  // measure 14
1000
0010
0000
0100
0000
0000
0020
0000
0000
0000
0130
0000
0001
0010
0001
0000
,  // measure 15
0100
0000
0010
1000
0100
0000
0020
0000
0000
0000
0031
0000
1000
0000
0100
0000
,  // measure 16
0010
0000
0001
0100
0001
0000
1000
0010
1000
0000
0100
0000
0010
0100
1000
0000
,  // measure 17
0010
0000
0010
0000
0010
0000
0100
0001
0010
0000
0200
0000
0000
0000
1300
0000
,  // measure 18
1001
0000
0001
0000
0001
0000
0100
0010
1000
0000
0020
0000
0000
0000
0130
0000
,  // measure 19
1001
0001
1000
0100
0011
0001
0100
0010
,  // measure 20
1010
0000
1000
0001
1000
0000
0001
0010
0001
0010
0100
1000
0100
0000
1000
0000
,  // measure 21
0110
0000
0010
0000
0010
0000
0100
0001
1000
0000
0100
1000
0100
0000
0010
0000
,  // measure 22
0001
1000
0010
1000
0001
0000
0020
0000
0000
0000
0031
0100
0010
0100
0001
1000
,  // measure 23
0100
0020
0000
0100
0000
0130
0000
0110
,  // measure 24
0010
1000
0000
0110
0100
0010
0001
0001
,  // measure 25
0110
0000
0100
0000
0100
0000
0010
1000
0100
0000
0010
0100
0010
0000
0001
0000
,  // measure 26
1000
0010
0100
0010
1000
0000
0020
0000
0000
0000
0130
0001
0010
0100
0010
0001
,  // measure 27
1000
0000
0020
0000
0000
0000
0100
0000
0000
0000
0130
0001
0010
0000
0100
0010
,  // measure 28
0100
2000
0000
3020
0100
0130
0001
0001
,  // measure 29
1000
0001
1000
0001
0010
0001
0010
0001
0100
0010
0100
0010
1000
0100
0010
0001
,  // measure 30
2000
0000
0000
0000
0000
0000
0000
0000
3001
0000
1000
0001
1000
0000
0001
0000
,  // measure 31
0101
0000
0000
0100
0010
0000
0000
0010
1000
0010
1000
0010
0100
0000
0001
0000
,  // measure 32
0010
0001
0000
0100
0000
0000
0120
0000
0000
0000
0130
0000
0001
0010
0100
1000
,  // measure 33
0010
0000
0100
0001
0010
0000
2100
0000
0000
0000
3001
0100
0001
0000
0100
0010
,  // measure 34
1000
0000
0001
1000
0001
0000
1000
0001
1000
0000
0100
0000
0010
0100
1000
0000
,  // measure 35
1001
0000
0001
0000
0001
0000
0010
0100
1000
0000
0020
0000
0000
0000
0130
0000
,  // measure 36
0001
0000
0010
0000
0100
0000
0010
0001
0100
0000
0020
0000
0000
0000
2030
0000
,  // measure 37
0000
0000
0001
0000
0000
0000
0001
0000
0000
0000
3001
1000
0100
0000
0010
0000
,  // measure 38
1001
0000
1000
0100
1000
0000
0001
0010
0001
0010
0100
1000
0100
1000
0010
0000
,  // measure 39
0200
0000
0301
1000
0100
0000
0010
0000
0001
0010
0001
0000
0010
0000
0100
1000
,  // measure 40
0000
0001
0200
0000
0010
0000
0310
0000
1000
0001
1000
0001
0010
0100
1000
0000
,  // measure 41
0000
0001
0100
0000
0001
0000
1000
0100
0000
1000
0001
0000
0100
0000
0010
0100
,  // measure 42
0000
0010
1000
0000
0001
0000
0010
0000
0200
0000
0010
0000
0010
0000
0310
0000
,  // measure 43
0001
1000
0010
1000
0002
0000
0013
0000
0100
1000
0000
0010
0000
0100
0000
0001
,  // measure 44
1000
0100
0010
0100
2000
0000
3010
0000
0100
0001
0000
0010
0000
0100
0000
1000
,  // measure 45
0001
0100
0010
0100
0001
1000
0000
0100
0010
0001
1000
0001
0010
0001
1000
0001
,  // measure 46
0020
0000
0000
0031
,  // measure 47
1001
0000
1000
0010
1000
0000
0010
0100
0010
0000
0100
0001
0100
0000
0001
0000
,  // measure 48
0010
0000
0100
0000
1000
0000
1020
0000
0000
0000
0130
0001
0100
0010
1000
0000
,  // measure 49
0001
0000
0100
0010
0100
0000
1002
0000
0000
0000
0013
0100
1000
0000
0010
0000
,  // measure 50
0100
0000
0100
0000
0001
0000
0001
0000
1000
0100
1000
0000
0010
0100
0010
0000
,  // measure 51
1001
0000
1000
0010
1000
0000
0001
0010
0001
0000
0100
0010
0100
0000
0001
0000
,  // measure 52
1000
0100
1000
0100
1000
0000
0010
0100
0001
0000
0100
0000
0000
0000
1010
0000
,  // measure 53
0000
0110
0000
0101
0000
1001
1000
1100
,  // measure 54
0000
0100
0000
0100
1000
1000
0010
0010
,  // measure 55
1001
0000
0001
0010
0001
0000
1000
0100
1000
0000
0010
0100
0010
0000
0100
0001
,  // measure 56
0010
0000
0100
0000
1000
0000
0020
0000
0000
0000
1030
0001
1000
0001
1000
0000
,  // measure 57
0100
0010
0001
0100
0010
0000
0200
0000
0000
0000
0301
0000
1000
0000
0010
0000
,  // measure 58
0100
0001
0100
0001
1000
0000
0100
0000
0010
0001
0010
0001
0100
0000
0010
0000
,  // measure 59
1001
0000
1000
0100
1000
0000
0010
0100
0010
0000
0100
0001
0100
0000
0010
0000
,  // measure 60
1000
0001
1000
0001
1000
0000
0100
0000
0010
0100
0010
0000
0000
0000
0101
0000
,  // measure 61
0000
0110
0000
1010
0000
1001
0001
0100
,  // measure 62
0110
0000
0010
1000
0010
0000
1000
0001
1000
0001
0010
0001
0010
0001
1000
0010
,  // measure 63
0100
0000
0001
0000
0010
0000
0001
0000
0100
0000
0010
0100
0010
0000
1000
0010
,  // measure 64
1000
0000
0100
0000
0010
0000
0100
0000
1000
0000
0001
0100
0001
0000
0100
0010
,  // measure 65
0100
0010
1000
0100
0010
0100
1000
0001
,  // measure 66
0000
0001
0000
0001
0100
0100
0010
0010
,  // measure 67
1001
0000
0000
0000
;
