#TITLE:TRUTH;
#SUBTITLE:;
#ARTIST:凛;
#TITLETRANSLIT:;
#SUBTITLETRANSLIT:;
#ARTISTTRANSLIT:RIN;
#GENRE:;
#CREDIT:DigiMindAxel;
#BANNER:TRUTH.png;
#BACKGROUND:TRUTH-bg.png;
#LYRICSPATH:TRUTH.lrc;
#CDTITLE:DigiMindAxel original simfile.png;
#MUSIC:TRUTH.ogg;
#OFFSET:0.541000;
#SAMPLESTART:62.074009;
#SAMPLELENGTH:12.000000;
#SELECTABLE:YES;
#BPMS:0.000000=170.000000
;
#STOPS:
;
#BGCHANGES:;
#KEYSOUNDS:;
#ATTACKS:;

//---------------dance-single - ----------------
#NOTES:
     dance-single:
     :
     Easy:
     6:
     0.271520,0.300261,0.101098,0.090988,0.000000,188.000000,178.000000,10.000000,9.000000,0.000000,0.000000,0.271520,0.300261,0.101098,0.090988,0.000000,188.000000,178.000000,10.000000,9.000000,0.000000,0.000000:
0000
0000
0000
0000
,
0000
0000
0000
0000
,
0000
0000
0000
0000
,
0001
1000
0100
0000
,
1000
0001
0100
0000
,
0001
1000
0001
1000
,
0001
0010
0001
0000
,
1000
0001
0010
0000
,
0001
1000
0100
0000
,
2000
0000
3100
0000
,
0020
0000
0031
0000
,
0100
0010
1000
0000
,
0010
0100
0001
0000
,
1000
0001
1000
0001
,
1000
0100
1000
0000
,
0001
1000
0100
0000
,
1000
0001
0010
0000
,
0002
0000
0013
0000
,
0200
0000
1300
0000
,
0010
0000
0010
0000
,
0100
0010
0100
0001
,
1000
0000
1000
0000
,
0001
0010
0100
1000
,
0001
0000
0001
0000
,
0100
0010
0100
0001
,
1000
0000
1000
0000
,
0100
1000
0100
0010
,
0001
0100
0001
1000
,
0100
0000
0000
0000
,
1001
0000
1000
0001
,
1000
0000
0100
0000
,
0010
0001
0010
0000
,
0001
1000
0001
0000
,
0100
0010
0100
0000
,
0001
0100
0001
0000
,
1000
0001
1000
0000
,
1001
0000
1001
0000
,
0010
0100
0010
0000
,
0100
0001
0100
0000
,
0001
1000
0001
0000
,
1000
0100
1000
0000
,
1001
0000
0001
0000
,
0110
0000
0100
0000
,
0110
0000
0110
0000
,
2002
0000
0000
3003
,
1001
0000
1000
0100
,
0010
0000
0001
0000
,
0100
0010
0100
0001
,
0100
0010
0100
0000
,
0001
0010
0100
1000
,
0001
0010
0100
0000
,
0010
0001
0010
0001
,
1000
0100
0010
0001
,
1000
0010
1000
0000
,
0001
1000
0001
0000
,
0010
0001
0010
0001
,
0100
0010
0100
0000
,
0010
1000
0010
1000
,
0001
0010
0100
1000
,
0002
0000
1000
0000
,
1003
0000
0000
0000
,
0001
1000
0001
1000
,
0001
0010
0001
0000
,
1000
0000
0001
0000
1000
0000
0000
2002
,
0000
0000
0000
0000
,
0000
0000
0000
0000
,
3003
0000
0000
0000
;

//---------------dance-single - ----------------
#NOTES:
     dance-single:
     :
     Medium:
     11:
     0.534375,0.600522,0.738015,0.323513,0.015165,370.000000,297.000000,73.000000,32.000000,0.000000,0.000000,0.534375,0.600522,0.738015,0.323513,0.015165,370.000000,297.000000,73.000000,32.000000,0.000000,0.000000:
0000
0000
0000
0000
,
0000
0000
0000
0000
,
0000
0000
0000
0000
,
0001
0100
0001
0100
0010
0000
1000
0000
,
0100
1000
0100
1000
0001
0000
0010
0000
,
0100
0010
0100
0010
0001
0000
0100
0000
,
0010
1000
0000
0010
1000
0000
1000
0000
,
0001
0010
0001
0010
0100
0000
0010
0000
,
0001
0100
0001
0100
0010
0000
1000
0001
,
2000
0000
0000
0100
3100
0000
0000
1000
,
0002
0000
0000
0100
0103
0000
0000
0000
,
0001
1000
0001
1000
0100
0000
0010
0000
,
0100
1000
0100
1000
0010
0000
0100
0000
,
0001
1000
0100
0000
0010
0001
1000
0000
,
0010
0100
0000
0010
0100
0000
0100
0000
,
0001
1000
0100
1000
0001
0000
0010
0000
,
0100
0010
0001
0000
1000
0000
0010
0100
,
0020
0000
0000
1000
1030
0000
0000
0001
,
0200
0000
0000
0010
0310
0000
0000
0000
,
1001
1100
0011
1100
,
1001
0110
1001
0110
,
0001
0010
0100
1000
0001
0000
1001
0000
,
1010
1010
0101
0101
,
1001
1100
0011
1100
,
0011
1001
0110
1001
,
1000
0010
0100
0001
0100
0000
1001
0000
,
0101
0101
1010
1010
,
1001
0011
0110
1100
,
1001
0000
0000
1000
0000
0000
1000
0000
0010
0000
0000
0000
0000
0000
0000
0000
,
1001
0000
0001
0100
0010
0100
0001
0000
,
1000
0100
0010
0100
1000
0000
0001
0000
,
0100
0101
0010
0110
,
0001
0010
0100
2000
0000
0000
3000
0000
,
0001
0011
0011
1100
,
1100
0000
1001
0000
1001
0000
0000
1000
,
0001
0010
0100
1000
0010
0100
0000
0001
,
1001
1001
0110
0110
,
1001
0000
0001
1000
0100
1000
0001
0000
,
1000
0010
0100
0001
0010
0000
0000
0001
,
1000
1100
0010
0011
,
0001
0100
0010
2000
0000
0000
3000
0000
,
1001
1001
1100
1100
,
0110
0110
0011
0011
,
1002
0000
0000
1000
2003
0000
0000
0010
,
3010
0000
0000
0000
1000
0100
0010
0001
,
1001
0000
0001
0010
0100
0010
0001
0000
,
1000
0000
0010
0100
0001
0100
0010
0000
,
1001
0110
1001
1001
,
0001
0010
0200
2000
0000
0000
3300
0000
,
2001
3200
0320
0032
,
2003
0000
3020
0000
0230
0000
0300
0001
,
1000
0000
0001
0100
0010
0100
0001
0000
,
1001
1010
0110
0101
,
1001
0000
1000
0010
0100
0010
1000
0000
,
0001
0000
0010
0100
1000
0100
0010
0000
,
0201
0320
2030
3002
,
1003
0100
0020
0002
0000
0000
0033
0000
,
2001
3020
0230
0302
,
0023
0230
2300
3001
,
0100
0000
0000
0100
0000
0000
0100
0000
0010
0000
0000
0010
0000
0000
0010
0000
,
1001
0000
0000
0000
,
1000
0010
0100
0010
1000
0100
0010
0000
,
0001
0101
1000
1100
,
0001
0100
0010
0100
0001
0010
0100
2020
,
0000
0000
0000
0000
,
0000
0000
0000
0000
,
3030
0000
0000
0000
;

//---------------dance-single - ----------------
#NOTES:
     dance-single:
     :
     Hard:
     13:
     0.648471,0.733971,0.495380,0.323513,0.272964,449.000000,400.000000,49.000000,32.000000,0.000000,0.000000,0.648471,0.733971,0.495380,0.323513,0.272964,449.000000,400.000000,49.000000,32.000000,0.000000,0.000000:
// measure 0
0000
0000
0000
0000
,  // measure 1
0000
0000
0000
0000
,  // measure 2
0000
0000
0000
0000
,  // measure 3
1000
0001
0010
0001
1000
0010
0000
0100
,  // measure 4
0001
0010
0100
0010
0001
1000
0000
0010
,  // measure 5
1000
0001
0010
0100
0010
0001
0000
0001
,  // measure 6
0100
0020
0000
1030
0002
0000
1003
0000
,  // measure 7
0001
1000
0010
1000
0001
0010
0000
0100
,  // measure 8
0010
0001
0100
0010
1000
0100
0010
0001
,  // measure 9
2000
0000
0000
0010
3020
0000
0030
1000
,  // measure 10
0002
0000
0000
0100
0103
0001
0010
0100
,  // measure 11
1000
0001
0100
1000
0100
0010
0000
1000
,  // measure 12
0001
0010
1000
0010
0100
1000
0000
0001
,  // measure 13
1000
0100
0001
1000
0100
0010
0000
0010
,  // measure 14
1000
0002
0000
0103
0020
0000
0130
0000
,  // measure 15
0001
0100
1000
0100
0010
1000
0000
1100
,  // measure 16
0000
0000
0011
0000
0000
0000
0120
0000
0000
0000
0000
0000
1030
0000
0001
0010
,  // measure 17
0002
0000
0000
0000
0000
0000
0100
0000
0103
0000
0000
0000
0000
0000
0010
0100
,  // measure 18
0020
0000
0000
1000
1030
0001
0010
0100
,  // measure 19
1001
0000
0002
0000
2003
0000
3001
0100
,  // measure 20
1000
0100
0001
0010
0000
0100
1000
0001
,  // measure 21
0100
0001
1000
0100
0010
0001
0101
0000
,  // measure 22
0110
1100
0011
0110
,  // measure 23
1001
0000
2000
0000
3002
0000
1003
0010
,  // measure 24
0001
0010
1000
0100
0000
0010
0001
1000
,  // measure 25
0010
1000
0001
0010
0100
0010
0101
0000
,  // measure 26
1001
0011
1100
0011
,  // measure 27
1001
0100
0011
0000
1001
0010
1100
0000
,  // measure 28
1001
0000
0000
0101
0000
0000
1010
0000
2002
0000
0000
0000
3003
0000
0000
0000
,  // measure 29
0001
0010
0100
1000
0000
0002
0000
1003
,  // measure 30
0010
0000
0001
0000
0010
0000
1000
0000
0001
0000
0000
0000
0000
0000
0100
0010
,  // measure 31
0100
0000
0000
0100
0001
0000
0000
0001
1000
0000
0000
1000
0100
0000
0000
0100
,  // measure 32
0010
0001
1000
0010
0001
0010
1000
0000
,  // measure 33
1001
0000
0000
0001
0010
0000
0000
0010
0100
0000
0000
0100
1000
0000
0000
1000
,  // measure 34
0010
0000
0000
0010
0100
0000
0000
0100
0010
0000
0000
0000
0000
0000
1000
0001
,  // measure 35
1000
0010
0001
0010
1000
0100
1000
0001
,  // measure 36
1001
0110
0101
1010
,  // measure 37
1001
0010
0100
1000
0000
0002
0000
1003
,  // measure 38
0010
0000
0001
0000
0010
0000
1000
0000
0001
0000
0000
0000
0000
0000
0010
0100
,  // measure 39
0010
0000
0000
0010
0001
0000
0000
0001
0100
0000
0000
0100
0010
0000
0000
0010
,  // measure 40
1000
0100
0001
0100
1000
0001
0010
0000
,  // measure 41
1001
0000
0000
1000
0010
0000
0000
0010
0100
0000
0000
0100
0001
0000
0000
0001
,  // measure 42
0010
0000
0000
0010
0100
0000
0000
0100
1000
0000
0000
1000
0001
0000
0000
0000
,  // measure 43
0102
0000
0000
1003
1100
0010
0001
0100
,  // measure 44
0220
0000
0000
0000
0330
0000
0001
1000
0001
0000
0010
0000
0100
0000
1000
0000
,  // measure 45
0001
0100
0010
1000
0000
0002
0000
1003
,  // measure 46
0100
0000
0001
0000
0100
0000
1000
0000
0010
0000
0100
0000
0010
0000
1000
0001
,  // measure 47
1000
0000
0000
1000
0010
0000
0000
0010
0100
0000
0000
0100
0002
0000
0000
0000
,  // measure 48
1003
0100
1000
0010
0100
0001
0010
0000
,  // measure 49
1001
0000
0000
0001
0100
0000
0000
0100
0010
0000
0000
0010
1000
0000
0000
1000
,  // measure 50
0001
0000
0000
0001
0010
0000
0000
0010
0200
0000
0000
0000
0300
0000
1000
0001
,  // measure 51
1000
0010
0100
0010
1000
0002
0000
0103
,  // measure 52
1001
0010
1100
0000
1001
0100
0011
0000
,  // measure 53
1001
0010
0100
1000
0000
0002
0000
0103
,  // measure 54
0001
0000
0010
0000
1000
0000
0010
0000
0001
0000
1000
0000
0001
0000
0100
0010
,  // measure 55
0100
0000
0000
0100
0010
0000
0000
0010
1000
0000
0000
1000
0002
0000
0000
0000
,  // measure 56
0013
0100
1000
0010
0100
0010
1000
0000
,  // measure 57
1001
0000
0000
1000
0100
0000
0000
0100
0010
0000
0000
0010
0001
0000
0000
0001
,  // measure 58
0100
0000
0000
0100
0010
0000
0000
0010
2000
0000
0000
0000
3001
0000
0100
0010
,  // measure 59
1000
0000
0000
1010
0000
0000
0110
0000
0101
0000
0000
0101
0000
0000
0110
0000
,  // measure 60
2002
0000
0000
3003
,  // measure 61
0010
0001
1000
0000
0010
0000
0001
0000
0010
0000
1000
0000
0100
0000
0010
0000
,  // measure 62
0001
1000
1010
0000
0100
0001
0011
0000
,  // measure 63
0100
1000
0001
0000
0100
0000
1000
0000
0100
0000
0001
0000
0010
0000
2200
0000
,  // measure 64
0000
0000
0000
0000
,  // measure 65
0000
0000
0000
0000
,  // measure 66
3300
0000
0000
0000
;

//---------------dance-single - ----------------
#NOTES:
     dance-single:
     :
     Beginner:
     2:
     0.099654,0.193729,0.080878,0.000000,0.000000,69.000000,61.000000,8.000000,0.000000,0.000000,0.000000,0.099654,0.193729,0.080878,0.000000,0.000000,69.000000,61.000000,8.000000,0.000000,0.000000,0.000000:
0000
0000
0000
0000
,
0000
0000
0000
0000
,
0000
0000
0000
0000
,
1000
0000
0000
0000
,
0100
0000
0000
0000
,
1000
0000
0000
0000
,
0000
0000
0000
0000
,
0001
0000
0000
0000
,
1000
0000
0000
0000
,
0001
0000
0000
0000
,
0000
0000
0000
0000
,
0100
0000
0000
0000
,
0001
0000
0000
0000
,
0100
0000
0000
0000
,
0000
0000
0000
0000
,
0010
0000
0000
0000
,
0100
0000
0000
0000
,
0010
0000
0000
0000
,
0000
0000
0000
0000
,
1001
0000
0000
0000
,
0000
0000
0000
0000
,
0000
0000
0000
0000
,
0001
0000
1000
0000
,
0001
0000
0000
0000
,
0000
0000
0000
0000
,
0010
0000
0000
0000
,
0100
0000
0000
0000
,
1000
0000
0010
0000
,
1000
0000
0000
0000
,
1001
0000
0000
0000
,
0001
0000
0000
0000
,
0100
0000
0100
0000
,
0010
0000
0000
0000
,
1000
0000
0000
0000
,
0100
0000
0000
0000
,
0010
0000
0000
0000
,
0001
0000
0000
0000
,
1001
0000
0000
0000
,
1000
0000
0000
0000
,
0100
0000
0010
0000
,
0100
0000
0000
0000
,
1000
0000
0000
0000
,
0001
0000
0000
0000
,
1001
0000
0000
0000
,
0110
0000
0000
0000
,
1001
0000
0000
0000
,
0000
0000
0000
0000
,
0001
0000
0100
0000
,
0001
0000
0000
0000
,
1000
0000
0000
0000
,
0100
0000
0000
0000
,
0010
0000
0000
0000
,
0001
0000
0000
0000
,
1001
0000
0000
0000
,
0000
0000
0000
0000
,
1000
0000
0100
0000
,
1000
0000
0000
0000
,
0001
0000
0000
0000
,
1000
0000
0000
0000
,
0010
0000
0000
0000
,
1001
0000
0000
0000
,
0001
0000
0001
0000
,
0001
0000
0000
0000
,
1000
0000
0000
0000
1000
0000
0000
0010
;
