#TITLE:TRUTH behind U;
#SUBTITLE:;
#ARTIST:Zutt;
#TITLETRANSLIT:;
#SUBTITLETRANSLIT:;
#ARTISTTRANSLIT:;
#CREDIT:DigiMindAxel;
#BANNER:TRUTH behind U.png;
#BACKGROUND:TRUTH behind U-bg.png;
#LYRICSPATH:TRUTH behind U.lrc;
#CDTITLE:pop'n music.png;
#MUSIC:TRUTH behind U.ogg;
#METERTYPE:DDR X;
#OFFSET:-7.980;
#SAMPLESTART:60.759;
#SAMPLELENGTH:12.000;
#SELECTABLE:YES;
#BPMS:0.000=121.000;
#STOPS:;
#BGCHANGES:;

//---------------dance-single - ----------------
#NOTES:
     dance-single:
     :
     Easy:
     5:
     0.216,0.239,0.148,0.209,0.000:
1000
0001
1000
0001
,
1000
0100
1000
0100
,
0010
0000
0001
0000
,
0010
0000
0001
0100
,
0010
0100
0010
1000
,
0010
1000
0010
0100
,
0000
0001
0000
0010
,
0000
0000
2002
0000
,
3003
0220
0000
0330
,
2002
0000
3003
0220
,
0000
0330
2002
0000
,
3003
0220
0000
0330
,
2002
0000
3003
0220
,
0000
0330
0001
1000
,
0001
1000
0100
1000
,
0100
1000
0010
0000
,
0100
0000
0001
0000
,
0000
0010
0100
0010
,
0100
1000
0010
1000
,
0010
0100
0001
0100
,
0001
0000
0000
0000
,
2000
0000
3000
0000
,
0002
0000
0003
0000
,
2000
0000
0000
3020
,
0000
0000
0130
0001
,
0100
0001
1000
0100
,
0020
0000
0000
0030
0000
0000
0001
0000
,
0100
0010
0000
0000
0100
0000
0010
1000
,
0000
0000
0001
0000
0000
1000
0000
0000
,
0100
0000
0000
0010
0000
0000
0001
0000
,
0000
0100
0000
0000
0010
0000
0000
0100
,
0000
0000
0001
0000
0010
0100
0000
0000
,
1000
0000
0000
0001
0000
0000
0001
0000
,
0000
1000
0000
0000
1000
0000
0000
0100
,
0000
0000
0100
0000
0000
0000
0000
0010
,
0000
0000
0010
0000
0000
0001
0000
0000
,
0001
0000
0000
0010
0100
0000
0000
1000
,
0000
0010
0100
0000
0000
0001
0000
0100
,
0010
0000
0000
1000
0000
0001
0000
0010
,
0000
0002
0000
0000
0003
0000
0000
1001
,
0000
0000
0000
0000
0000
1001
0000
0000
,
0000
0000
0000
0010
0000
0100
0000
0010
,
0000
0100
0000
0001
0000
0000
0000
1000
,
0000
0000
0100
0000
0000
0010
0000
0000
,
0001
0000
0000
1000
0000
0000
0001
0100
,
0000
0001
0000
0000
1000
0000
0000
0010
,
0000
0000
0100
0001
0000
1000
0000
0000
,
1001
0000
0000
1001
0000
0000
0110
0000
,
0000
0110
0000
0000
1001
0000
0000
1001
,
0000
0000
0220
0000
0000
0000
0000
0330
;

//---------------dance-single - ----------------
#NOTES:
     dance-single:
     :
     Medium:
     9:
     0.381,0.370,0.235,0.105,0.048: // measure 1
1000
0100
1000
0000
0001
1000
0001
0000
,  // measure 2
1000
0100
1000
0000
0001
1000
0001
0000
,  // measure 3
0100
0000
0000
0110
0000
0000
0100
0000
,  // measure 4
0000
1001
0000
0000
1000
0000
1100
0000
,  // measure 5
0010
0001
0010
0001
0100
0010
0000
0100
,  // measure 6
0001
1000
0001
1000
0100
0000
0010
0000
,  // measure 7
0000
0011
0000
0000
0000
1001
0000
0000
,  // measure 8
0000
0010
0001
0000
0022
0000
0000
0000
,  // measure 9
0033
1002
0000
1003
,  // measure 10
2200
0000
3300
2001
,  // measure 11
0000
0001
0000
3001
0202
0000
0000
0000
,  // measure 12
0303
1002
0000
1003
,  // measure 13
1010
0000
0000
0010
0000
0000
1001
0000
,  // measure 14
0000
0001
0000
0000
0010
0001
0010
0001
,  // measure 15
0010
0001
0100
0010
0000
1000
0010
1000
,  // measure 16
0010
0100
0010
1000
0001
0000
0000
1001
,  // measure 17
0000
0000
1000
0000
0000
1100
0000
1000
,  // measure 18
0001
0000
0100
0001
0100
0001
1000
0100
,  // measure 19
1000
0100
0000
0010
0100
0010
0100
0010
,  // measure 20
0001
0010
0000
0001
0010
0001
0010
0001
,  // measure 21
1000
0100
0000
0000
0000
0000
0000
0000
,  // measure 22
1100
0000
0000
1000
0000
0000
1100
0000
0000
0000
0000
0000
0000
0000
0000
0000
,  // measure 23
0110
0000
0000
0100
0000
0000
0110
0000
0000
0000
0000
0000
0010
0000
0000
0000
,  // measure 24
0011
0001
0010
0100
1000
0010
1000
0100
,  // measure 25
0010
0001
0100
0000
0010
0100
0010
1000
,  // measure 26
0001
0100
0010
0010
1000
1000
0001
0001
,  // measure 27
1000
0100
0010
0001
0000
0000
1000
0100
,  // measure 28
1000
0001
1000
0100
1000
0001
1000
0100
,  // measure 29
0000
0000
0010
0001
0100
0010
0001
0010
,  // measure 30
0100
0001
1000
0010
0000
0000
0100
0001
,  // measure 31
0010
0001
0100
0001
0010
0001
1000
0100
,  // measure 32
0000
0000
0010
0100
1000
0001
0100
0001
,  // measure 33
1001
0000
0000
0100
0100
0000
0001
0001
,  // measure 34
0000
1000
1000
0000
0010
0010
0000
0100
,  // measure 35
0100
0000
0001
0001
0000
0010
0010
0000
,  // measure 36
0100
0100
0000
1000
1000
0000
0010
0010
,  // measure 37
0100
0100
0001
0010
0100
1000
0001
0100
,  // measure 38
0001
1000
0100
0010
0000
1001
0001
1000
,  // measure 39
1000
0010
0100
0010
0010
1000
1000
0001
,  // measure 40
0001
0020
0000
0000
0031
0000
0000
0100
,  // measure 41
0000
0000
0000
0000
0000
2002
0000
0000
,  // measure 42
3003
0000
0000
1000
0100
1000
0010
1000
,  // measure 43
0100
1000
0010
0100
0001
0000
0000
0100
,  // measure 44
0010
0100
0001
0010
0100
0010
0001
1000
,  // measure 45
0010
0000
0000
0100
0001
0010
0100
1000
,  // measure 46
0010
0100
1000
0100
0010
0000
0000
1000
,  // measure 47
0001
0100
0010
1000
0001
1001
0000
0000
,  // measure 48
1100
0000
0000
0010
0000
0000
0001
0000
0100
0000
0000
0000
0101
0000
0000
0010
,  // measure 49
0000
0000
1000
0000
0100
0000
0000
0000
0011
0000
0000
0100
0000
0000
1000
0000
,  // measure 50
0001
0000
0000
0000
1000
0001
0000
0100
0000
0001
0000
0100
0000
0001
0000
0100
;

//---------------dance-single - ----------------
#NOTES:
     dance-single:
     :
     Hard:
     12:
     0.559,0.511,0.296,0.314,0.453:
1000
0010
0100
0010
1000
0100
0010
0001
,
0000
1000
0100
1000
0001
0100
0010
1000
,
0002
0000
0000
0023
0000
0000
0230
0000
,
0000
0000
2300
0000
0000
0000
3001
0000
1000
0100
0010
0000
0001
0000
1000
0010
,
0000
0100
0000
0020
0000
0000
1030
0000
0001
0000
0010
0000
0000
0000
0100
1000
,
0000
0010
0000
2000
0000
0000
3001
0000
0010
0000
0100
0000
2000
0000
0000
0000
,
0000
3020
0000
0000
0000
0230
0000
0000
,
0300
0000
0001
1000
0100
0000
0010
0000
1002
0000
0000
1000
0000
0000
1000
0000
,
1003
0000
0000
0000
1020
0000
0000
1000
0000
0000
1000
0000
1030
0000
0000
0000
,
0201
0000
0000
0001
0000
0000
0001
0000
0301
0000
0000
0000
1000
0001
0000
0001
,
0000
0000
1000
0000
0010
0000
1000
0000
1002
0000
0000
1000
0000
0000
1000
0000
,
1003
0000
0000
0000
0012
0000
0000
0010
0000
0000
0010
0000
0013
0000
0000
0000
,
0100
0000
1000
0001
1000
0000
0100
0000
0010
0001
0010
0000
0100
0000
1000
0010
,
1000
0000
0001
0000
0100
0001
0100
0001
1000
0000
0001
0100
0000
0010
0000
0200
,
0000
0000
0301
0000
1000
0000
0100
0000
0000
0000
0010
0100
0000
1000
0000
0020
,
0000
0130
0001
0010
2200
0000
3300
2002
,
0000
3003
0022
0000
0033
2001
0000
3001
,
1000
0100
0010
0000
0001
0000
0100
0010
0000
1000
0000
0020
0000
0000
0130
0000
,
0001
0000
0010
0000
0000
0000
0001
1000
0000
0100
0000
0020
0000
0000
0130
0000
,
1000
0000
0001
0000
0000
0000
0100
0010
0000
1000
0000
0020
0000
0000
0130
0000
,
0001
1000
1100
0000
0000
0000
0000
0000
,
1100
0000
0000
0100
0000
0100
0010
0000
0000
0000
0000
0000
0000
0000
0000
0000
,
0001
0100
0000
0100
0000
0100
0010
0000
0000
0000
0000
0000
2000
0000
0000
0000
,
3001
0000
1000
0100
1000
0000
0010
0000
0001
0000
0010
0000
1000
0000
0001
1000
,
0001
0000
0100
0000
1000
0000
0100
0000
0001
0000
1000
0001
1000
0000
0100
0000
,
0010
0001
1001
1000
0011
0001
1100
1000
,
2002
0000
0000
0000
0000
0000
3003
0000
0000
0000
0001
0000
1000
0000
0100
1000
,
0000
0010
0100
0000
0001
0000
0010
0000
0001
0000
0100
0010
0000
1000
0100
0000
,
0001
0000
0100
0000
1000
0000
0100
0010
0000
0001
0100
0000
0010
0000
1000
0000
,
1001
0000
0010
0000
0100
0000
2200
0000
0000
0000
3300
0000
1000
0000
0010
0100
,
0000
0001
0010
0000
0100
0000
1000
0000
0001
0000
0100
0001
0000
1000
0100
0000
,
0001
0000
0100
0000
1000
0001
0000
0010
0000
0001
1000
0000
0100
0000
0010
0000
,
0110
0000
0000
0000
0000
0000
0001
0000
0001
0100
0001
0000
1000
0000
1000
0010
,
1000
0000
0001
0000
0001
0010
0001
0000
1000
0000
1000
0100
1000
0000
0001
0000
,
0001
1000
0001
0000
1000
0000
1000
0001
1000
0000
0001
0000
0001
0100
0010
0000
,
1000
0000
0100
0010
0001
0000
1000
0000
0010
0100
0001
0000
1000
0000
0100
0010
,
0001
0000
1001
0000
1000
0010
0000
1000
0001
0000
0010
0100
1000
0000
0001
0000
,
0100
0001
0000
1000
0100
0000
0010
0000
0000
0000
0001
0100
0001
0100
0010
0000
,
0110
0000
0001
0000
1000
0000
0100
1000
0100
1000
0010
0000
0100
0001
0100
0001
,
1000
2002
0000
0000
3003
0000
0001
0100
,
0000
0100
0000
0000
0100
0000
0000
0000
0010
0000
1010
0000
0000
1010
0000
0000
,
1010
0000
0000
0000
0000
0000
1000
0000
0001
0010
0001
0000
0100
0000
1000
0000
,
0100
0101
0001
1001
1100
0000
0000
1000
,
0100
0010
0000
0010
0001
0000
1000
0000
0001
0000
0100
0000
0010
1000
0000
1000
,
0100
0000
1000
0000
0001
0000
0010
0001
0010
0001
1000
0000
0010
0000
0001
0000
,
0010
0000
1000
0001
1000
0001
0010
0000
0100
0000
1000
0000
0010
0000
0100
0010
,
0100
0010
1000
0000
0100
0000
0010
0000
0001
0000
0101
0000
0000
0000
0000
0000
,
1001
0000
1000
0100
0000
0100
0010
0000
0011
0000
0000
0000
1001
0000
0001
0010
,
0000
0010
0100
0000
1100
0000
0000
0000
1001
0000
1000
0010
0000
0010
0100
0000
,
0101
0000
0000
0000
0001
1000
0000
0100
0000
0001
0000
1000
0000
0010
0000
0001
,
2000
0000
0000
0000
0000
0000
3020
0000
0000
0000
0000
0230
0000
0000
0000
0300
;

//---------------dance-single - ----------------
#NOTES:
     dance-single:
     :
     Challenge:
     15:
     0.760,0.711,0.201,0.087,1.000:
0001
0100
0001
0100
0010
1000
0010
1000
,
0100
0010
0100
0010
0001
1000
0001
1000
,
0100
0010
0100
0010
0001
0100
0001
0100
,
0001
0000
1000
0000
0001
0000
1000
0000
0100
0000
0010
0000
0001
0100
0001
1000
,
0000
0000
0100
0010
0100
0010
0001
0000
0100
0000
0001
0000
1000
0100
1000
0001
,
0000
0000
0100
0010
0100
0001
1000
0000
0100
0000
0010
0000
0001
0100
0001
1000
,
0000
0000
0100
1000
0100
0010
0000
0000
0001
0000
0100
0000
0010
0100
0010
1000
,
0001
0010
0100
1000
0001
0100
0001
0000
0201
0000
0000
0001
0000
0000
0301
0000
,
1000
0100
0010
0001
0200
0000
0000
0010
0000
0000
0310
0000
1000
0100
0010
0100
,
2000
0000
0000
0010
0000
0000
3010
0000
0100
0001
0010
0100
1000
0010
0000
0010
,
0000
0000
0100
0000
0100
0001
1000
0000
1200
0000
0000
1000
0000
0000
1300
0000
,
0001
0100
0010
1000
0200
0000
0000
0010
0000
0000
0310
0000
0001
1000
0100
0010
,
0001
0100
0001
0100
0001
1000
0100
1000
0100
1000
0010
0100
0010
0100
0010
1000
,
0100
1000
0100
1000
0001
0010
0100
1000
0001
0000
1000
0010
0000
0100
0000
0010
,
0000
1000
0001
0010
0001
0010
0001
0000
1000
0000
0001
0010
0000
0100
0000
0010
,
0000
0001
1000
0010
1000
0010
0100
0000
0001
1000
0001
0000
0100
0000
0010
0100
,
0010
0000
0100
0000
0001
1000
0001
0000
1000
0100
1000
0100
1000
0000
0100
1000
,
0010
0100
0001
0000
1000
0010
1000
0001
0000
0010
0000
0001
0000
1000
0010
0100
,
0010
0100
0001
0000
1000
0100
1000
0001
0000
0100
0000
0010
0000
0100
0001
0100
,
0001
0010
0100
0000
1000
0010
1000
0001
0000
0100
0000
0010
0000
0100
0001
0100
,
0001
0010
0100
1000
0010
0000
0000
0000
0000
0000
0000
0000
0000
0000
1000
0000
,
0001
0000
0001
0010
0000
0010
0100
0000
0000
0000
0000
0000
0000
0000
0000
0000
,
1000
0010
0000
0010
0000
0010
0100
0000
0000
0000
0000
0000
0002
0000
0000
0000
,
1003
0100
1000
0100
1000
0100
0010
0001
0010
0001
0010
0001
1000
0010
1000
0010
,
1000
0010
0100
0001
0100
0001
0100
0000
0001
1000
0001
1000
0001
1000
0010
0100
,
0010
0100
0010
0100
0001
1000
0100
1000
0001
1000
0100
1000
0001
1000
0010
0100
,
0001
0100
0001
0100
0010
1000
0002
0000
0000
0000
1003
0000
1001
0000
0001
0100
,
0000
0100
0010
0000
1000
0010
0100
0010
1000
0000
0100
0010
0000
0010
0001
0000
,
0010
0100
1000
0100
0010
0000
0001
0100
0000
0100
0010
0000
1000
0001
0010
0001
,
1000
0000
1001
0000
0110
0000
2002
0000
0000
0000
3003
0000
0001
0100
0010
1000
,
0000
1000
0001
0000
0010
0001
0010
0001
0100
0010
1000
0100
0000
0100
0010
0000
,
0100
1000
0100
1000
0010
0100
0000
0100
0000
0100
0001
0010
0100
1000
0001
0000
,
1001
0000
0000
0000
0000
0000
0001
0010
0100
0010
0001
0000
0001
0010
0100
0010
,
0001
0000
1000
0010
0100
0010
1000
0000
1000
0010
0100
0010
1000
0000
0100
0010
,
0001
0010
0100
0000
0100
0010
0001
0010
0100
0000
1000
0001
0100
0001
1000
0000
,
1000
0001
0100
0001
1000
0000
1000
0100
0010
0001
0100
0000
0100
0010
1000
0100
,
0010
0000
0001
1000
0001
1000
0001
1000
0100
0010
0100
0010
0100
0010
0001
0100
,
0010
0100
0001
0100
0001
0010
0100
0010
0001
0000
1000
0010
0100
0001
1000
0010
,
0100
0001
0100
0010
1000
0100
1000
0100
1000
0100
0010
0001
0010
0001
0010
0001
,
0100
0010
1000
0100
0010
0001
0010
0100
1000
0000
0000
0000
0001
0000
0100
0000
,
0001
1000
0000
0001
1000
0100
0010
0001
1000
0010
1000
0000
0010
0100
0000
0100
,
0001
0000
1001
0000
1001
0000
1000
0001
0010
0001
1000
0001
0010
0000
0011
0000
,
1001
0000
1000
0100
0010
0001
0100
0001
2000
0000
0000
0001
0000
0000
3001
0000
,
1000
0010
0000
0010
0100
0000
0001
0010
0001
1000
0100
0000
0010
0001
0000
0001
,
1000
0000
0010
1000
0100
0010
0001
0100
0010
0100
0001
0100
0010
1000
0100
0010
,
0001
1000
0010
0100
0010
1000
0001
0010
0100
0000
1100
0000
1001
0000
0001
0100
,
0010
0100
0001
1000
0100
0010
0001
1000
0010
1000
0001
0000
0000
0000
0000
0000
,
0011
0000
0100
1000
0000
1000
0010
0000
0101
0000
0000
0000
1010
0000
0100
0001
,
0000
0001
0010
0000
1100
0000
0000
0000
1001
0000
0001
0100
0000
0100
0010
0000
,
1001
0000
0000
0000
1000
0001
0000
0101
0000
0110
0000
1010
0000
1001
0000
1000
,
0001
0010
0001
0010
0000
0000
0100
1000
0100
1000
0000
0010
0100
0001
0010
0100
;

//---------------dance-single - ----------------
#NOTES:
     dance-single:
     :
     Beginner:
     1:
     0.067,0.086,0.052,0.000,0.000:
0001
0000
0000
0000
,
0001
0000
0000
0000
,
0001
0000
0000
0000
,
0000
0000
0000
1000
,
0000
0000
0000
1000
,
0000
0000
0000
1000
,
0000
0000
0000
0000
,
0000
0000
1001
0000
,
0000
0000
0000
0000
,
1001
0000
0000
0000
,
0000
0000
1001
0000
,
0000
0000
0000
0000
,
1001
0000
0000
0000
,
0000
0000
0001
0000
,
0000
0000
0100
0000
,
0000
0000
0010
0000
,
0000
0000
0000
0000
,
0000
0100
0000
0000
,
0000
0010
0000
0000
,
0000
1000
0000
0000
,
0000
0000
0000
0000
,
0001
0000
0000
0000
,
0001
0000
0000
0000
,
1001
0000
0000
1000
,
0000
0000
0100
0000
,
0000
1000
0000
0000
,
0010
0000
0000
0100
,
0000
0000
0100
0000
,
0000
0100
0000
0000
,
0000
0000
0000
0010
,
0000
0000
0010
0000
,
0000
0010
0000
0000
,
0000
0000
0000
1000
0000
0000
0000
0000
,
0000
0000
0000
0000
,
0000
0000
0000
0000
0000
0000
0000
0001
,
0000
0000
0000
0000
,
0000
1001
0000
0000
0000
0000
0000
1000
,
0000
0000
0000
0000
0000
1000
0000
0000
,
0000
0000
0000
0001
0000
0000
0000
0000
,
0000
0001
0000
0000
0000
0000
0000
0010
,
0000
0000
0000
0000
,
0000
0000
0000
0100
0000
0000
0000
0000
,
0000
0100
0000
0000
0000
0000
0000
1000
,
0000
0000
0000
0000
0000
1000
0000
0000
,
0000
0000
0000
0001
0000
0000
0000
0000
,
0000
0010
0000
0000
0000
0000
0000
0100
,
0000
0000
0000
0000
,
1000
0000
0000
1000
,
0000
0000
0010
0000
,
0000
0010
0000
0000
;
