#TITLE:旅人リラン;
#SUBTITLE:;
#ARTIST:XOGO BRYKK;
#TITLETRANSLIT:TABIBITO RERUN;
#SUBTITLETRANSLIT:;
#ARTISTTRANSLIT:;
#CREDIT:DigiMindAxel;
#BANNER:TABIBITO RERUN.png;
#BACKGROUND:TABIBITO RERUN-bg.png;
#LYRICSPATH:TABIBITO RERUN.lrc;
#CDTITLE:beatmania IIDX.png;
#MUSIC:TABIBITO RERUN.ogg;
#METERTYPE:DDR X;
#OFFSET:-6.973;
#SAMPLESTART:81.237;
#SAMPLELENGTH:12.000;
#SELECTABLE:YES;
#BPMS:0.000=155.000;
#STOPS:;
#BGCHANGES:;

//---------------dance-single - ----------------
#NOTES:
     dance-single:
     :
     Easy:
     6:
     0.276,0.291,0.065,0.114,0.000: // measure 1
2000
0000
0000
0000
,  // measure 2
3002
0000
0000
0000
,  // measure 3
2003
0000
0000
0000
,  // measure 4
3002
0000
0000
0000
,  // measure 5
1003
0000
0100
0000
,  // measure 6
0010
0000
0001
1000
,  // measure 7
0001
0000
0010
0000
,  // measure 8
0100
0000
1000
0001
,  // measure 9
1000
1000
0001
0001
,  // measure 10
1000
1000
0001
0001
,  // measure 11
0010
0100
1000
0001
,  // measure 12
0010
0100
1000
0000
,  // measure 13
0110
1000
0001
0000
,  // measure 14
0110
0001
1000
1000
,  // measure 15
0010
0100
0001
0010
,  // measure 16
0100
1000
0001
1000
,  // measure 17
0110
0001
1000
0000
,  // measure 18
0110
1000
0001
0000
,  // measure 19
0010
0100
1000
0001
,  // measure 20
0100
0010
0100
1001
,  // measure 21
1000
0100
0010
0001
,  // measure 22
1000
0100
0010
0001
,  // measure 23
1000
1000
0001
0001
,  // measure 24
1000
1000
0001
0001
,  // measure 25
0010
0100
1000
0001
,  // measure 26
0010
0100
1000
0001
,  // measure 27
1000
1000
0001
0001
,  // measure 28
1000
0010
0100
0001
,  // measure 29
1001
0000
1000
0000
,  // measure 30
0001
1000
0010
0000
,  // measure 31
1000
0000
0001
0000
,  // measure 32
1000
0001
0100
0010
,  // measure 33
0100
0000
0010
0000
,  // measure 34
0100
0000
0001
0000
,  // measure 35
1000
0100
1000
0100
,  // measure 36
0010
0010
0001
0001
,  // measure 37
1000
1000
0100
0100
,  // measure 38
0010
0100
1000
0001
,  // measure 39
0010
0100
1000
0001
,  // measure 40
2000
0000
0000
0000
,  // measure 41
3002
0000
0000
0000
,  // measure 42
2003
0000
0000
0000
,  // measure 43
3002
0000
0000
0003
,  // measure 44
1001
1000
0001
0000
,  // measure 45
0100
0010
0100
0000
,  // measure 46
0001
1000
0001
0000
,  // measure 47
0100
0010
0100
0001
,  // measure 48
1000
0000
0000
0000
,  // measure 49
1001
0001
1000
0000
,  // measure 50
0100
0010
0100
1000
,  // measure 51
0010
0010
0100
0100
,  // measure 52
0010
0010
0100
0100
,  // measure 53
0001
0010
0100
0000
,  // measure 54
0010
0001
0010
0100
,  // measure 55
1000
1000
0001
0001
,  // measure 56
1000
1000
0001
0001
,  // measure 57
1000
0010
0100
0010
,  // measure 58
1000
1000
0001
0001
,  // measure 59
0010
0100
1000
0001
,  // measure 60
0100
0100
0010
0010
,  // measure 61
1000
0100
0001
0100
,  // measure 62
1000
0100
0010
0100
,  // measure 63
1000
0010
0001
0010
,  // measure 64
1000
0100
0010
0100
,  // measure 65
2000
0000
0000
0000
,  // measure 66
3002
0000
0000
0000
,  // measure 67
2003
0000
0000
0000
,  // measure 68
3001
0000
0100
0000
,  // measure 69
0020
0000
0000
0000
,  // measure 70
0230
0000
0000
0000
,  // measure 71
0320
0000
0000
0000
,  // measure 72
0130
0000
0100
0000
;

//---------------dance-single - ----------------
#NOTES:
     dance-single:
     :
     Medium:
     10:
     0.422,0.468,0.301,0.081,0.000:
0001
0200
0000
0300
,
0010
2000
0000
3000
,
0100
0020
0000
0030
,
0001
0000
2000
0000
0000
0001
3001
0000
,
1000
0100
0010
0001
,
1000
0100
0010
0001
,
1000
0010
0100
0001
,
1000
0010
0110
0101
,
1001
0010
0100
1000
,
0001
0010
0100
1000
,
0001
0100
0010
1000
,
0001
0100
0110
1010
,
0010
0100
0010
0000
0100
0001
0100
0000
,
0010
1000
0100
0000
1000
0001
1000
0000
,
0001
1001
1000
1001
,
0100
0000
0100
0000
0010
0100
0010
0000
,
0100
0010
0100
0000
0010
1000
0010
0000
,
0100
0001
0010
0000
0001
1000
0001
0000
,
1000
1001
0001
1001
,
0100
0010
0100
0000
0100
0000
1001
0000
,
0001
0100
1000
0100
,
0001
0100
1000
0100
,
0001
0010
1000
0010
,
0001
0010
1000
0010
,
1001
0100
0001
0100
,
1000
0100
0001
0100
,
1000
0010
0001
0010
,
1000
0000
0010
0000
0100
0010
0100
0000
,
1001
1000
1100
0000
,
1001
0001
0101
0000
,
1001
1000
1100
0000
,
1001
0001
1001
1000
,
1001
0001
0101
0000
,
1001
1000
1100
0000
,
1001
1000
1001
0001
,
0100
0001
0100
0000
0010
1000
0100
0000
,
0010
0001
0010
0000
0100
1000
0001
0000
,
0100
0001
0100
0000
0010
1000
0100
0000
,
0010
0001
0010
0000
0100
1000
0001
0000
,
0100
0100
0100
0100
,
0010
0010
0010
0010
,
0100
0100
0100
0100
,
0010
0010
0010
0010
,
0100
0001
0100
0001
1000
0000
1000
0000
,
0010
1000
0010
1000
0001
0000
0001
0000
,
0100
0010
0100
0001
1000
0000
1000
0000
,
0010
0100
0010
1000
0001
0000
0001
0000
,
0200
0000
0000
0300
,
1001
0000
0101
0000
1000
0100
1000
0000
,
0001
0100
0001
0000
0100
0001
1000
0000
,
1001
0000
1100
0000
0010
0100
0010
0000
,
1001
0000
1100
0000
0010
0100
0010
0000
,
1001
0000
1100
0000
0001
0100
0001
0000
,
1000
0100
1000
0000
0100
1000
0001
0000
,
1001
0000
0101
0000
0010
0100
0010
0000
,
1001
0000
0101
0000
0010
0100
0010
0000
,
1000
0100
0010
0001
1000
0000
1000
0000
,
0001
0010
0100
1000
0001
0000
0001
0000
,
1000
0100
0010
0001
1000
0000
1000
0000
,
0001
0010
0100
1000
0001
0000
0001
0000
,
1000
0010
0100
0000
0010
0100
0010
0000
,
0100
0001
0010
0000
0001
1000
0001
0000
,
1000
0100
0001
0000
1000
0001
1000
0000
,
0001
0100
1000
0000
0100
0010
0100
0000
,
1000
1000
1000
1000
,
0001
0001
0001
0001
,
1000
1000
1000
1000
,
0001
0001
0001
0001
,
2000
0000
0000
0000
,
3200
0000
0000
0000
,
0302
0000
0000
0000
,
0203
0000
0000
0000
2300
0000
0000
3000
;

//---------------dance-single - ----------------
#NOTES:
     dance-single:
     :
     Hard:
     12:
     0.565,0.644,0.163,0.212,0.179:
2000
3002
1000
1003
,
0002
0203
0010
0310
,
2000
3002
1000
1003
,
0002
0000
0203
0000
0010
0010
0310
0000
,
1000
0100
0010
0000
0100
0000
0010
0000
,
0001
0010
0100
0000
0010
0000
0100
0000
,
1000
0010
0100
0000
0010
0000
0100
0000
,
0001
0100
0010
0000
1000
0001
0010
0001
,
1000
0010
0100
0000
0010
0100
0010
0000
,
0100
0001
0010
0100
1000
0000
1000
0000
,
0001
0100
0010
0000
0100
0010
0100
0000
,
0010
1000
0100
0010
0001
0000
0001
0000
,
1001
0000
1100
0000
1001
0000
0100
0001
,
1000
0000
1100
0000
1000
1000
1000
0000
,
0010
1000
0001
0010
0100
0010
0001
0000
,
0100
0001
1000
0100
0010
0010
0010
0000
,
1001
0000
0011
0000
1001
0000
0010
1000
,
0001
0000
0011
0000
0010
0010
0010
0000
,
0100
1000
0001
0010
0001
1000
0010
0000
,
0100
0001
1000
0100
1000
1000
1001
0000
,
0001
0010
0100
0000
0010
0000
0100
0000
,
1000
0100
0001
0000
0100
0000
1000
0000
,
0001
0100
0010
0000
0100
0000
0010
0000
,
1000
0100
0001
0000
0100
0000
1000
0000
,
0001
0010
0100
0000
0010
0100
1000
0000
,
0010
0100
0001
0000
1000
1000
0001
0001
,
1000
0100
0010
0000
0100
0010
0001
0000
,
0100
0010
0100
0001
0010
0010
0010
0000
,
1001
0000
0000
0001
0100
0000
0001
0000
1000
0000
0100
0000
1000
0000
0000
0000
,
0100
0000
0000
0100
0010
0000
0001
0000
1000
0000
0010
0000
1000
0000
0000
0000
,
0100
0000
0000
0100
0010
0000
0001
0000
0010
0000
0100
0000
0010
0000
0001
0000
,
0100
0000
0110
0000
1001
0000
0001
1000
,
0001
0000
0000
0001
1000
0000
0010
0000
0100
0000
0010
0000
1000
0000
0000
0000
,
0100
0000
0000
0100
1000
0000
0001
0000
0100
0000
0010
0000
0100
0000
0001
0000
,
0010
0000
0000
0010
0100
0000
1000
0000
0010
0000
0000
0000
0110
0000
0000
0000
,
0001
2000
0000
0000
0100
0000
3100
0000
1000
0002
0000
0000
0010
0000
0013
0000
,
0001
2000
0000
0000
0100
0000
3100
0000
1000
0002
0000
0000
0010
0000
0013
0000
,
0001
0200
0000
0000
0010
0000
0310
0000
1000
0020
0000
0000
0100
0000
0130
0000
,
0001
0020
0000
0000
0100
0000
0130
0000
1000
0000
1000
0000
1001
0000
0000
0000
,
0001
0100
1000
0100
,
0001
0010
1000
0010
,
0001
0100
1000
0100
,
0001
0010
0100
1001
,
0110
0000
0000
0100
0010
0000
0100
0000
0001
0000
0000
0100
0010
0000
0100
0000
,
0001
0000
0010
0100
1000
0001
0001
0000
,
0100
0000
0000
0010
0100
0000
0010
0000
1000
0000
0000
0010
0100
0000
0010
0000
,
1000
0000
0100
0010
0001
1000
1000
0010
,
0200
0000
0000
0300
,
0001
0000
0100
0000
0001
0000
1000
0100
1000
0000
0001
0000
0100
0000
0001
0000
,
1000
0100
0010
0001
1000
0100
0100
0000
,
1000
0000
0000
1000
0010
0000
0000
0010
0100
0000
0000
0100
0001
0000
0000
0001
,
1000
0000
0000
1000
0100
0000
0000
0100
0010
0000
0000
0010
0100
0000
0000
0000
,
1000
0000
0100
0000
1000
0000
0001
0100
0001
0000
1000
0000
0100
0000
1000
0000
,
0001
0100
0010
1000
0100
0010
0010
0000
,
0001
0000
0000
0001
0100
0000
0000
0100
0010
0000
0000
0010
1000
0000
0000
1000
,
0001
0000
0000
0001
0010
0000
0000
0010
0100
0000
0000
0100
0010
0000
0000
0000
,
1001
0000
0001
0100
0001
0000
1000
0000
0100
0000
0010
0000
0001
0000
0010
0000
,
1000
0001
0010
0100
0001
0001
0001
0000
,
1001
0000
1000
0010
1000
0000
0001
0000
0010
0000
0100
0000
1000
0000
0100
0000
,
0001
1000
0100
0010
1000
1000
1000
0000
,
1001
0000
0001
0100
0001
0000
0100
0001
0100
0000
0010
0000
1000
0000
0100
0000
,
0010
0000
1000
0000
0010
0000
0001
0000
2000
0000
0000
0010
0000
0000
3010
0000
,
1001
0000
1000
0010
1000
0000
0010
1000
0010
0000
0100
0000
0001
0000
1000
0000
,
0100
0010
0000
0100
0010
0000
0001
0000
0100
0010
0000
0100
0010
0000
1000
0000
,
0002
0010
0010
0010
,
2003
0010
0010
0010
,
3002
1000
1000
1000
,
2003
0001
0001
0001
,
3001
0010
0200
0000
0000
0000
0000
0000
,
0310
0100
2000
0000
0000
0000
0000
0000
,
3100
0010
0002
0000
0000
0000
0000
0000
,
2003
0000
0000
0000
3002
0000
0000
0003
;

//---------------dance-single - ----------------
#NOTES:
     dance-single:
     :
     Challenge:
     16:
     0.798,0.790,0.285,0.171,0.700:
0001
0100
0010
2000
0000
0000
3000
0000
,
0100
0010
0001
0200
0000
0000
0300
0000
,
0010
1000
0100
0020
0000
0000
0030
0000
,
0001
0010
0100
2000
0000
0001
3001
0000
,
1000
0000
0100
1000
0100
0000
1000
0001
1000
0000
0100
1000
0100
0000
0010
0100
,
0010
0000
0001
0100
0001
0000
1000
0010
1000
0000
0001
0000
0010
0000
0100
0000
,
1000
0000
0001
0100
0001
0000
1000
0001
1000
0000
0001
0100
0001
0000
1000
0100
,
1000
0000
0100
0010
0100
0000
1000
0001
0100
0001
1000
0000
0001
0000
1000
0000
,
1001
0000
0010
0001
0010
0000
0100
0010
0100
0000
1000
0100
1000
0000
0100
0010
,
0100
0000
0010
0001
0010
0000
0100
0010
0100
0000
1000
0000
0001
0000
0001
0000
,
1000
0000
0100
1000
0100
0000
0010
0100
0010
0000
0001
0010
0001
0000
0010
0100
,
0010
0000
0001
1000
0010
0100
0010
1000
0001
0000
0010
0000
0100
0010
0001
0000
,
1001
0000
0000
1000
0001
0000
0100
0000
0001
0000
0000
0001
1000
0000
0100
0000
,
0010
0100
1000
0001
0100
0100
1001
0000
,
0001
0000
0000
0001
1000
0000
0100
0000
1000
0000
0000
1000
0010
0000
0100
0000
,
0010
1000
0010
0100
0010
0010
1001
0000
,
1001
0000
0000
1000
0001
0000
0100
0000
0001
0000
0000
0001
1000
0000
0100
0000
,
1000
0001
0100
0001
0100
0100
1001
0000
,
1000
0000
0000
1000
0010
0000
0100
0000
0010
0000
0000
0010
0100
0000
0001
0000
,
0010
0000
0100
1000
0100
0000
0010
0001
0100
0000
0100
0000
1001
0000
0000
0000
,
1001
0000
1000
0010
1000
0000
0010
0100
0010
0000
1000
0010
1000
0000
0010
0100
,
0010
0000
1000
0001
1000
0000
0001
0010
0001
0000
1000
0001
1000
0000
0000
0000
,
0001
0000
0010
0001
0010
0000
0100
0010
0100
0000
0010
0001
0010
0000
0100
0010
,
0100
0000
1000
0001
1000
0000
0010
1000
0001
0000
0001
0000
1000
0000
1000
0000
,
0001
0000
0010
0001
0010
0000
0001
0010
0100
0000
0010
0100
1000
0000
0100
1000
,
0100
0000
0010
0100
1000
0000
0001
0010
0100
0000
1000
0010
0100
0000
0000
0000
,
0001
0000
0010
0001
0010
0000
0001
0010
0100
0000
0010
0100
1000
0000
0100
1000
,
0100
0000
0010
0001
1000
0010
0100
0010
1000
0001
0010
0000
0011
0000
0000
0000
,
1001
0000
0001
0100
0001
0000
1000
0100
1000
0000
0001
0000
0100
0000
0010
1000
,
0010
0000
1000
0001
1000
0000
0001
0010
0001
0000
0010
0000
0100
0000
1000
0000
,
0001
0000
0100
0010
0100
0000
0001
0100
0001
0000
1000
0001
1000
0000
0010
0000
,
1000
0000
0100
0000
0001
0000
0100
0000
1000
0000
0001
0000
0010
0100
1000
0001
,
0100
0000
0010
0100
0010
0000
1000
0100
1000
0000
0100
0000
0010
0000
0001
1000
,
0001
0000
1000
0010
1000
0000
0001
0100
0001
0000
1000
0000
0100
0000
0010
0000
,
0100
0000
1000
0010
1000
0000
0001
1000
0001
0000
0100
0010
0100
0000
0000
0000
,
0001
1000
0000
1000
0100
0000
1100
0000
0010
0001
0000
0001
1000
0000
1001
0000
,
0001
0010
0000
0010
0100
0000
0110
0000
1000
0010
0000
0010
0100
0000
0110
0000
,
0001
1000
0000
1000
0100
0000
1100
0000
0010
0001
0000
0001
0100
0000
0101
0000
,
0010
1000
0000
1000
0001
0010
0100
1000
0010
0000
0110
0000
1001
0000
0000
0000
,
2000
0010
0001
0010
,
3002
0010
1000
0010
,
2003
0010
0001
0010
,
3002
0000
0000
0000
0010
0000
0000
0000
1003
0100
1000
0000
0001
1000
0001
1000
,
0010
0100
0000
0100
0001
0000
0101
0000
0010
0100
0000
0100
0001
0000
0101
0000
,
0010
1000
0000
1000
0001
0000
1001
0000
0010
1000
0000
1000
0001
0000
1001
0000
,
1000
0100
0000
0100
0010
0000
0110
0000
1000
0100
0000
0100
0010
0000
0110
0000
,
0001
1000
0000
1000
0010
0000
1010
0000
0001
1000
0000
1000
0010
0000
1010
0000
,
0200
0020
0000
0000
0000
0000
0330
0000
,
1001
0000
1000
0010
1000
0000
0001
0010
0001
0000
1000
0000
0010
0000
0001
0000
,
0010
0000
1000
0010
1000
0000
0100
0010
0100
0000
1000
0000
0100
0000
0010
0000
,
1001
0000
0000
0001
0100
0000
0000
0100
1000
0000
0000
1000
0100
0000
0000
0100
,
0001
0000
0000
0001
0010
0000
0000
0010
0100
0000
1000
0010
0100
0000
0010
0000
,
1001
0000
1000
0100
1000
0000
0001
0100
0001
0000
1000
0000
0100
0000
0001
0000
,
0100
0000
1000
0010
1000
0000
0001
1000
0001
0000
0010
0000
0100
0000
1000
0000
,
1001
0000
0000
0001
0010
0000
0000
0010
1000
0000
0000
1000
0010
0000
0000
0010
,
0001
0000
0000
0001
1000
0000
0000
1000
0100
0000
0000
0100
0010
0000
0000
0000
,
1001
0000
0001
0100
0010
0000
0010
0100
0001
0000
0010
0100
1000
0000
1000
0100
,
0010
0000
0100
1000
0001
0000
0001
0100
0001
0000
1000
0000
0110
0000
0110
0000
,
1001
0000
0001
1000
0100
0000
0100
1000
0001
0000
0100
0010
1000
0000
1000
0010
,
0100
0000
0001
1000
0100
0000
0100
0010
0001
0000
1000
0001
0010
0000
0010
0100
,
1000
0000
0010
0100
0001
0000
0001
0100
0001
0000
1000
0100
0010
0000
0010
0001
,
0010
0000
0100
1000
0001
0100
0001
1000
0200
0000
0000
1000
0000
0000
1300
0000
,
1001
0000
0001
1000
0010
0000
0010
0100
0001
0000
0001
0010
0100
0000
0100
1000
,
0010
0100
0000
0010
0100
0001
1000
0000
0010
0100
0000
0010
0100
0001
1000
0000
,
0100
0010
0002
0000
0100
0000
0103
0000
,
0010
1000
0200
0000
0010
0000
0310
0000
,
0001
0100
0020
0000
0100
0000
0130
0000
,
2000
0001
3002
1000
,
1003
0100
0020
0000
0000
0000
0000
0000
,
0031
0100
0020
0000
0000
0000
0000
0000
,
0130
0001
2000
0000
0000
0000
0000
0000
,
3200
0000
0000
0000
0320
0000
0000
0030
;

//---------------dance-single - ----------------
#NOTES:
     dance-single:
     :
     Beginner:
     2:
     0.094,0.202,0.049,0.000,0.000: // measure 1
0001
0000
0000
0000
,  // measure 2
0001
0000
0000
0000
,  // measure 3
0001
0000
0000
0000
,  // measure 4
0001
0000
0000
0000
,  // measure 5
1000
0000
0000
0000
,  // measure 6
0000
0000
0000
0000
,  // measure 7
1000
0000
0000
0000
,  // measure 8
0000
0000
0000
0000
,  // measure 9
0001
0000
0000
0000
,  // measure 10
1000
0000
0000
0000
,  // measure 11
0001
0000
0000
0000
,  // measure 12
1000
0000
0000
0000
,  // measure 13
0001
0000
0000
0000
,  // measure 14
0001
0000
0000
0000
,  // measure 15
0001
0000
0000
0000
,  // measure 16
0000
0000
0000
0000
,  // measure 17
1000
0000
0000
0000
,  // measure 18
0001
0000
0000
0000
,  // measure 19
1000
0000
0000
0000
,  // measure 20
1000
0000
0000
0000
,  // measure 21
1001
0000
0000
0000
,  // measure 22
0000
0000
0000
0000
,  // measure 23
0010
0000
0000
0000
,  // measure 24
0000
0000
0000
0000
,  // measure 25
0100
0000
0000
0000
,  // measure 26
0000
0000
0000
0000
,  // measure 27
1000
0000
0000
0000
,  // measure 28
0000
0000
0000
0000
,  // measure 29
0001
0000
0000
0000
,  // measure 30
0000
0000
0000
0000
,  // measure 31
1000
0000
0000
0000
,  // measure 32
0000
0000
0000
0000
,  // measure 33
0001
0000
0000
0000
,  // measure 34
0000
0000
0000
0000
,  // measure 35
1000
0000
0000
0000
,  // measure 36
1000
0000
0000
0000
,  // measure 37
0000
0000
0000
0000
,  // measure 38
0000
0000
0000
0000
,  // measure 39
0000
0000
0000
0000
,  // measure 40
0001
0000
0000
0000
,  // measure 41
0001
0000
0000
0000
,  // measure 42
0001
0000
0000
0000
,  // measure 43
0001
0000
0000
0000
,  // measure 44
1001
0000
1000
0000
,  // measure 45
0001
0000
0000
0000
,  // measure 46
1000
0000
0001
0000
,  // measure 47
1000
0000
0000
0000
,  // measure 48
1000
0000
0000
0000
,  // measure 49
0001
0000
1000
0000
,  // measure 50
0001
0000
1000
0000
,  // measure 51
0010
0000
0100
0000
,  // measure 52
0010
0000
0000
0000
,  // measure 53
0100
0000
0010
0000
,  // measure 54
0100
0000
0010
0000
,  // measure 55
1000
0000
0001
0000
,  // measure 56
1000
0000
0000
0000
,  // measure 57
1001
0000
0001
0000
,  // measure 58
1001
0000
1000
0000
,  // measure 59
0001
0000
0100
0000
,  // measure 60
0010
0000
1000
0000
,  // measure 61
1001
0000
0001
0000
,  // measure 62
1001
0000
1000
0000
,  // measure 63
0001
0000
0100
0000
,  // measure 64
0010
0000
1000
0000
,  // measure 65
1000
0000
0000
0000
,  // measure 66
1000
0000
0000
0000
,  // measure 67
1000
0000
0000
0000
,  // measure 68
1000
0000
0000
0000
,  // measure 69
0001
0000
0000
0000
,  // measure 70
0001
0000
0000
0000
,  // measure 71
0001
0000
0000
0000
,  // measure 72
0100
0000
0000
0000
;
