#TITLE:Spica;
#SUBTITLE:;
#ARTIST:D.JW;
#TITLETRANSLIT:;
#SUBTITLETRANSLIT:;
#ARTISTTRANSLIT:;
#CREDIT:DigiMindAxel;
#BANNER:Spica.png;
#BACKGROUND:Spica-bg.png;
#LYRICSPATH:;
#CDTITLE:beatmania IIDX.png;
#MUSIC:Spica.ogg;
#METERTYPE:DDR X;
#OFFSET:-7.933;
#SAMPLESTART:15.427;
#SAMPLELENGTH:12.000;
#SELECTABLE:YES;
#BPMS:0.000=128.000;
#STOPS:;
#BGCHANGES:;

//---------------dance-single - ----------------
#NOTES:
     dance-single:
     :
     Easy:
     5:
     0.233,0.240,0.024,0.113,0.000:
0002
0000
0100
0000
,
0203
0000
0010
0000
,
0320
0000
2030
0000
,
3001
1000
0001
0000
,
1000
0100
0010
0001
,
0100
0000
0100
0010
,
0100
0001
0010
0100
,
1000
0001
1000
0000
,
0100
1000
0100
0010
,
0001
0100
0010
0100
,
0001
1000
0001
1000
,
0100
0010
0001
0100
,
0010
0010
0100
0100
,
0010
0010
0100
0100
,
0001
0010
0100
1000
,
0001
0100
0010
0100
,
0001
0001
1000
1000
,
0001
0100
0010
0100
,
0001
0001
1000
1000
,
0100
0010
0001
1000
,
1001
0000
0000
0000
,
0000
0000
0000
0000
,
0000
0000
0000
0000
,
0000
0000
0000
0000
,
0001
0001
0001
0001
,
1000
1000
1000
1000
,
0001
0001
0001
0001
,
0010
0000
0000
0000
,
0001
0010
0100
1000
,
0010
0100
0001
0001
,
1000
0100
0010
0100
,
1000
1000
0010
0010
,
0100
0001
0010
0001
,
0100
0100
0010
0010
,
1000
0100
0010
0001
,
2002
0000
0000
0000
,
3003
0010
0100
0001
,
1000
1000
0100
0010
,
0001
0100
0010
0100
,
0001
0010
0100
0010
,
0001
0001
0100
0010
,
1000
0100
0010
0001
,
1000
0100
1000
0100
,
0010
0010
0001
0001
,
0100
0010
0100
0100
,
0010
0100
0010
0010
,
1000
0100
0010
0001
,
1000
0010
0100
0001
,
1000
0100
0100
1000
,
0001
0010
0100
1000
,
0010
0100
0100
0001
,
1000
0100
0010
0001
,
2001
0000
0000
0000
,
3002
0000
0000
0000
,
0023
0000
0000
0000
,
0230
0000
0000
0000
,
2300
0000
3000
0000
,
0002
0000
0003
0000
,
0200
0000
0300
0000
,
0020
0000
0030
0000
;

//---------------dance-single - ----------------
#NOTES:
     dance-single:
     :
     Medium:
     10:
     0.410,0.410,0.113,0.121,0.008: // measure 1
0100
1000
0100
1000
,  // measure 2
0010
0100
0010
0100
,  // measure 3
0001
0010
0001
1000
,  // measure 4
0100
1000
0100
1000
0001
0000
0000
0000
,  // measure 5
0110
0000
0100
0001
0100
0000
0001
1000
,  // measure 6
0100
0000
0010
0100
0010
0000
0001
1000
,  // measure 7
0010
0000
0100
0001
0100
0001
1000
0000
,  // measure 8
0010
1000
0100
1000
0010
0100
0010
0000
,  // measure 9
1000
0000
0100
0010
0001
0000
1000
0100
,  // measure 10
1000
0000
0001
0100
0010
0000
1000
0010
,  // measure 11
1000
0000
0001
0010
0001
0010
0100
0000
,  // measure 12
1000
0001
0010
0001
1000
0001
0010
0000
,  // measure 13
0100
1000
0100
1000
0010
0010
0100
0000
,  // measure 14
0001
0100
0001
0100
0010
0010
1000
0000
,  // measure 15
0100
0010
0100
0010
0001
0001
1000
0100
,  // measure 16
0020
0032
0203
0320
,  // measure 17
0130
0001
0001
0001
1000
0100
0010
0001
,  // measure 18
0200
0000
0320
0000
0130
0001
1000
0001
,  // measure 19
0100
0000
0010
1000
0100
0010
0100
0000
,  // measure 20
1000
0010
0100
0001
1000
0100
0010
0000
,  // measure 21
0101
0000
0000
0100
0000
0000
0000
0000
,  // measure 22
1010
0000
0000
0010
0000
0000
0000
0000
,  // measure 23
1001
0000
0000
1000
0000
0000
0000
0000
,  // measure 24
0110
0000
0000
0010
0000
0000
0000
0000
,  // measure 25
1000
0100
0010
0100
,  // measure 26
1000
0010
0100
0010
,  // measure 27
1000
0001
0010
0100
,  // measure 28
0020
0000
0000
0000
0031
1000
0010
1000
,  // measure 29
0100
0000
0010
0100
1000
0001
0100
0001
,  // measure 30
1000
0000
0100
0010
0001
0100
0100
0100
,  // measure 31
0010
0000
1000
0100
0001
0100
1000
0100
,  // measure 32
0020
0032
0203
0320
,  // measure 33
1030
0010
0001
0010
1000
0100
0010
0001
,  // measure 34
1000
0010
0010
0100
0001
0100
0001
1000
,  // measure 35
0100
0000
0010
0100
1000
0000
0010
0100
,  // measure 36
0001
0000
0000
0001
0000
0000
1000
0000
0000
1000
0000
0000
0010
0000
0000
0000
,  // measure 37
1001
0000
0001
0100
0001
1000
0100
0000
,  // measure 38
0011
0000
0010
0001
1000
0001
0010
0000
,  // measure 39
1100
0000
0100
1000
0010
1000
0100
0010
,  // measure 40
0001
0100
1000
0100
0001
0010
0100
0010
,  // measure 41
0001
0000
0100
0010
1000
0100
0001
0100
,  // measure 42
1000
0000
0100
0010
0001
0100
1000
0100
,  // measure 43
0001
0000
0010
0100
1000
0001
0001
0010
,  // measure 44
0100
1000
0001
1000
0100
1000
0001
0000
,  // measure 45
0100
0001
0010
0001
1000
0000
1010
0000
,  // measure 46
0010
0100
0001
0010
0100
0000
1100
0000
,  // measure 47
0010
0001
1000
0001
0010
1000
0010
0001
,  // measure 48
1000
0010
0010
0100
0100
0001
0010
0100
,  // measure 49
1000
0001
0001
0001
1000
0010
0010
0010
,  // measure 50
0100
0001
0010
0100
1000
0010
0001
0010
,  // measure 51
1000
0000
0100
0010
0001
0100
1000
0100
,  // measure 52
0001
0010
0100
0010
0001
1000
0100
0000
,  // measure 53
0011
0000
0000
0010
0000
0000
0000
0000
,  // measure 54
1100
0000
0000
0100
0000
0000
0000
0000
,  // measure 55
1001
0000
0000
0001
0000
0000
0000
0000
,  // measure 56
0110
0000
0000
0100
0000
0000
0000
0000
,  // measure 57
2000
0000
0000
3100
0000
0000
0000
0000
,  // measure 58
0002
0000
0000
0103
0000
0000
0000
0000
,  // measure 59
2000
0000
0000
3010
0000
0000
0000
0000
,  // measure 60
0002
0000
0000
0013
0000
0000
0000
1000
;

//---------------dance-single - ----------------
#NOTES:
     dance-single:
     :
     Hard:
     13:
     0.581,0.622,0.145,0.145,0.661:
2000
0000
0000
0000
0000
0000
0000
0000
0000
0000
0000
0000
0000
0000
3010
0100
,
0010
0000
0100
0000
0002
0000
0000
0000
0000
0000
0000
0000
0000
0000
0013
0001
,
0010
0000
0000
0000
0100
0000
1000
0100
1000
0000
0000
0000
0001
0000
0100
0010
,
0100
0000
0001
0000
0010
0000
0100
0000
1000
0000
0001
1000
0000
1000
0001
0000
,
1001
0000
0000
0000
1000
0010
1000
0010
0000
0100
0000
0002
0000
0000
1000
0000
,
1003
0000
0001
0100
0010
0001
0010
0100
,
0001
0000
0000
0000
0100
0010
0100
0010
0000
1000
0001
0000
0010
0000
0100
0000
,
1000
0000
0001
0100
0000
0001
1000
0000
0010
0100
0000
0010
0100
0000
0001
0000
,
1000
0000
0001
0000
0010
0001
0010
0001
0000
0100
0010
0000
1000
0000
0100
0000
,
0010
0000
0001
0100
0010
0001
0010
0100
,
0001
0000
0000
0000
1000
0100
1000
0100
0000
1000
0001
0000
0100
0000
0010
0000
,
1000
0000
0100
0000
0001
0000
0100
0000
1000
0010
0000
1000
0010
0000
0100
0000
,
0001
0000
0001
0000
0100
0000
0100
0000
0001
0100
0010
1000
0000
0001
1000
0000
,
0100
0000
0100
0000
0010
0000
0010
0000
0001
0100
0001
1000
0000
0100
1000
0000
,
0001
0000
0010
0000
1000
0000
0010
0000
0001
1000
0000
0100
0000
0010
0000
0001
,
1000
0000
0010
1000
0010
0000
0100
0010
0100
0000
0001
0100
0001
0000
1000
0001
,
1000
0000
0010
0100
0000
0100
0000
0100
0000
0001
1000
0010
0000
0010
0000
1000
,
0001
0010
1000
0010
0001
0100
0010
0100
,
0001
0000
0000
0000
1000
0010
1000
0010
0000
1000
0000
0001
0000
0010
0000
0100
,
0010
0000
0001
0100
0000
0100
0001
0000
1000
0100
0010
0001
1000
0010
1000
0000
,
0220
0000
0330
0202
0000
0000
0303
0000
,
0110
0001
1000
2002
0000
0000
3003
0000
,
1100
0010
0001
2002
0000
0000
3003
0000
,
0101
0010
1000
2002
0000
0000
3003
0000
,
0001
0000
0000
0001
0010
0000
0000
0010
0100
0000
0000
0100
1000
0000
0000
1000
,
0001
0000
0000
0001
0100
0000
0000
0100
0010
0000
0000
0010
1000
0000
0000
1000
,
0001
0000
0000
0001
0010
0000
0000
0010
0100
0000
0000
0100
1000
0000
0000
0000
,
0002
0000
0000
0000
0000
0000
0000
0000
0103
0010
0000
0100
0010
0100
0010
0000
,
1000
0001
0000
1000
0001
0000
0010
0000
1000
0000
0010
0000
0001
0000
0100
0000
,
0010
1000
0000
0010
1000
0000
0001
0000
0000
0010
0100
0000
1000
0000
0001
0000
,
0100
0001
0100
0001
0000
1000
0100
0000
0010
0000
0001
0000
1000
0000
0010
0000
,
1000
0000
0001
0010
0000
0001
0000
0010
0000
0100
0000
1000
0000
0010
0000
0000
,
1000
0000
0001
0010
0001
0010
0000
0100
0000
1000
0000
0001
0000
0000
0100
0000
,
0010
0000
1000
0010
0000
1000
0001
0000
0010
0000
1000
0000
0010
0000
0001
0000
,
1001
0000
1000
0010
0110
0000
0001
1000
,
0100
1000
0000
0100
1000
0000
0010
0100
0000
0010
0100
0000
0001
0000
0010
0000
,
1001
0000
0000
0000
1000
0010
1000
0010
0000
0100
0000
0001
0000
0000
1000
0000
,
0001
0000
0000
0000
0010
0001
0010
0001
0000
0100
0000
0010
0000
1000
0001
0000
,
1001
0000
0000
0000
1000
0100
1000
0100
0000
1000
0001
0000
0100
0000
0010
0000
,
0100
0000
0001
1000
0000
0001
1000
0000
0100
0010
0000
0100
0010
0000
0001
0000
,
0100
0000
0100
0000
0010
1000
0010
1000
0000
0001
0010
0000
0100
0000
1000
0000
,
0010
0000
0000
0000
0100
0001
0100
0001
0000
1000
0100
0000
0010
0000
0100
0000
,
1000
0000
0000
0000
0010
0100
0010
0100
0000
0001
0010
0000
0100
0000
0010
0000
,
0001
0000
1000
0010
0000
1000
0010
0000
0100
0001
0000
1000
0100
1000
0100
0000
,
0010
0000
0001
0000
0100
0000
0100
0000
0010
1000
0100
0010
0000
0100
0010
0000
,
0001
0000
1000
0000
0010
0000
0010
0000
0100
0001
1000
0100
0000
1000
0100
0000
,
0010
0000
0001
0100
0001
0100
0001
0000
1000
0100
0000
0010
0000
0001
0000
1000
,
0010
0000
0100
0010
0100
0000
0001
0100
0001
0000
1000
0001
1000
0000
0100
1000
,
0100
0000
0010
0001
0000
0001
0000
0001
0000
1000
0100
0010
0000
0010
0000
0100
,
1000
0000
0001
0000
0100
0000
0010
0000
1000
0001
1000
0001
0000
0100
0010
0000
,
0100
0000
0001
0010
0001
0010
0001
0010
0000
0001
0000
1000
0000
0010
0100
0000
,
0001
0010
0001
0010
0000
0100
1000
0000
0001
0100
0001
0100
0010
1000
0100
0000
,
1002
0000
0000
0103
0000
0000
0000
0000
,
0020
1000
0000
1030
0000
0000
0000
0000
,
0002
0000
0000
0013
0000
0000
0000
0000
,
0200
1000
0000
1300
0000
0000
0000
0000
,
1100
0000
0000
0010
0000
0000
0000
0000
,
0101
0000
0000
0100
0000
0000
0000
0000
,
1001
0000
0000
0010
0000
0000
0000
0000
,
0110
0000
0000
1000
0000
0000
0000
0000
;

//---------------dance-single - ----------------
#NOTES:
     dance-single:
     :
     Challenge:
     16:
     0.826,0.821,0.298,0.105,1.000:
1001
0000
0000
0000
0100
0000
0000
0000
0100
0000
0000
0000
0100
0000
0010
1000
,
0100
0000
0010
0001
0100
0000
0000
0000
0100
0000
0000
0000
0100
0000
0010
1000
,
0002
0000
0000
0000
0103
0000
0010
1000
0002
0000
0000
0000
0013
0000
0100
1000
,
0001
0000
0010
0000
1100
0000
0010
0000
0001
0010
0100
1000
0000
0100
1000
0000
,
1002
0000
0000
0000
1003
0010
1000
0001
0000
0010
0000
0100
0000
1000
0010
0100
,
0010
0000
0000
0000
0100
0001
1000
0100
0000
0010
0000
0001
0000
1000
0010
0100
,
0010
0000
0000
0000
0000
0000
0000
0000
0000
0000
0000
0000
0100
0000
0000
0001
0000
0000
1000
0000
0000
0100
0000
0000
0000
0000
0000
0010
0000
0000
0100
0000
1000
0000
0100
0000
1000
0000
0000
0010
0000
0000
0100
0000
0000
0001
0000
0000
,
0010
0000
0000
0100
0000
0000
1000
0000
0000
0001
0000
0000
0100
0000
0000
0001
0000
0000
1000
0000
0000
0100
0000
0000
0010
0000
0000
0001
0000
0000
0000
0000
0000
0010
0000
0000
0001
0000
0100
0000
0001
0000
0100
0000
0000
0010
0000
0000
,
1000
0000
1001
0000
0001
0100
0001
1000
0000
0100
1000
0010
0001
0010
1000
0100
,
0010
0000
0000
0000
0000
0000
0000
0000
0000
0000
0000
0000
0001
0000
0100
0000
0001
0000
0100
0000
0000
0010
0000
0000
0000
0000
0000
1000
0000
0000
0010
0000
0000
0100
0000
0000
0000
0000
0000
0001
0000
0000
1000
0000
0000
0100
0000
0000
,
0010
0000
0000
0000
0000
0000
0000
0000
0000
0000
0000
0000
0001
0000
0100
0000
0001
0000
0100
0000
0000
0010
0000
0000
0000
0000
0000
1000
0000
0000
0010
0000
0000
0100
0000
0000
1000
0000
0000
0100
0000
0000
0010
0000
0000
1000
0000
0000
,
0000
0000
0000
0001
0000
0000
0100
0000
0000
0001
0000
0000
0010
0000
0000
0001
0000
0000
0100
0000
0000
0010
0000
0000
1000
0000
0000
0100
0000
0000
0000
0000
0000
1000
0000
0000
0100
0000
0010
0000
0100
0000
0010
0000
0000
0000
0000
0000
,
0101
0000
0100
0010
0100
0001
0010
0001
1000
0010
0001
0010
0000
1000
0100
0010
,
0001
1000
0100
0010
0100
1000
0001
0100
0001
0010
1000
0010
0000
0001
0010
0100
,
0010
0001
1000
0100
0010
0001
1000
0000
0010
1000
0000
1010
0000
1001
0000
0001
,
0010
0000
0000
0000
0000
0000
0100
0000
0010
0000
0100
0000
0010
0000
0000
0001
0000
0000
1000
0000
0000
0010
0000
0000
0100
0000
0000
0001
0000
0000
0100
0000
0000
1000
0000
0000
0100
0000
0000
0001
0000
0000
0010
0000
0000
0100
0000
0000
,
1000
0000
0001
0100
0000
0101
0000
0101
0000
0010
1000
0100
0000
1100
0000
1000
,
0010
0000
0100
0000
0010
0000
0100
0000
0000
0001
0000
0000
0000
0000
0000
0100
0000
0000
0001
0000
0000
0010
0000
0000
0100
0000
0000
1000
0000
0000
0010
0000
0000
0001
0000
0000
0010
0000
0000
1000
0000
0000
0100
0000
0000
0000
0000
0000
,
1001
0000
0000
0000
1000
0010
0100
0001
0000
0100
0001
0010
0100
0010
0001
1000
,
0100
0000
0000
0001
0000
0000
0100
0000
0000
1000
0000
0000
0000
0000
0000
0100
0000
0000
1000
0000
0000
0010
0000
0000
0100
0000
0001
0000
0100
0000
0001
0000
0000
1000
0000
0000
0100
0000
0010
0000
0100
0000
0010
0000
0000
0001
0000
0000
,
1000
0100
0010
0202
0000
0000
0303
0000
,
0001
0100
0001
1000
0100
0000
2002
0000
0000
0000
0000
0000
3003
0000
0000
0000
,
1000
0100
0010
0001
0100
0000
2002
0000
0000
0000
0000
0000
3003
0000
0000
0000
,
1000
0000
0100
0000
0010
0000
0001
0000
1000
0010
0000
1000
0001
0010
0100
1000
,
0001
0100
0000
0010
0100
0000
0001
0100
0000
0010
0100
0000
0001
0100
0000
0010
,
1000
0000
0100
0010
0000
0100
1000
0000
0100
0010
0000
0100
1000
0000
0010
0100
,
0000
0001
0010
0000
0001
1000
0000
0001
0010
0000
0001
1000
0000
0001
0010
0000
,
0100
0000
0000
1000
0000
0000
0001
0000
0100
0001
0000
0100
0001
1000
0100
0010
,
0001
0100
0001
0100
0001
0010
0100
1000
0000
1100
0000
1001
0000
0101
0000
0000
,
0100
0010
0100
0010
0100
0001
0010
0100
0000
0010
0001
0100
0010
1000
0100
0000
,
1000
0000
0000
0100
0000
0000
1000
0000
0000
0100
0000
0000
1000
0000
0000
0010
0000
0000
0100
0000
0000
0001
0000
0000
0000
0000
0000
0100
0000
0000
0010
0000
1000
0000
0010
0000
1000
0000
0000
0100
0000
0000
0010
0000
0000
0001
0000
0000
,
0000
1000
0010
1000
0100
1000
0010
0100
0000
0101
0000
0110
0000
1010
0000
0000
,
0010
0000
0100
0001
0100
0010
0000
1010
0000
1001
0000
0001
0010
0100
0010
0001
,
0100
0000
0010
0010
0000
0100
0001
0010
1000
0010
0001
0100
0000
0001
0100
0010
,
1001
0000
0000
0000
1000
0100
0010
0001
0101
0000
0000
0000
0010
0100
0001
1000
,
0100
0100
0000
0010
0010
0000
0100
0100
0000
0010
0010
0000
0001
0010
0100
1000
,
0001
0000
0000
0000
0100
0010
0100
0001
0000
1001
0000
1100
0000
0010
0100
0000
,
1001
0000
0000
0000
0001
0100
0001
1000
0000
0100
0010
0001
1000
0010
0100
0000
,
1001
0000
0000
0000
0000
0000
0000
0000
0000
0000
0000
0000
1000
0000
0000
0100
0000
0000
1000
0000
0000
0001
0000
0000
0000
0000
0000
0100
0000
0000
0010
0000
1000
0000
0010
0000
1000
0000
0000
0100
0000
0000
0010
0000
0000
0001
0000
0000
,
1000
0000
0000
0100
0000
0000
0010
0000
0000
0100
0000
0000
0000
0000
0000
0010
0000
0000
0100
0000
0000
0000
0000
0000
1000
0000
0000
0010
0000
0000
0000
0000
0000
0100
0000
0000
0001
0000
0010
0000
0001
0000
0010
0000
0000
0100
0000
0000
,
1000
0000
1001
0000
0001
0100
0010
0100
0000
0010
1000
0100
0001
0100
1000
0000
,
1001
0000
0000
0000
0001
0100
0010
1000
0000
0010
1000
0100
0000
1000
0100
0010
,
0001
0000
0000
0000
0000
0000
0000
0000
0000
0000
0000
0000
0100
0000
0010
0000
0100
0000
0010
0000
0000
1000
0000
0000
0000
0000
0000
0010
0000
0000
1000
0000
0100
0000
1000
0000
0100
0000
0000
0010
0000
0000
0001
0000
0000
1000
0000
0000
,
0100
0010
0100
1000
0001
0100
0001
1000
0100
0010
0000
0001
0100
0010
1000
0000
,
1001
0000
0001
0010
0001
0000
1000
0001
1000
0010
0100
0001
0000
0100
0001
1000
,
0100
0000
0010
0100
0010
0000
0001
1000
0100
0010
0001
0100
0000
0001
0100
0010
,
0100
0000
0001
0010
0100
1000
0001
0100
0010
1000
0000
1010
0000
0110
0000
0100
,
0001
0000
0000
0000
0000
0000
1000
0000
0100
0000
1000
0000
0100
0000
0000
0010
0000
0000
0001
0000
0000
0100
0000
0000
1000
0000
0000
0100
0000
0000
0001
0000
0000
0010
0000
0000
0100
0000
0010
0000
0100
0000
0010
0000
0000
0001
0000
0000
,
0100
0000
0010
1000
0000
1010
0000
0110
0000
0100
0001
0010
0000
0011
0000
0001
,
1000
0000
0100
0000
1000
0000
0100
0000
0000
0010
0000
0000
0000
0000
0000
0100
0000
0000
1000
0000
0000
0010
0000
0000
0100
0000
0000
0001
0000
0000
0010
0000
0000
0100
0000
0000
0000
0000
0000
1000
0000
0000
0010
0000
0000
0000
0000
0000
,
1001
0000
0001
0100
0010
1000
0100
0010
0000
0001
0100
0010
0100
0001
1000
0001
,
0100
0000
0000
1000
0000
0000
0100
0000
0000
0001
0000
0000
1000
0000
0000
0010
0000
0000
0100
0000
0000
0001
0000
0000
1000
0000
0001
0000
1000
0000
0001
0000
0000
0010
0000
0000
0100
0000
1000
0000
0100
0000
1000
0000
0000
0001
0000
0000
,
0100
0000
0010
0000
0100
0000
0002
0000
0000
0000
0000
0000
0003
0000
0010
0001
,
1000
0100
0010
0002
0000
0000
0003
0000
,
0010
0100
1000
0020
0000
0000
0030
0000
,
0100
0001
0010
0200
0000
0000
0300
0000
,
1000
0000
0001
0000
0001
0000
0010
0000
0100
0000
0100
0000
0000
0000
1000
0001
,
0010
0100
0100
1000
0010
0010
0100
0000
,
0010
1000
1000
0001
0010
0010
0001
0000
,
0010
0100
0100
1000
0010
0010
0000
0010
;

//---------------dance-single - ----------------
#NOTES:
     dance-single:
     :
     Beginner:
     2:
     0.082,0.143,0.048,0.000,0.000:
1000
0000
0000
0000
,
1000
0000
0000
0000
,
0001
0000
0001
0000
,
0001
0000
0000
0000
,
1001
0000
0000
0000
,
0001
0000
0000
0000
,
0100
0000
0000
0000
,
0001
0000
0000
0000
,
1000
0000
0000
0000
,
0010
0000
0000
0000
,
1000
0000
0000
0000
,
0001
0000
0000
0000
,
1001
0000
0000
0000
,
1000
0000
0000
0000
,
0100
0000
0000
0000
,
0010
0000
0000
0000
,
0001
0000
0000
0000
,
0100
0000
0000
0000
,
0010
0000
0000
0000
,
1000
0000
0001
0000
,
1001
0000
0000
0000
,
0000
0000
0000
0000
,
0000
0000
0000
0000
,
0000
0000
0000
0000
,
0001
0000
0000
0000
,
0001
0000
0000
0000
,
1000
0000
0000
0000
,
1000
0000
0000
0000
,
0100
0000
0000
0000
,
0010
0000
0000
0000
,
0001
0000
0000
0000
,
1000
0000
0000
0000
,
0001
0000
0000
0000
,
0100
0000
0000
0000
,
1001
0000
0001
0000
,
1000
0000
0000
0000
,
1001
0000
0000
0000
,
0001
0000
0000
0000
,
0010
0000
0000
0000
,
0100
0000
0000
0000
,
1000
0000
0000
0000
,
0001
0000
0000
0000
,
0100
0000
0000
0000
,
0001
0000
0000
0000
,
1000
0000
1000
0000
,
0001
0000
0001
0000
,
1000
0000
1000
0000
,
0001
0000
0010
0000
,
0100
0000
0100
0000
,
0010
0000
0010
0000
,
0100
0000
0100
0000
,
1000
0000
0010
0000
,
1001
0000
0000
0000
,
0000
0000
0000
0000
,
0000
0000
0000
0000
,
0000
0000
0000
0000
,
0001
0000
0000
0000
,
1000
0000
0000
0000
,
0001
0000
0000
0000
,
1000
0000
0000
0000
;
