#TITLE:Shock of Love;
#SUBTITLE:;
#ARTIST:Kiddy & Sunshine Lovers;
#TITLETRANSLIT:;
#SUBTITLETRANSLIT:;
#ARTISTTRANSLIT:;
#CREDIT:DigiMindAxel;
#BANNER:Shock of Love.png;
#BACKGROUND:Shock of Love-bg.png;
#LYRICSPATH:Shock of Love.lrc;
#CDTITLE:pop'n music.png;
#MUSIC:Shock of Love.ogg;
#METERTYPE:DDR X;
#OFFSET:-7.561;
#SAMPLESTART:33.147;
#SAMPLELENGTH:12.000;
#SELECTABLE:YES;
#BPMS:0.000=150.000;
#STOPS:;
#BGCHANGES:;

//---------------dance-single - ----------------
#NOTES:
     dance-single:
     :
     Easy:
     3:
     0.177,0.220,0.261,0.068,0.000: // measure 1
0002
0000
0000
0000
,  // measure 2
0000
0000
0000
0000
0000
1003
0000
0000
,  // measure 3
0200
0000
0000
0000
,  // measure 4
2300
0000
0000
0000
0000
3001
0000
0000
,  // measure 5
1000
0100
1000
0000
,  // measure 6
0001
0010
0001
0000
,  // measure 7
1000
0100
1000
0000
,  // measure 8
0001
0010
0001
0000
,  // measure 9
1000
0001
1000
0000
,  // measure 10
0001
1000
0001
0000
,  // measure 11
0000
1001
0000
1001
,  // measure 12
0000
0000
0000
0000
,  // measure 13
1001
0000
0001
0000
,  // measure 14
0001
0000
0001
0000
,  // measure 15
1001
0000
0010
0000
,  // measure 16
0100
0000
1000
0000
,  // measure 17
1001
0000
1000
0000
,  // measure 18
1000
0000
1000
0000
,  // measure 19
1001
0000
0100
0000
,  // measure 20
0010
0000
0001
0000
,  // measure 21
1001
0000
0000
0000
,  // measure 22
0110
0000
0000
0000
,  // measure 23
1001
0000
0000
0000
,  // measure 24
0000
0000
0000
0000
,  // measure 25
1000
0000
0000
0000
,  // measure 26
0000
0000
0000
0000
,  // measure 27
1000
0000
0000
0000
,  // measure 28
0001
0000
0000
0000
,  // measure 29
0002
0000
0000
0000
,  // measure 30
2003
0000
0000
0000
,  // measure 31
3001
0000
0000
0000
,  // measure 32
0000
0000
0000
0000
,  // measure 33
1001
0000
0001
0000
,  // measure 34
1000
0000
0001
0000
,  // measure 35
1001
0000
1000
0000
,  // measure 36
0001
0000
1000
0000
,  // measure 37
0110
0000
0001
0000
,  // measure 38
1000
0000
0001
0000
,  // measure 39
0000
1001
0000
1001
,  // measure 40
0000
0000
0100
0000
,  // measure 41
1000
0000
1000
0000
,  // measure 42
1001
0000
0001
0000
,  // measure 43
1001
0000
0010
0000
,  // measure 44
0100
0000
1000
0000
,  // measure 45
1001
0000
1000
0000
,  // measure 46
0001
0000
1000
0000
,  // measure 47
1001
0000
0100
0000
,  // measure 48
0010
0000
0001
0000
,  // measure 49
1001
0000
0000
0000
,  // measure 50
1001
0000
0000
0000
,  // measure 51
0110
0000
0000
0000
,  // measure 52
0110
0000
0000
0000
,  // measure 53
1001
0000
0001
0000
,  // measure 54
1001
0000
1000
0000
,  // measure 55
1001
0000
0010
0000
,  // measure 56
0110
0000
0100
0000
,  // measure 57
0220
0000
0000
0000
,  // measure 58
0330
0000
0000
0000
;

//---------------dance-single - ----------------
#NOTES:
     dance-single:
     :
     Hard:
     11:
     0.518,0.496,0.735,0.116,0.000: // measure 1
1000
1100
1000
1100
,  // measure 2
0001
0011
0001
0011
,  // measure 3
1000
1010
1000
1010
,  // measure 4
0001
0101
0001
0101
,  // measure 5
1001
0000
1000
0010
0000
0010
1000
0001
,  // measure 6
1000
0102
0103
2010
,  // measure 7
3010
0000
1000
0100
0000
0100
1000
0001
,  // measure 8
1000
0012
0013
2100
,  // measure 9
3100
0000
1000
0010
0000
0010
0100
0001
,  // measure 10
1000
0102
0103
2010
,  // measure 11
3010
1001
0010
1001
,  // measure 12
0010
0000
1000
0010
0100
0010
1000
0000
,  // measure 13
1001
1001
0110
0110
,  // measure 14
1001
1001
0110
0110
,  // measure 15
1000
0100
0010
0001
0000
0001
0100
0010
,  // measure 16
0000
1000
0010
0001
0010
0000
1100
0000
,  // measure 17
1001
1001
0110
0110
,  // measure 18
1001
1001
0110
0110
,  // measure 19
0001
0010
0100
1000
0000
1000
0010
0100
,  // measure 20
0000
0001
0100
1000
0100
0000
0011
0000
,  // measure 21
0001
0100
0010
1000
0000
1000
0010
0100
,  // measure 22
0000
0001
0100
1000
0100
0000
0101
0000
,  // measure 23
1001
1000
1000
1000
,  // measure 24
0001
0010
0000
0001
0010
0000
0100
1000
,  // measure 25
0010
0010
0010
0010
,  // measure 26
0100
0001
0000
0100
0001
0000
0100
0010
,  // measure 27
1000
1000
1000
1000
,  // measure 28
0001
0010
0000
0001
0010
0000
0001
0010
,  // measure 29
0100
1000
0100
1000
0100
1000
0100
1000
,  // measure 30
0010
0100
0010
0100
0010
0100
0010
0100
,  // measure 31
0010
0000
0000
0000
,  // measure 32
0000
0100
0010
0100
0010
0100
0010
1000
,  // measure 33
0001
0000
0001
1000
0000
1000
0100
1000
,  // measure 34
0000
0001
0000
1000
0001
0010
0001
1000
,  // measure 35
0000
0001
1000
0100
0020
0000
0000
0230
,  // measure 36
0000
0000
1300
0001
0100
0000
0100
0000
,  // measure 37
1001
0000
0001
1000
0000
1000
0001
0020
,  // measure 38
0000
0000
0000
0230
0000
0000
1300
0001
,  // measure 39
1000
0110
0001
0110
,  // measure 40
1000
0000
0010
0100
0010
0100
0001
0000
,  // measure 41
0110
0110
1001
1001
,  // measure 42
0110
0110
1001
1001
,  // measure 43
0100
0010
0001
0100
0000
0010
1000
0100
,  // measure 44
0000
1000
0100
0001
0100
0000
1100
0000
,  // measure 45
0110
0110
1001
1001
,  // measure 46
0110
0110
1001
1001
,  // measure 47
0010
0100
1000
0010
0000
0100
0001
0010
,  // measure 48
0000
0001
0010
1000
0010
0000
0011
0000
,  // measure 49
0001
1000
0100
1000
0000
1000
0001
0000
,  // measure 50
1000
0001
0010
0001
1000
0000
1001
0000
,  // measure 51
1010
1001
1010
1001
,  // measure 52
0101
1001
0101
1001
,  // measure 53
1010
0110
0101
0110
,  // measure 54
1100
0110
0011
0110
,  // measure 55
1000
0010
1000
0010
1000
0001
0010
0001
,  // measure 56
0010
0001
0100
0010
0100
0010
1000
0001
,  // measure 57
0220
0000
0000
0000
,  // measure 58
0330
0000
0000
0000
;

//---------------dance-single - ----------------
#NOTES:
     dance-single:
     :
     Challenge:
     12:
     0.609,0.661,0.338,0.213,0.334:
1001
0000
0000
0000
1010
0000
0000
0010
1000
0000
0100
0000
0010
0000
0000
0000
,
0001
0000
0000
0000
0101
0000
0000
0100
0001
0000
0010
0000
0100
0000
0000
0000
,
1000
0000
0000
0000
1100
0000
0000
0100
1000
0000
0010
0000
0100
0000
0000
0000
,
0001
0000
0000
0000
0101
0000
0000
0100
0001
0000
0010
0000
0100
0000
0000
0000
,
1001
0000
0010
0100
0000
1000
0010
0100
,
0010
0100
1001
0000
0010
0100
1001
0000
,
0001
0000
0100
0010
0000
1000
0100
1000
,
0001
0010
1001
0000
0001
0010
1001
0000
,
1000
0000
0010
0100
0000
0010
1000
0100
,
0010
0001
0110
0000
0010
0001
0110
0000
,
1000
0100
0022
0033
0001
0010
2200
3300
,
1000
0010
0100
0001
0100
0010
2002
3003
,
1001
0000
0000
0001
0100
0000
0000
0001
0100
0000
0000
0100
0010
0000
0000
0010
,
1000
0000
0000
0010
1000
0000
0000
1000
0001
0000
0000
0001
1000
0000
0000
0000
,
0010
1000
0100
0010
0000
0001
0010
1000
,
0000
0010
0001
1000
0100
0000
0011
0000
,
1001
0000
0000
1000
0010
0000
0000
1000
0010
0000
0000
0010
0100
0000
0000
0100
,
0001
0000
0000
0100
0001
0000
0000
0001
1000
0000
0000
1000
0001
0000
0000
0000
,
0100
0001
0010
0100
0000
1000
0100
0001
,
0000
0100
1000
0001
0100
0000
1010
0000
,
1000
0010
0100
0001
0000
1000
0010
0001
,
0000
0010
1000
0001
0010
0000
1100
0000
,
1001
0000
0000
0010
0001
0000
0000
0010
0001
0000
0000
0010
0001
0000
0000
0001
,
1000
0000
0000
0100
1000
0000
0000
0100
1000
0000
0000
1000
0010
0000
0000
0010
,
0100
0000
0000
0010
0100
0000
0000
0010
0100
0000
0000
0010
0100
0000
0000
0100
,
0001
0000
0000
0100
0001
0000
0000
0001
1000
0000
0000
1000
0010
0000
0000
0010
,
0100
0000
0000
0010
0100
0000
0000
0100
0010
0000
0000
0100
0010
0000
0000
0010
,
1000
0000
0000
1000
0001
0000
0000
1000
0001
0000
0000
1000
0001
0000
0000
0000
,
0100
0001
0100
0001
0100
0001
0100
0001
,
0010
0100
0010
0100
0010
0100
0010
0100
,
1000
0000
0000
0000
,
0000
0010
0010
0010
0010
0010
0010
0010
,
1000
0001
0010
0001
1000
0010
0100
0010
,
1000
0000
0000
0001
0200
0000
0000
0000
0301
0000
1000
0000
0200
0000
0000
0000
,
1300
0100
1000
0001
1000
0010
0100
0010
,
1000
0000
0000
0001
0020
0000
0000
0000
0031
0000
0100
0000
0020
0000
0000
0000
,
0130
0001
0010
0001
0100
0001
0010
0100
,
1000
0000
0000
0001
0200
0000
0000
0000
0310
0000
1000
0000
0100
0000
0000
0000
,
1000
0010
0202
0303
0001
0100
2020
3030
,
1000
0001
0010
0100
1000
0010
2002
3003
,
1001
0000
0000
1000
0010
0000
0000
1000
0010
0000
0000
0010
0100
0000
0000
0100
,
0001
0000
0000
0100
0001
0000
0000
0001
1000
0000
0000
1000
0001
0000
0000
0000
,
0010
0100
1000
0010
1000
0100
0001
0100
,
1000
0001
0010
0100
1000
0000
1100
0000
,
1001
0000
0000
0001
0100
0000
0000
0001
0100
0000
0000
0100
0010
0000
0000
0010
,
1000
0000
0000
0010
1000
0000
0000
1000
0001
0000
0000
0001
1000
0000
0000
0000
,
0100
0010
0001
0100
0001
0010
1000
0010
,
0001
1000
0100
0010
0001
0000
1001
0000
,
1000
0100
1000
0010
0000
0010
0100
0001
,
0010
1000
0010
0001
0100
0000
0101
0000
,
1001
0000
0000
1000
0001
0000
0000
1000
0001
0000
0000
0001
0010
0000
0000
0001
,
0010
0000
0000
0010
0100
0000
0000
0010
0100
0000
0000
0100
1000
0000
0000
0000
,
1001
0000
0000
0000
1020
0000
0130
0010
0100
0000
0000
0000
0201
0000
0310
0100
,
0010
0000
0000
0000
1002
0000
0013
0001
0010
0000
0000
0000
0001
1000
0001
0000
,
0100
0010
0001
0010
0100
0001
1000
0100
,
0001
0100
1000
0010
0100
1000
0100
0010
,
2200
0000
0000
0000
,
3300
0000
0000
0000
;

//---------------dance-single - ----------------
#NOTES:
     dance-single:
     :
     Beginner:
     1:
     0.064,0.108,0.039,0.000,0.000: // measure 1
1000
0000
0000
0000
,  // measure 2
0000
0000
0000
0000
,  // measure 3
0001
0000
0000
0000
,  // measure 4
1000
0000
0000
0000
,  // measure 5
1001
0000
0000
0000
,  // measure 6
0000
0000
0000
0000
,  // measure 7
0010
0000
0000
0000
,  // measure 8
0000
0000
0000
0000
,  // measure 9
0001
0000
0000
0000
,  // measure 10
0000
0000
0000
0000
,  // measure 11
1000
0000
0000
0000
,  // measure 12
0001
0000
0000
0000
,  // measure 13
1000
0000
0000
0000
,  // measure 14
0100
0000
0000
0000
,  // measure 15
1000
0000
0000
0000
,  // measure 16
0000
0000
0000
0000
,  // measure 17
0001
0000
0000
0000
,  // measure 18
0100
0000
0000
0000
,  // measure 19
0001
0000
0000
0000
,  // measure 20
1000
0000
0000
0000
,  // measure 21
0010
0000
0000
0000
,  // measure 22
0010
0000
0000
0000
,  // measure 23
0010
0000
0000
0000
,  // measure 24
0000
0000
0000
0000
,  // measure 25
0010
0000
0000
0000
,  // measure 26
0000
0000
0000
0000
,  // measure 27
0010
0000
0000
0000
,  // measure 28
0000
0000
0000
0000
,  // measure 29
0100
0000
0000
0000
,  // measure 30
0000
0000
0000
0000
,  // measure 31
0001
0000
0000
0000
,  // measure 32
0000
0000
0000
0000
,  // measure 33
0001
0000
0000
0000
,  // measure 34
0000
0000
0000
0000
,  // measure 35
1000
0000
0000
0000
,  // measure 36
0000
0000
0000
0000
,  // measure 37
0001
0000
0000
0000
,  // measure 38
0000
0000
0000
0000
,  // measure 39
0100
0000
0000
0000
,  // measure 40
0100
0000
0000
0000
,  // measure 41
1001
0000
0000
0000
,  // measure 42
1000
0000
0000
0000
,  // measure 43
0001
0000
0000
0000
,  // measure 44
0000
0000
0000
0000
,  // measure 45
1001
0000
0000
0000
,  // measure 46
0001
0000
0000
0000
,  // measure 47
1000
0000
0000
0000
,  // measure 48
0000
0000
0000
0000
,  // measure 49
0010
0000
0000
0000
,  // measure 50
0010
0000
0000
0000
,  // measure 51
0100
0000
0000
0000
,  // measure 52
0100
0000
0000
0000
,  // measure 53
0010
0000
0000
0000
,  // measure 54
0010
0000
0000
0000
,  // measure 55
0100
0000
0000
0000
,  // measure 56
0100
0000
0000
0000
,  // measure 57
1001
0000
0000
0000
;

//---------------dance-single - ----------------
#NOTES:
     dance-single:
     :
     Medium:
     7:
     0.337,0.386,0.261,0.155,0.000: // measure 1
1000
0001
1000
0000
,  // measure 2
0010
0100
0010
1000
,  // measure 3
0001
1000
0001
0000
,  // measure 4
0100
0010
0100
0001
,  // measure 5
1000
0100
1000
0100
,  // measure 6
0001
0010
0001
0010
,  // measure 7
1000
0100
1000
0100
,  // measure 8
0001
0010
0001
0010
,  // measure 9
1000
0001
1000
0100
,  // measure 10
0010
0001
1000
0001
,  // measure 11
0100
1001
0100
1001
,  // measure 12
0100
0001
0010
0100
,  // measure 13
1001
0001
0001
0010
,  // measure 14
0100
0000
1000
0000
1000
0000
1000
0001
,  // measure 15
1000
0010
0010
0100
,  // measure 16
0100
0001
0001
0001
,  // measure 17
1001
1000
1000
0100
,  // measure 18
0010
0000
0001
0000
0001
0000
0001
1000
,  // measure 19
0001
0100
0100
0010
,  // measure 20
0010
1000
1000
1000
,  // measure 21
2001
0000
0000
0100
0000
0000
3100
0000
,  // measure 22
1002
0000
0000
0010
0000
0000
0013
0000
,  // measure 23
2001
0000
0000
0000
,  // measure 24
3200
0000
0000
0000
,  // measure 25
0320
0000
0000
0000
,  // measure 26
0032
0000
0000
0000
,  // measure 27
2003
0000
0000
0000
,  // measure 28
3002
0000
0000
0000
,  // measure 29
0103
0100
0100
0100
,  // measure 30
0010
0010
0010
0010
,  // measure 31
0200
0000
0000
0000
,  // measure 32
0320
0000
0000
0030
,  // measure 33
1001
1000
0001
0010
,  // measure 34
0100
1000
0001
1000
,  // measure 35
1001
0001
1000
0100
,  // measure 36
0010
0001
1000
0001
,  // measure 37
1001
1000
0001
0010
,  // measure 38
0100
1000
0001
1000
,  // measure 39
0100
1001
0100
1001
,  // measure 40
0100
1000
0010
0100
,  // measure 41
0110
0001
1000
0001
,  // measure 42
0110
1000
0001
1000
,  // measure 43
0110
0001
0010
0100
,  // measure 44
1000
0000
0001
0000
0100
0010
0100
0000
,  // measure 45
1001
0100
0010
0001
,  // measure 46
0110
1000
0100
0010
,  // measure 47
1001
0010
0100
1000
,  // measure 48
0100
0000
0010
0000
0001
1000
0001
0000
,  // measure 49
0200
0001
0001
0301
,  // measure 50
2000
0001
0001
3001
,  // measure 51
0020
0001
0001
0031
,  // measure 52
0200
0010
0010
0310
,  // measure 53
1000
0110
0001
0110
,  // measure 54
1000
0110
0001
0110
,  // measure 55
1000
1100
0010
0011
,  // measure 56
1000
1010
0100
0101
,  // measure 57
2002
0000
0000
0000
,  // measure 58
3003
0000
0000
0000
;
