#TITLE:Shakah;
#SUBTITLE:;
#ARTIST:Feryquitous;
#TITLETRANSLIT:;
#SUBTITLETRANSLIT:;
#ARTISTTRANSLIT:;
#CREDIT:DigiMindAxel;
#BANNER:Shakah.png;
#BACKGROUND:Shakah-bg.png;
#LYRICSPATH:;
#CDTITLE:DigiMindAxel original simfile.png;
#MUSIC:Shakah.ogg;
#METERTYPE:DDR X;
#OFFSET:-7.581;
#SAMPLESTART:10.046;
#SAMPLELENGTH:12.000;
#SELECTABLE:YES;
#BPMS:0.000=191.000;
#STOPS:199.500=0.1570680628
;
#BGCHANGES:;

//---------------dance-single - ----------------
#NOTES:
     dance-single:
     :
     Easy:
     6:
     0.278,0.328,0.134,0.196,0.000: // measure 1
2002
0000
0000
0000
,  // measure 2
0000
0000
0000
3003
,  // measure 3
1000
0000
0001
0000
,  // measure 4
0010
0001
0010
0000
,  // measure 5
0100
0000
1000
0000
,  // measure 6
0001
1000
0001
0000
,  // measure 7
0010
0000
0001
0000
,  // measure 8
0100
0010
0100
0000
,  // measure 9
0001
0000
1000
0000
,  // measure 10
0100
1000
0100
0000
,  // measure 11
0010
0000
0001
0000
,  // measure 12
0100
0010
0100
0000
,  // measure 13
0010
0000
1000
0000
,  // measure 14
0100
1000
0100
0000
,  // measure 15
0010
0000
0001
0000
,  // measure 16
0100
0010
0100
0000
,  // measure 17
0001
0000
1000
0000
,  // measure 18
0100
1000
0100
0000
,  // measure 19
0020
0000
0000
0000
,  // measure 20
0032
0000
0000
0000
,  // measure 21
0203
0000
0000
0000
,  // measure 22
0320
0000
0000
0000
,  // measure 23
2030
0000
0000
0000
,  // measure 24
3200
0000
0000
0000
,  // measure 25
0320
0000
0000
0000
,  // measure 26
0230
0000
0000
0000
,  // measure 27
2300
0000
0001
0000
,  // measure 28
3002
0000
0000
0000
,  // measure 29
0100
0000
0100
0000
,  // measure 30
0103
0000
0000
0000
,  // measure 31
0020
0000
1000
0000
,  // measure 32
2030
0000
0000
0000
,  // measure 33
0001
0000
0001
0000
,  // measure 34
3001
0000
0000
0000
,  // measure 35
0020
0000
0001
0000
,  // measure 36
0032
0000
0000
0000
,  // measure 37
1000
0000
1000
0000
,  // measure 38
1003
0000
0000
0000
,  // measure 39
0200
0000
1000
0000
,  // measure 40
2300
0000
0000
0000
,  // measure 41
0010
0000
0010
0000
,  // measure 42
3010
0000
0000
0000
,  // measure 43
1001
0000
1000
0001
,  // measure 44
0010
0100
1000
0000
,  // measure 45
1001
0000
0001
1000
,  // measure 46
0100
0010
0001
0000
,  // measure 47
1001
0000
1000
0010
,  // measure 48
0100
0001
0010
0000
,  // measure 49
1001
0000
0001
0100
,  // measure 50
0010
1000
0000
0000
,  // measure 51
2002
0000
0000
3003
,  // measure 52
0100
0010
0100
0001
,  // measure 53
1000
0000
0000
0100
0000
0000
1000
0000
,  // measure 54
0000
0100
0000
0000
0000
0000
0000
0000
,  // measure 55
1000
0001
1000
0000
,  // measure 56
0100
1000
0100
0000
,  // measure 57
0010
0001
0010
0001
,  // measure 58
0000
0100
0000
0100
0000
0100
0000
0000
,  // measure 59
2002
0000
0000
3003
,  // measure 60
0001
1000
0100
0010
,  // measure 61
0100
0000
0000
1000
0000
0000
0100
0000
,  // measure 62
0000
1000
0000
0000
0000
0000
0000
0000
,  // measure 63
0001
0100
0001
0000
,  // measure 64
1000
0001
1000
0000
,  // measure 65
0010
1000
0100
0010
,  // measure 66
0000
0100
0000
0100
0000
0100
0000
0000
,  // measure 67
1001
0000
1000
0000
,  // measure 68
0001
0000
1001
0000
,  // measure 69
1000
0000
0110
0000
,  // measure 70
0001
0000
0110
0000
,  // measure 71
1000
0000
1001
0000
,  // measure 72
0001
0000
0110
0000
,  // measure 73
1000
0000
0110
0000
,  // measure 74
0001
0000
1001
0000
,  // measure 75
1000
0010
0100
0000
,  // measure 76
0010
0100
0010
0000
,  // measure 77
1000
0100
0010
0000
,  // measure 78
0001
1000
0001
0000
,  // measure 79
0010
0001
0100
0000
,  // measure 80
0001
0100
0001
0000
,  // measure 81
0100
0010
1000
0000
,  // measure 82
0001
1000
0001
0010
;

//---------------dance-single - ----------------
#NOTES:
     dance-single:
     :
     Medium:
     11:
     0.521,0.583,0.375,0.330,0.000: // measure 1
2002
0000
0000
0000
,  // measure 2
0000
0000
0000
3003
,  // measure 3
0011
0100
1000
0001
,  // measure 4
0000
0100
0001
0000
1000
0100
1000
0000
,  // measure 5
0011
0100
1000
0001
,  // measure 6
0000
0100
0001
0000
1000
0100
1000
0000
,  // measure 7
0110
0001
0100
0010
,  // measure 8
0000
1000
0100
0000
0010
0100
0010
0000
,  // measure 9
0110
0001
0100
0010
,  // measure 10
0000
1000
0100
0000
0010
0100
0010
0000
,  // measure 11
1001
0100
0010
0001
,  // measure 12
0000
1000
0010
0000
0100
0010
0100
0010
,  // measure 13
1000
0100
0010
0100
,  // measure 14
0000
1000
0100
0000
0010
0100
0010
0100
,  // measure 15
1000
0001
0010
0100
,  // measure 16
0000
0010
0001
0000
0100
0010
0100
0010
,  // measure 17
1000
0010
0100
0001
,  // measure 18
0000
1100
0000
0011
0000
0002
0000
0000
,  // measure 19
1003
0000
0000
0100
0000
0000
0010
0000
,  // measure 20
0000
0001
0000
0000
1000
0010
1000
0000
,  // measure 21
0000
0001
0000
0000
0010
0000
0000
0200
,  // measure 22
0000
1000
0000
1300
0000
0000
0000
0000
,  // measure 23
0001
0000
0000
0010
0000
0000
0100
0000
,  // measure 24
0000
0010
0000
0000
0001
1000
0001
0000
,  // measure 25
0000
1000
0000
0000
0010
0000
0000
0200
,  // measure 26
0000
0010
0000
0310
0000
0000
0000
0000
,  // measure 27
1200
0000
0000
0320
0000
0000
0230
0000
,  // measure 28
0000
1300
0000
0001
0100
0010
1000
0000
,  // measure 29
0001
0000
0010
0001
0010
0000
0100
1000
,  // measure 30
0000
0010
0000
1000
0100
0000
0000
0000
,  // measure 31
0020
0000
0000
0032
0000
0000
0003
0000
,  // measure 32
0200
0000
0320
0000
,  // measure 33
2030
0000
0000
3200
0000
0000
0320
0000
,  // measure 34
0000
0032
0000
0000
1003
0000
0010
0000
,  // measure 35
2000
0000
0000
3002
,  // measure 36
0000
0000
1003
0000
,  // measure 37
0200
0000
1300
0002
,  // measure 38
0000
0000
0103
0010
0100
0000
0010
0000
,  // measure 39
2000
0000
0100
0000
,  // measure 40
3002
0000
0100
0000
,  // measure 41
1003
0000
0100
1000
0100
0000
0000
0010
,  // measure 42
0000
0010
0000
0001
0100
0000
0000
0000
,  // measure 43
1001
0000
0001
1000
0000
0001
1000
0100
,  // measure 44
1000
0010
0110
0110
,  // measure 45
1001
0000
1000
0001
0000
1000
0100
0010
,  // measure 46
0001
1100
0011
1100
,  // measure 47
1001
0000
0001
1000
0000
0001
1000
0010
,  // measure 48
1000
0010
0110
0110
,  // measure 49
1001
0000
1000
0001
0000
1000
0010
0100
,  // measure 50
0001
0000
2000
0000
0000
0000
0000
3000
,  // measure 51
1001
0000
0001
0000
1000
0100
0010
0100
,  // measure 52
1000
0000
0100
1000
0100
0000
0010
0100
,  // measure 53
0020
0000
0000
0032
0000
0000
0203
0000
,  // measure 54
0000
0320
0000
0000
0000
0030
0000
0000
,  // measure 55
1001
0000
0001
0100
0010
0100
0001
0000
,  // measure 56
0010
0000
0100
0000
1000
0010
0100
0000
,  // measure 57
1001
0000
1000
0000
0100
0010
0001
1000
,  // measure 58
0000
1100
0000
0011
0000
1001
0000
0000
,  // measure 59
1010
0000
0010
0000
0100
0001
0010
0001
,  // measure 60
0100
0000
0010
1000
0100
0000
1000
0100
,  // measure 61
0020
0000
0000
0230
0000
0000
2300
0000
,  // measure 62
0000
3020
0000
0000
0000
0000
0030
0000
,  // measure 63
0110
0000
0100
0001
0010
0001
0100
0000
,  // measure 64
0010
0000
1000
0000
0100
0010
0001
0000
,  // measure 65
0110
0000
0010
0000
0100
1000
0010
0100
,  // measure 66
0000
0101
0000
1010
0000
1001
0000
0000
,  // measure 67
0011
0000
0000
0001
0010
0000
0001
0010
,  // measure 68
0100
1000
1010
0000
,  // measure 69
0110
0000
0000
0100
0010
0000
1000
0010
,  // measure 70
0100
0001
0011
0000
,  // measure 71
1100
0000
0000
0100
1000
0000
0001
0100
,  // measure 72
0010
1000
1100
0000
,  // measure 73
0110
0000
0000
0100
0010
0000
0001
1000
,  // measure 74
0010
0100
0101
0000
,  // measure 75
1002
0000
1003
0100
0010
0000
0001
1000
,  // measure 76
0001
0010
0000
0100
1000
0100
0000
0000
,  // measure 77
2000
0000
3010
0100
0001
0000
1000
0001
,  // measure 78
1000
0010
0000
0200
0000
0000
0310
0000
,  // measure 79
2001
0000
3001
0010
0100
0000
1000
0100
,  // measure 80
1000
0010
0000
0100
0001
0000
0000
0000
,  // measure 81
0020
0000
0130
1000
0010
0000
0100
0010
,  // measure 82
0100
0001
0000
0020
0000
0000
0130
0000
;

//---------------dance-single - ----------------
#NOTES:
     dance-single:
     :
     Hard:
     13:
     0.678,0.802,0.268,0.615,0.018: // measure 1
2002
0000
0000
0000
,  // measure 2
0000
0000
0000
3003
,  // measure 3
1000
0010
0100
0000
0000
0001
1000
0000
,  // measure 4
0000
0100
0100
0010
0001
0100
0010
0010
,  // measure 5
0100
0001
0010
0000
0000
0001
1000
0000
,  // measure 6
0000
0010
0010
0100
0001
0010
0100
0100
,  // measure 7
0010
0001
0100
0000
0000
0001
1000
0000
,  // measure 8
0000
0100
0100
0010
0001
1000
0100
0100
,  // measure 9
1000
0001
0010
0000
0000
0100
0010
0000
,  // measure 10
0000
0001
0001
1000
0010
0100
0010
0010
,  // measure 11
1000
0100
0010
0000
0001
0010
0100
0000
,  // measure 12
0000
2000
3020
0000
0130
0001
0010
0010
,  // measure 13
0100
0010
0001
0000
1000
0100
0010
0000
,  // measure 14
0000
0002
0203
0000
0301
1000
0100
0100
,  // measure 15
0010
0001
0100
0000
0010
1000
0100
0000
,  // measure 16
0000
2000
3020
0000
0130
0001
1000
1000
,  // measure 17
0100
0010
0001
0000
0010
0001
0100
0000
,  // measure 18
0000
2002
3003
0220
0330
2002
3003
0000
,  // measure 19
1000
0000
0100
1000
0000
0100
1000
0000
,  // measure 20
0010
0100
0000
0010
0100
0001
0010
0000
,  // measure 21
0100
0010
0001
0000
0100
0010
0000
0100
,  // measure 22
0010
1000
0000
0010
0000
1000
0010
0000
,  // measure 23
0100
0000
0001
1000
0000
0001
1000
0000
,  // measure 24
0100
1000
0000
0100
1000
0100
0010
0000
,  // measure 25
0001
0100
0010
0000
1000
0100
0000
1000
,  // measure 26
0100
0010
0000
0002
0000
0000
0103
0000
,  // measure 27
0120
0000
0000
0100
0130
0000
0002
0000
,  // measure 28
0000
0100
0000
0103
0010
1000
0100
0010
,  // measure 29
0002
0000
1003
0010
1000
0001
0010
0200
,  // measure 30
0000
1000
0000
1300
0010
0100
0001
0000
,  // measure 31
0200
0000
0000
0010
0310
0000
2000
0000
,  // measure 32
0000
3200
0000
0000
0302
0000
0203
0000
,  // measure 33
2300
0000
0000
3002
0000
0000
2003
0000
,  // measure 34
0000
3010
0100
0010
1000
0000
0001
1000
,  // measure 35
0200
0000
0000
1000
1300
0000
0020
0100
,  // measure 36
0000
0100
0000
0100
0130
0000
0000
0000
,  // measure 37
0002
0000
0000
0100
0103
0000
0020
1000
,  // measure 38
0000
1030
0001
0010
0100
0000
2000
0000
,  // measure 39
3020
0000
0000
0100
0100
0000
0000
0130
,  // measure 40
0001
2000
0000
0100
3200
0000
0000
0000
,  // measure 41
0320
0000
0000
0001
0001
0000
0000
0031
,  // measure 42
1000
0100
0010
0001
0100
0000
0000
0000
,  // measure 43
1002
0000
0000
0000
0010
0000
0013
0000
0000
0000
0100
0000
0000
1000
0000
0000
,  // measure 44
1100
0000
0011
0000
0100
0010
1001
0000
,  // measure 45
2001
0000
0000
0000
0100
0000
3100
0000
0000
0000
0010
0000
0000
0001
0000
0000
,  // measure 46
0101
0110
0110
1001
,  // measure 47
2100
0000
0000
0000
0010
0000
3010
0000
0000
0000
0100
0000
0000
0001
0000
0000
,  // measure 48
1100
0000
0011
0000
0010
0100
1000
0010
,  // measure 49
0210
0000
0000
0000
0001
0000
0301
0000
0000
0000
1000
0000
0000
0100
0000
0000
,  // measure 50
0011
0000
0100
1000
0010
0100
0001
0000
,  // measure 51
1000
0001
0010
0000
0100
1000
0001
1000
,  // measure 52
0200
0000
0310
0001
0200
0000
0310
1000
,  // measure 53
0100
0000
0010
0001
0000
0100
0010
0000
,  // measure 54
1000
0100
1000
0000
0001
0100
0010
0000
,  // measure 55
1000
0100
0001
0100
1000
0001
0010
0200
,  // measure 56
0000
0000
0310
0001
2000
0000
3010
0000
,  // measure 57
0210
0000
0001
0000
0310
1000
0100
0010
,  // measure 58
0000
0202
0303
2020
3030
0220
0330
0000
,  // measure 59
1000
0010
0100
0010
1000
0010
0100
0000
,  // measure 60
0001
1000
0200
0000
0310
0001
0200
0000
,  // measure 61
0310
0000
1000
0100
0000
0010
0100
0000
,  // measure 62
1000
0020
0000
0000
0130
0000
0001
0000
,  // measure 63
0010
0100
1000
0100
0010
0001
0100
0010
,  // measure 64
1000
0000
0100
0000
0001
0100
1000
0000
,  // measure 65
1020
0000
0100
0000
1030
0001
0010
0100
,  // measure 66
0000
2200
3300
0022
0033
2002
3003
0000
,  // measure 67
1010
0000
0010
0100
0000
0001
0100
0000
,  // measure 68
0010
0100
0000
0001
0100
0010
0100
0001
,  // measure 69
0000
1000
0100
0000
1000
0001
0000
1000
,  // measure 70
0100
0000
1000
0001
0010
0001
1000
0000
,  // measure 71
0001
0100
0000
0010
0100
0000
0001
0100
,  // measure 72
0000
0010
0100
0001
1000
0100
0000
1000
,  // measure 73
0100
0000
0010
0100
0000
1000
0100
0000
,  // measure 74
0010
0100
0000
1000
0010
0100
0001
1000
,  // measure 75
0200
0000
1300
0100
0010
0000
0001
0100
,  // measure 76
0001
1000
0000
0010
0100
0002
0000
0003
,  // measure 77
0100
0001
0010
0100
1100
0000
0010
0001
,  // measure 78
0100
0020
0000
0230
0000
0000
0310
0000
,  // measure 79
0200
0000
0301
0100
0110
0000
1000
0010
,  // measure 80
0100
1000
0000
0100
0010
2000
0000
3001
,  // measure 81
0100
0010
0001
0010
0100
0001
1000
0100
,  // measure 82
0001
0200
0000
2300
0000
0000
3010
0000
;

//---------------dance-single - ----------------
#NOTES:
     dance-single:
     :
     Challenge:
     14:
     0.795,0.840,0.642,0.553,0.129: // measure 1
2002
0000
0000
0000
,  // measure 2
0000
0000
0000
3003
,  // measure 3
0102
0000
1003
0100
0010
0100
1000
0001
,  // measure 4
0000
0101
0120
0000
0130
0001
1000
1000
,  // measure 5
0001
0010
0100
0010
0001
0100
0010
0100
,  // measure 6
0000
1010
0120
0000
0130
0001
1000
1000
,  // measure 7
0100
0010
0100
1000
0010
0100
0010
1000
,  // measure 8
0000
1001
0012
0000
0103
0010
0100
0100
,  // measure 9
0001
1000
0100
0010
0100
1000
0001
0100
,  // measure 10
0000
0110
2010
0000
3001
1000
0001
0001
,  // measure 11
1000
0010
0100
1000
0100
0010
1000
0001
,  // measure 12
0000
0101
0120
0000
1030
0100
0011
0011
,  // measure 13
0100
1000
0001
1000
0100
1000
0001
0100
,  // measure 14
0000
0101
2001
0000
3100
0010
0101
0101
,  // measure 15
0010
0100
1000
0001
0010
0100
0010
0001
,  // measure 16
0000
1001
1020
0000
1030
0100
0011
0011
,  // measure 17
0100
1000
0001
0100
0001
1000
0001
0100
,  // measure 18
0000
0000
0020
1000
0030
0000
0200
0001
0300
0000
0002
1000
0003
0000
0000
0000
,  // measure 19
2000
0000
0000
0000
0100
0000
3200
0000
0000
0000
0010
0000
0310
0000
0001
0100
,  // measure 20
0001
0100
0001
0000
1000
0000
0100
0000
0010
0000
0002
0000
0000
0000
0000
0000
,  // measure 21
1003
0100
0020
0000
0100
0230
0000
1000
,  // measure 22
1300
0010
0000
0020
0000
0100
0130
0000
,  // measure 23
2001
0000
0000
0000
0100
0000
3200
0000
0000
0000
0010
0000
0310
0000
0001
0100
,  // measure 24
0001
0100
0001
0000
1000
0000
0100
0000
0010
0000
0002
0000
0000
0000
0000
0000
,  // measure 25
1003
0100
0020
0000
0001
0032
0000
0100
,  // measure 26
0103
0010
0000
0010
0000
0000
0010
0000
,  // measure 27
1001
0000
0001
1000
0100
1000
0002
0000
,  // measure 28
0000
0013
0000
0010
0100
1000
0001
0100
,  // measure 29
0002
0000
1003
0010
0001
0010
1000
0200
,  // measure 30
0000
0310
0000
0010
0001
1000
0010
1000
,  // measure 31
0001
0000
1000
0001
0010
0001
1000
0000
,  // measure 32
1010
0000
0010
0000
0110
0000
0100
0001
,  // measure 33
0010
0000
0100
1000
0000
1000
0010
0000
,  // measure 34
0010
0100
0001
0010
0100
0000
0010
0001
,  // measure 35
1000
0000
0001
0100
0010
0100
0001
1000
,  // measure 36
0000
1000
0000
0010
0110
0000
0000
0000
,  // measure 37
0200
0000
0000
1000
1300
0000
0020
0100
,  // measure 38
0000
0130
0001
0010
0100
1000
0001
0000
,  // measure 39
0101
0000
0100
0010
1000
0010
0100
0000
,  // measure 40
0020
1000
0000
1030
0001
0000
0000
0000
,  // measure 41
1001
0000
1000
0100
0010
0100
0000
1000
,  // measure 42
0010
0100
0001
1000
0200
0000
0300
0000
,  // measure 43
1001
0000
0010
0000
0100
0000
1100
0000
0000
0000
0011
0000
0000
0110
0000
0000
,  // measure 44
1100
0000
0000
0000
1001
0000
0001
0100
0001
0100
0001
0000
1000
0000
0100
0000
,  // measure 45
0011
0000
0001
0000
0100
0000
0110
0000
0000
0000
1010
0000
0000
0110
0000
0000
,  // measure 46
0101
0000
1001
1000
0100
0010
0001
0100
,  // measure 47
0110
0000
0010
0000
1000
0000
1001
0000
0000
0000
1100
0000
0000
0110
0000
0000
,  // measure 48
0011
0000
0000
0000
1001
0000
1000
0010
1000
0010
1000
0000
0100
0000
0010
0000
,  // measure 49
1001
0000
0001
0000
0100
0000
0110
0000
0000
0000
1010
0000
0000
0110
0000
0000
,  // measure 50
0101
0000
0001
0010
1000
0010
0002
0003
,  // measure 51
1001
1000
0100
0010
0001
0010
1000
0001
,  // measure 52
0020
0000
0130
0001
2000
0000
3100
0010
,  // measure 53
0002
0000
0100
0203
0000
0010
0320
0000
,  // measure 54
1000
2030
0000
0000
3010
0100
0010
0000
,  // measure 55
1000
0100
0001
1000
0100
0010
1000
0001
,  // measure 56
0200
0000
0301
0100
0020
0000
1030
0001
,  // measure 57
0020
0000
0031
0100
0010
0001
0010
0100
,  // measure 58
0001
0000
2000
0100
3000
0000
0020
0100
0030
0000
0200
0001
0300
0000
0000
0000
,  // measure 59
1001
0001
0010
0100
1000
0010
0001
0010
,  // measure 60
0200
0000
0301
1000
0200
0000
0310
0001
,  // measure 61
0200
0000
0010
0320
0000
1000
2030
0000
,  // measure 62
0001
3002
0000
0000
0013
0100
0010
0000
,  // measure 63
0001
0100
1000
0100
0010
1000
0001
0010
,  // measure 64
0200
0000
1300
0010
0200
0000
0301
1000
,  // measure 65
0200
0000
1300
0001
0010
0100
0010
0001
,  // measure 66
1000
0000
0020
0100
0030
0000
0200
0001
0300
0000
0020
1000
0030
0000
0000
0000
,  // measure 67
1001
0000
0000
0000
0000
0000
1000
0000
1100
0000
0010
0000
0001
0100
0001
0100
,  // measure 68
0001
1001
0000
0000
0101
0000
0000
0000
,  // measure 69
1001
0000
0000
1000
1100
0000
0000
0000
,  // measure 70
0000
0110
0000
0000
0101
0000
0000
0000
,  // measure 71
1001
0000
0000
0001
0011
0000
0000
0000
,  // measure 72
0000
0110
0000
0000
1100
0000
0000
0000
,  // measure 73
1001
0000
0000
0001
0011
0000
0000
0000
,  // measure 74
0000
0110
0000
0000
1100
0000
0000
0000
,  // measure 75
1002
0000
0000
0000
0013
0000
0100
0000
1000
0000
0001
0000
1000
0010
1000
0010
,  // measure 76
1000
0001
0000
0010
0100
2000
0000
3000
,  // measure 77
0001
0010
1000
0010
0001
0000
0010
0100
,  // measure 78
1000
0000
0020
0100
0030
0000
0200
0001
0000
0000
0000
0000
0310
0000
0000
0000
,  // measure 79
1001
0000
0000
0000
1000
0000
0010
0000
0100
0000
0000
0000
0010
0100
0010
0100
,  // measure 80
0010
2000
0000
3100
0010
0002
0000
1003
,  // measure 81
0001
0100
1000
0100
0010
1000
0001
0010
,  // measure 82
0100
1000
0000
1000
0000
0000
1000
0100
;

//---------------dance-single - ----------------
#NOTES:
     dance-single:
     :
     Beginner:
     3:
     0.108,0.217,0.062,0.000,0.000: // measure 1
0000
0000
0000
0000
,  // measure 2
0000
0000
0000
0000
,  // measure 3
1000
0000
0000
0000
,  // measure 4
0001
0000
0000
0000
,  // measure 5
1000
0000
0000
0000
,  // measure 6
0100
0000
0000
0000
,  // measure 7
0010
0000
0000
0000
,  // measure 8
0001
0000
0000
0000
,  // measure 9
1000
0000
0000
0000
,  // measure 10
0010
0000
0000
0000
,  // measure 11
1000
0000
0000
0000
,  // measure 12
0001
0000
0000
0000
,  // measure 13
0010
0000
0000
0000
,  // measure 14
0001
0000
0000
0000
,  // measure 15
0100
0000
0000
0000
,  // measure 16
0010
0000
0000
0000
,  // measure 17
1000
0000
0000
0000
,  // measure 18
0100
0000
0000
0000
,  // measure 19
1000
0000
0000
0000
,  // measure 20
0000
0000
0000
0000
,  // measure 21
1000
0000
0000
0000
,  // measure 22
0000
0000
0000
0000
,  // measure 23
0001
0000
0000
0000
,  // measure 24
0000
0000
0000
0000
,  // measure 25
0001
0000
0000
0000
,  // measure 26
0000
0000
0000
0000
,  // measure 27
0100
0000
0000
0000
,  // measure 28
0010
0000
0000
0000
,  // measure 29
0100
0000
0000
0000
,  // measure 30
0010
0000
0000
0000
,  // measure 31
0100
0000
0000
0000
,  // measure 32
0010
0000
0000
0000
,  // measure 33
0100
0000
0000
0000
,  // measure 34
0010
0000
0000
0000
,  // measure 35
1000
0000
0000
0000
,  // measure 36
0001
0000
0000
0000
,  // measure 37
1000
0000
0000
0000
,  // measure 38
0001
0000
0000
0000
,  // measure 39
1000
0000
0000
0000
,  // measure 40
0001
0000
0000
0000
,  // measure 41
1000
0000
0000
0000
,  // measure 42
0001
0000
0000
0000
,  // measure 43
1001
0000
0000
0000
,  // measure 44
0000
0000
0000
0000
,  // measure 45
0110
0000
0000
0000
,  // measure 46
0000
0001
0001
0000
,  // measure 47
1001
0000
0000
0000
,  // measure 48
0000
0000
0000
0000
,  // measure 49
0110
0000
0000
0000
,  // measure 50
0000
0000
0000
0000
,  // measure 51
1001
0000
0000
0000
,  // measure 52
1000
0000
0001
0000
,  // measure 53
1000
0000
0000
0100
,  // measure 54
0000
0000
0000
0000
,  // measure 55
0010
0000
0000
0000
,  // measure 56
0001
0000
0000
0000
,  // measure 57
0100
0000
0000
0000
,  // measure 58
0000
0000
0000
0000
,  // measure 59
1001
0000
0000
0000
,  // measure 60
0001
0000
1000
0000
,  // measure 61
0001
0000
0000
0010
,  // measure 62
0000
0000
0000
0000
,  // measure 63
0100
0000
0000
0000
,  // measure 64
1000
0000
0000
0000
,  // measure 65
0010
0000
0000
0000
,  // measure 66
0000
0000
0000
0000
,  // measure 67
1001
0000
0000
0000
,  // measure 68
1000
0000
0000
0000
,  // measure 69
0001
0000
0000
0000
,  // measure 70
0001
0000
0000
0000
,  // measure 71
0010
0000
0000
0000
,  // measure 72
0010
0000
0000
0000
,  // measure 73
0100
0000
0000
0000
,  // measure 74
0100
0000
0000
0000
,  // measure 75
1000
0000
1000
0000
,  // measure 76
1000
0000
0000
0000
,  // measure 77
0001
0000
0001
0000
,  // measure 78
0001
0000
0000
0000
,  // measure 79
0010
0000
0010
0000
,  // measure 80
0010
0000
0000
0000
,  // measure 81
0100
0000
0100
0000
,  // measure 82
0100
0000
0000
0000
;
