#TITLE:Say my lovE;
#SUBTITLE:;
#ARTIST:JJ GROOVE;
#TITLETRANSLIT:;
#SUBTITLETRANSLIT:;
#ARTISTTRANSLIT:;
#CREDIT:DigiMindAxel;
#BANNER:Say my lovE.png;
#BACKGROUND:Say my lovE-bg.png;
#LYRICSPATH:Say my lovE.lrc;
#CDTITLE:DJMAX.png;
#MUSIC:Say my lovE.ogg;
#METERTYPE:DDR X;
#OFFSET:-0.377;
#SAMPLESTART:25.038;
#SAMPLELENGTH:12.000;
#SELECTABLE:YES;
#BPMS:0.000=175.000;
#STOPS:50.000=0.3428571
,169.000=0.3428571
,344.000=0.3428571
;
#BGCHANGES:-2.000=Say my lovE.avi=1.000=1=1=0,
99999=-nosongbg-=1.000=0=0=0 // don't automatically add -songbackground-
;

//---------------dance-single - ----------------
#NOTES:
     dance-single:
     :
     Easy:
     5:
     0.232,0.287,0.000,0.038,0.000:
0000
0000
0000
0000
,
0000
0000
0000
0000
,
0000
0000
0000
0000
,
0000
0000
0000
0000
,
0000
0000
0000
0000
,
0000
0000
0000
0000
,
0000
0000
0000
0000
,
0000
0000
0000
0000
,
1000
0000
0000
0001
0000
0000
0000
0000
,
1000
0000
0000
0100
0000
0000
0000
0000
,
0010
0000
0000
0001
0000
0000
0000
0000
,
0100
0000
0000
0020
0000
0000
0000
0000
,
1030
0000
0000
1000
0000
0000
0001
0000
,
0000
0010
0000
0000
0000
0000
0001
0000
,
0000
1000
0000
0000
0000
0000
0100
0000
,
0000
0100
0000
0000
0000
0000
0010
0000
,
0000
0001
0000
0010
,
0000
0100
0000
1000
,
0001
1000
0000
0100
,
1000
0100
0000
0010
,
0100
0010
0000
0001
,
0010
0100
1000
0001
,
0100
0001
0000
0100
,
0010
0100
0000
0001
,
1000
0001
0000
1000
,
0100
0010
0001
1000
,
0010
1000
0000
0010
,
0100
0010
0000
1000
,
0001
1000
0000
0002
,
0000
0000
0000
0013
,
0000
0100
0000
0000
0000
0000
1000
0000
,
0000
0010
0000
0000
0000
0000
0100
0000
,
0000
0001
0000
0000
0000
0000
1000
0000
,
0000
0100
0000
0000
0000
0000
0010
0000
,
0000
0100
0000
0000
0000
0000
1000
0000
,
0000
0001
0000
0000
0000
0000
0010
0000
,
0000
0100
0000
0000
0000
0000
1000
0000
,
0000
0001
0000
0000
0000
0000
0010
0000
,
0000
0010
0000
0000
0000
0000
0100
0000
,
0000
0100
0000
0000
0000
0000
1000
0000
,
0000
0010
0000
0000
0000
0000
0100
0000
,
0000
0010
0000
0000
0000
0000
1000
0000
,
0000
1000
0000
0000
0100
0000
0000
0010
,
0000
0000
0000
0000
0001
0000
0000
0100
,
0000
0000
0000
0000
0001
0000
0000
1000
,
0000
0000
0100
1000
,
0100
0000
1000
0001
,
1000
0000
0001
0010
,
0001
0000
0020
0000
,
0000
0000
0031
1000
,
0001
0000
1000
0010
,
1000
0000
0010
0100
,
0010
0000
0100
0001
,
0010
0100
1000
0001
,
1000
0000
0100
1000
,
0100
0000
0010
0100
,
0010
0000
0001
0100
,
0010
1000
0100
1000
,
0100
0000
0010
0100
,
0010
0000
0001
0100
,
0001
0000
2000
0000
,
0000
0000
3001
0010
,
0100
0000
0010
0001
,
0010
0000
0100
0010
,
0100
0000
1000
0010
,
0100
0000
0010
0100
,
0010
0000
1000
0001
,
1000
0000
0100
0010
,
0001
0000
0100
0001
,
0010
0100
1000
0010
,
1000
0000
0001
1000
,
0001
0000
0010
0000
,
0100
0000
1000
0100
,
0100
0000
0100
0000
1000
0000
0000
0010
,
0000
0000
0000
0000
0100
0000
0000
0001
,
0000
0000
0000
0000
1000
0000
0000
0100
,
0000
0000
0000
0000
1000
0000
0000
0001
,
0000
0000
0000
0000
0010
0000
0000
0100
,
0000
0000
0000
0000
1000
0000
0000
0010
,
0000
0000
0000
0000
0100
0000
0000
0001
,
0000
0000
0000
0000
0010
0000
0000
0100
,
0000
0000
0000
0000
0010
0000
0000
0001
,
0000
0000
0000
0000
0100
0000
0000
0010
,
0000
0000
0000
0000
1000
0000
0000
0100
,
0000
0000
0000
0000
1000
0000
0000
0001
,
0000
0000
0000
0000
0010
0000
0000
0010
,
0000
0000
0100
0000
0000
1000
0000
0000
,
0000
0000
0010
0000
0000
0010
0000
0000
,
0000
0000
1000
0000
0000
0001
0000
0000
,
0000
0000
0010
0000
0000
0100
0000
0000
,
0000
0000
1000
0000
0000
0010
0000
0000
,
0000
1000
0000
1000
,
0000
0002
0000
0000
,
0000
0000
0000
0000
,
0000
0000
0000
0003
;

//---------------dance-single - ----------------
#NOTES:
     dance-single:
     :
     Medium:
     8:
     0.372,0.430,0.295,0.091,0.000:
0000
0000
0000
0000
,
0000
0000
0000
0000
,
0000
0000
0000
0000
,
0000
0000
0000
0000
,
0000
0000
0000
0000
,
0000
0000
0000
0000
,
0000
0000
0000
0000
,
0000
0000
0000
0000
,
1000
0000
0000
1100
0000
0000
0000
0000
,
0001
0000
0000
0011
0000
0000
0000
0000
,
1000
0000
0000
1100
0000
0000
0010
0000
,
0001
0000
0000
0011
0000
0000
0000
0000
,
0100
0000
0000
0110
0000
0000
1000
0000
,
0000
1001
0000
0000
0000
0000
0001
0000
,
0000
0101
0000
0000
0010
0000
1000
0000
,
0000
1010
0000
0000
0000
0000
1000
0000
,
0100
0010
0001
1000
,
1000
0001
0001
0101
,
0000
0100
0000
0000
0010
0000
2000
0000
,
0000
3001
0000
0000
0000
0000
0011
0000
,
0000
0010
0000
0000
0100
0000
2000
0000
,
0000
0010
0000
0000
3010
0000
1001
0000
,
0000
0001
0000
0000
0010
0000
0200
0000
,
0000
1000
0000
0000
1300
0000
1001
0000
,
0000
0001
0000
0000
0000
0000
0210
0000
,
0000
0010
0000
0000
0310
0000
2000
0000
,
0000
0100
0000
0000
3100
0000
0020
0000
,
0000
0001
0000
0000
0031
0000
0100
0000
,
0010
0100
0001
1000
,
1000
1000
0000
0100
,
0000
1100
0000
0000
0000
0000
0010
0000
,
0000
0110
0000
0000
0000
0000
0001
0000
,
0000
0011
0000
0000
0100
0000
1000
0000
,
0000
1001
0000
0000
0000
0000
0001
0000
,
0000
0101
0000
0000
0000
0000
0100
0000
,
0000
0110
0000
0000
0000
0000
0010
0000
,
0000
1010
0000
0000
0100
0000
0001
0000
,
0000
1001
0000
0000
0000
0000
0100
0000
,
0000
0110
0000
0000
0000
0000
0010
0000
,
0000
0110
0000
0000
0000
0000
2000
0000
,
0000
0001
0000
0000
3001
0000
0010
0000
,
0000
0110
0000
0000
0000
0000
0100
0000
,
0000
1100
0000
0000
0010
0000
0000
0011
,
0000
0000
0000
0000
0001
0000
0000
1001
,
0000
0000
0000
0000
1000
0000
0000
1100
,
0000
0000
0000
0000
0010
0000
0001
0010
,
0000
0001
1000
0000
0100
0010
0000
0001
,
0100
0000
0010
0000
1000
0000
0001
0010
,
0000
0000
0001
0001
,
0001
0000
0001
0000
1000
0000
0010
1000
,
0000
0010
1000
0000
0100
0000
0010
0001
,
0000
0010
0001
0000
1000
0000
0010
0100
,
0000
0010
0100
0000
1001
0000
0000
1000
,
0000
0000
1001
0000
0001
0000
0010
0001
,
0000
0010
0001
0000
1000
0000
0010
0100
,
0000
0010
0100
0000
1001
0000
0000
1000
,
0000
0000
0000
0000
0201
0000
0000
0001
,
0000
0000
0301
0000
1000
0000
0100
1000
,
0000
0010
0100
0000
0001
0000
0100
0001
,
0000
0010
0100
0000
1000
0100
1000
0000
,
0001
0010
0001
0000
0100
0000
0100
0000
,
0100
0000
0100
0000
0010
0000
1000
0001
,
0000
0010
0001
0000
1000
0000
0010
1000
,
0000
0010
0100
0000
0001
0000
1000
0100
,
0000
1000
0001
0000
0020
0000
0000
0100
,
0000
0000
0130
0000
1000
0000
0001
0010
,
0000
0001
1000
0000
0010
0000
0100
0001
,
0000
1000
0100
0000
0010
0000
0000
0011
,
0000
0000
0000
0000
0002
0000
0000
1000
,
0000
0000
1003
0000
0001
0000
0100
0001
,
0000
0100
0010
0000
1000
0000
0100
0010
,
0000
0001
0010
0000
0001
1000
0001
0000
,
1000
0010
1000
0000
0020
0000
0100
0000
,
0100
0000
0130
0000
0001
0100
0001
1000
,
0000
0000
0000
0000
0001
0010
0001
1000
,
0000
0000
0000
0000
0100
1000
0100
0010
,
0000
0000
0010
0000
0001
0010
0001
0100
,
0000
0000
0000
0000
0010
0100
0010
1000
,
0000
0000
0000
0000
0100
0010
0100
1000
,
0000
0000
0000
0000
0001
0100
0001
1000
,
0000
0000
0100
0000
0010
0001
0010
0100
,
0000
0000
0000
0000
1000
0010
1000
0001
,
0000
0000
0000
0000
0010
0001
0010
0100
,
0000
0000
0000
0000
1000
0010
1000
0001
,
0000
0000
0010
0000
0100
1000
0100
0010
,
0000
0000
0000
0000
1001
0000
0000
1001
,
0000
0000
0110
0000
0000
0110
0000
0000
,
0000
0000
1001
0000
0000
1001
0000
0000
,
0000
0000
0001
0010
0001
1000
0000
0000
,
0000
0000
0010
0100
0010
1000
0000
0000
,
0000
0000
0100
0010
0100
1000
0000
0000
,
0000
0100
0010
0001
,
1000
0020
0000
0000
,
0000
0000
0000
0000
,
0000
0000
0000
0030
;

//---------------dance-single - ----------------
#NOTES:
     dance-single:
     :
     Hard:
     12:
     0.583,0.609,0.537,0.136,0.166: // measure 1
0000
0000
0000
0000
,  // measure 2
0000
0000
0000
0000
,  // measure 3
0000
0000
0000
0000
,  // measure 4
0000
0000
0000
0000
,  // measure 5
0000
0000
0000
0000
,  // measure 6
0000
0000
0000
0000
,  // measure 7
0000
0000
0000
0000
,  // measure 8
0000
0000
0000
0000
,  // measure 9
1001
0000
0000
1100
0000
0000
0000
0000
,  // measure 10
0011
0000
0000
0110
0000
0000
0000
0000
,  // measure 11
1001
0000
0000
0101
0000
0000
0100
0000
,  // measure 12
1001
0000
0000
0000
0000
0000
1000
0000
0001
0100
0000
0010
0000
0100
0000
0010
,  // measure 13
1000
0000
0000
1001
0000
0000
0011
0000
,  // measure 14
0000
1001
0000
0000
0000
0000
1100
0000
,  // measure 15
0000
0011
0000
0000
0001
0000
1001
0000
,  // measure 16
0000
0000
1000
0000
0001
0010
0000
0100
0000
0010
0000
0100
1000
0000
0000
0000
,  // measure 17
0010
0100
0001
0011
,  // measure 18
0011
1100
1100
1001
,  // measure 19
0001
0100
0000
0001
1000
0000
0200
0000
,  // measure 20
1000
1300
0001
0000
0010
0000
1100
0000
,  // measure 21
1000
0001
0000
0100
0001
0000
1001
0000
,  // measure 22
0000
1100
0000
0000
0011
0000
1001
0000
,  // measure 23
1000
0010
0000
1000
0001
0000
0020
0000
,  // measure 24
0001
0031
1000
0000
0100
0000
0011
0000
,  // measure 25
0000
1001
0000
0000
0000
0000
1100
0000
,  // measure 26
1000
0100
0000
0100
0010
0000
0101
0000
,  // measure 27
0001
0100
0000
0100
0010
0000
1001
0000
,  // measure 28
0001
1000
0000
1000
0100
0000
0010
0100
,  // measure 29
1000
0100
0010
0000
1000
0000
1010
0000
,  // measure 30
1010
0000
1001
0000
1001
0000
1000
0001
,  // measure 31
0100
0001
1000
0000
0100
0000
0010
0100
,  // measure 32
1000
0100
0010
0000
0001
0000
0101
0000
,  // measure 33
0100
0010
0000
0010
1000
0000
1001
0000
,  // measure 34
1000
0000
0000
0000
0001
0100
0000
0010
0000
0100
0000
0010
1000
0000
0100
0000
,  // measure 35
0010
0100
1000
0000
0010
0000
0100
0001
,  // measure 36
0010
0001
0100
0000
0010
0000
1001
0000
,  // measure 37
0001
0100
0000
0100
0010
0000
1001
0000
,  // measure 38
0001
0000
0000
0000
1000
0010
0000
0100
0000
0010
0000
0100
0001
0000
0010
0000
,  // measure 39
0100
0010
0001
0000
0100
0000
0010
1000
,  // measure 40
0001
1000
0010
0000
0100
0000
1001
0000
,  // measure 41
0001
0010
0000
0010
0100
0000
1010
0000
,  // measure 42
1000
0000
0000
0000
0001
0100
0000
0010
0000
0100
0000
0010
1000
0000
0000
0000
,  // measure 43
0000
1001
0000
0000
0001
1000
0010
1000
,  // measure 44
0001
0000
0010
0000
1100
0000
1000
0010
,  // measure 45
0000
0000
0101
0100
,  // measure 46
0001
0100
0000
0010
0000
0100
0000
0010
1000
0000
0100
0000
0010
0000
0001
0000
,  // measure 47
1000
0010
1000
0000
0001
0010
0100
0010
,  // measure 48
0001
1000
0010
0000
0100
0001
0010
0100
,  // measure 49
1000
0001
0011
0011
,  // measure 50
1100
0000
1100
0000
1000
0001
0010
0001
,  // measure 51
1000
0000
0010
0000
0100
0001
0010
0100
,  // measure 52
1000
0000
0010
0000
0100
0001
0010
0100
,  // measure 53
0010
0000
0001
0000
1001
0000
1000
0100
,  // measure 54
0000
0100
0010
0000
0011
0000
0001
0100
,  // measure 55
0000
0100
0010
0000
1000
0001
0010
0100
,  // measure 56
1000
0001
1000
0000
0220
0000
0330
2002
,  // measure 57
0000
0000
3003
0000
1100
0000
0000
0110
,  // measure 58
0000
0000
0011
0000
0100
1000
0001
0010
,  // measure 59
0001
1000
0100
0000
0010
0001
1000
0010
,  // measure 60
1000
0001
0010
0000
0100
1000
0010
0100
,  // measure 61
0001
0001
0101
0101
,  // measure 62
1010
0000
1010
0000
1001
0000
0001
0010
,  // measure 63
0100
0010
0001
0000
0100
0000
0010
1000
,  // measure 64
0100
1000
0010
0000
0100
0000
0010
1000
,  // measure 65
0100
0010
0001
0000
1001
0000
1000
0010
,  // measure 66
0000
0010
0100
0000
0010
1000
0100
0010
,  // measure 67
0001
0000
0010
0000
0100
0010
0001
1000
,  // measure 68
0010
0000
1000
0000
2002
0000
3003
0220
,  // measure 69
0000
0000
0330
0000
0101
0000
0000
0110
,  // measure 70
0000
0000
1010
0000
1001
0000
1000
0100
,  // measure 71
0000
0100
0010
0000
1001
0000
0001
0100
,  // measure 72
0000
0100
0010
0000
0100
0010
0100
0001
,  // measure 73
0010
0100
0010
0000
0002
0000
2000
0000
,  // measure 74
0000
0000
3003
0000
0001
0010
1000
0010
,  // measure 75
0001
0000
0100
0000
0001
0100
1000
0100
,  // measure 76
0001
0000
0010
0000
0100
0010
0001
1000
,  // measure 77
0100
0010
0001
0000
0100
0001
0010
0100
,  // measure 78
1000
0010
0000
0100
0000
0010
0000
0100
0001
0000
0010
0000
1000
0000
0010
0000
,  // measure 79
0001
0000
1000
0000
0001
0100
1000
0100
,  // measure 80
0001
0000
1000
0000
0100
0010
0001
1000
,  // measure 81
0010
0000
0110
0000
0010
1000
0100
0010
,  // measure 82
0001
0100
0000
0010
0000
0100
0000
0010
1000
0000
0010
0000
0001
0000
0010
0000
,  // measure 83
1000
0000
0100
0000
1000
0010
0001
0010
,  // measure 84
1000
0000
0100
0000
0010
0001
0100
0010
,  // measure 85
0001
0010
0100
0000
0001
0010
0001
1000
,  // measure 86
0001
0100
0000
0010
0000
0100
0000
0010
2000
0000
0000
0000
3000
0000
1001
0000
,  // measure 87
0000
0000
1000
0010
0001
0010
1000
0000
,  // measure 88
0100
0000
0022
0000
0033
2002
0000
0000
,  // measure 89
3003
0000
0000
0000
1000
0000
0010
0000
0100
0000
0010
0000
1000
0100
0000
0010
,  // measure 90
0000
0100
0000
0010
0001
0000
0100
0000
1000
0000
0100
0000
0001
0000
0000
0000
,  // measure 91
0010
0000
0000
0000
0100
0000
0010
0000
0001
0000
1000
0000
0001
0100
0000
0010
,  // measure 92
0000
0100
0000
0010
1000
0000
0000
0000
1100
0000
0000
0000
0001
0000
0000
0000
,  // measure 93
0101
0200
0000
0000
,  // measure 94
0000
0000
0000
0000
,  // measure 95
0000
0000
0000
0300
;

//---------------dance-single - ----------------
#NOTES:
     dance-single:
     :
     Challenge:
     14:
     0.704,0.753,0.204,0.265,0.348:
0000
0000
0000
0000
,
0000
0000
0000
0000
,
0000
0000
0000
0000
,
0000
0000
0000
0000
,
0000
0000
0000
0000
,
0000
0000
0000
0000
,
0000
0000
0000
0000
,
0000
0000
0000
0000
,
1200
0000
1000
1300
0001
0000
0010
0000
,
1200
0000
1000
1300
0001
0000
0010
0000
,
0100
0010
0001
2000
0000
0000
3010
0000
,
0100
0000
0001
0000
0010
0000
0100
0000
1000
0010
0000
0010
0000
0010
0000
0010
,
0100
0001
0010
0100
0000
0000
2010
0000
,
0001
3001
0010
0000
0100
0000
0010
0100
,
1000
0010
0000
0010
0000
0000
1020
0000
,
0100
0000
0130
0000
0001
1000
0000
1000
0000
1000
0000
1000
0010
0000
0100
0000
,
0001
0000
0000
1000
0010
0000
0100
0000
0001
0000
0000
0000
1000
0001
1000
0000
,
0001
0010
0001
0000
1000
0100
1000
0100
1000
0000
0000
0000
0100
0000
0010
0000
,
0001
2000
0000
0000
3100
0000
0010
0100
,
1000
0001
0100
0000
0101
0000
0001
0010
,
0100
2000
0000
0000
3010
0000
0202
0000
,
0303
0220
0000
0330
1010
0000
1000
0100
,
0010
0002
0000
0000
0103
0000
0010
1000
,
0100
0010
0001
0000
0100
0000
2020
0000
,
3030
0220
0000
0000
0330
0000
1002
0000
,
0100
0100
0000
1000
1003
0000
0001
0010
,
0100
1000
0001
0100
0010
0100
0001
0010
,
0100
0000
1000
0000
0001
0000
0100
0000
0010
0000
0100
0000
0001
0000
1000
0100
,
1000
0000
0001
0000
0100
0000
0000
0000
0010
0000
0000
0000
1000
0001
1000
0000
,
0001
0010
0001
0000
1000
0100
1000
0100
1000
0000
0000
0000
0010
0000
0100
0001
,
0010
0100
1000
0000
0010
0000
0100
0001
,
0010
0001
0100
0000
0010
0000
0100
0001
,
1000
0100
0010
0100
1000
0000
1020
0000
,
0100
0000
0130
0000
0001
1000
0000
1000
0000
1000
0000
1000
0010
0000
0100
0000
,
0010
0000
1000
0000
0100
0000
0000
0000
0010
0000
0000
0000
0100
0000
1000
0010
,
0100
0001
0100
0000
0010
0000
2001
0000
,
0010
0010
0000
0001
3001
0000
1000
0100
,
0010
0000
0100
0000
1000
0010
0000
0010
0000
0010
0000
0010
0100
0000
0010
1000
,
0100
0010
0001
0000
1000
0000
0010
0100
,
1000
0100
0010
0000
1000
0000
0010
1000
,
0100
0010
0100
1000
0010
0000
0201
0000
,
0010
0000
0310
0000
1000
0001
0000
0001
0000
0001
0000
0001
0100
0000
0010
0000
,
1000
0000
0100
0000
0000
0000
0000
0000
1000
0000
0010
0100
0010
0000
1000
0000
,
0100
0000
0010
0000
0001
0100
0010
0100
,
0000
0110
0000
0000
1020
0000
0100
0130
,
0001
1000
0000
1000
0000
1000
0000
1000
0010
0000
0100
0001
1000
0000
0100
0000
,
0001
0100
1000
0000
0100
0010
0001
0100
,
1000
0100
0001
0000
0010
0100
1000
0001
,
0100
0000
0000
0000
0010
0000
0000
0000
1000
0001
1000
0000
0001
0010
0001
0000
,
1000
0100
1000
0100
1000
0000
0000
0000
0100
0000
0010
0000
0001
0000
1000
0000
,
0010
0000
1001
0000
0001
0010
0100
0010
,
0001
0000
1000
0010
1000
0010
1000
0010
1000
0000
0100
0000
0001
0000
0100
0000
,
1000
0000
0011
0000
1200
0000
0010
0010
,
0000
1000
1300
0000
0010
0001
0100
0010
,
1000
0001
1000
0000
0100
0010
0001
1000
,
0010
0000
0100
0010
0100
0010
0100
0010
0200
0000
0000
0000
0001
0000
0001
0000
,
0000
0010
0310
0000
2002
0000
3003
0202
,
0000
0303
1010
0000
1000
0100
0001
0100
,
1000
0001
0100
0001
1000
0010
0001
0010
,
1000
0000
0001
0000
0010
0000
0001
0000
1000
0000
0010
0100
0010
0000
1000
0000
,
0001
0000
0000
0000
0010
0000
0000
0000
0100
0010
0100
0000
1000
0010
1000
0000
,
0001
0100
0001
0100
0001
0000
0000
0000
1000
0000
0001
0000
1000
0000
0100
0000
,
0001
0100
1000
0000
0100
0010
0001
1000
,
0010
0000
1000
0001
1000
0001
1000
0001
1000
0000
0010
0000
1000
0000
0100
0000
,
0010
0100
1000
0000
1020
0000
0100
0100
,
0000
1000
1030
0000
0001
0010
1000
0010
,
0001
0100
0001
0000
0010
0100
1000
0010
,
1000
0000
0001
0010
0001
0010
0001
0010
0001
0000
0100
0000
0010
0000
0001
0000
,
0010
0100
0001
0000
0202
0000
0303
2020
,
0000
3030
1001
0000
1000
0010
1000
0100
,
0001
0100
1000
0001
1000
0010
0001
0010
,
1000
0000
0001
0100
0001
0100
0001
0100
0001
0000
1000
0100
1000
0000
0001
0000
,
0100
0000
0000
0010
0000
0000
0100
0000
0000
0000
0000
0000
0001
0000
0000
0000
0000
0000
0010
0000
0010
0000
0100
0000
,
2000
0000
0000
0000
0000
0000
0000
0000
3001
0000
1000
0100
1000
0000
0100
0000
,
0010
0000
0100
0000
1000
0010
0001
0010
,
1000
0000
0100
0000
0020
0000
0001
0001
,
0000
0100
0130
0000
1000
0010
0001
0010
,
1000
0001
0000
0001
0000
0001
0000
0001
0100
0000
0010
0000
1000
0000
0100
0000
,
0010
0000
0000
0000
0100
0000
0000
0000
1000
0000
0010
0100
0001
0000
1000
0000
,
0100
0000
0010
0000
0001
0100
1000
0100
,
0010
1000
0001
0000
0010
0100
1000
0001
,
0100
0010
0000
0010
0000
0010
0000
0010
1000
0000
0001
0010
0100
0000
0010
0000
,
0001
0000
0100
0000
0001
0100
1000
0100
,
0001
0000
0010
0000
0100
0010
0001
0100
,
1000
0100
0010
1000
0001
0010
0100
1000
,
0001
0100
0000
0100
0000
0100
0000
0100
0010
0000
1000
0000
0100
0000
0010
0000
,
0000
0000
0000
0000
0100
0000
1000
0010
0100
0000
0001
0000
1000
0000
0100
0000
,
1000
0000
0010
0100
0001
0010
0000
0011
,
0000
0000
0000
0000
0100
0000
1000
0000
0010
0000
0100
0000
0010
1000
0000
1000
,
0000
1000
0000
1000
0001
0000
0010
0100
1000
0000
0010
0000
0100
0000
0010
0000
,
1000
0000
0000
0000
0100
0000
0010
0000
0001
0000
1000
0000
0010
0100
0000
0100
,
0000
0100
0000
0100
0001
0000
0100
0000
0010
0000
0000
0100
0001
0000
0100
0000
,
0010
2000
0000
0000
,
0000
0000
0000
0000
,
0000
0000
0000
3000
;

//---------------dance-single - ----------------
#NOTES:
     dance-single:
     :
     Beginner:
     2:
     0.107,0.140,0.144,0.000,0.000:
0000
0000
0000
0000
,
0000
0000
0000
0000
,
0000
0000
0000
0000
,
0000
0000
0000
0000
,
0000
0000
0000
0000
,
0000
0000
0000
0000
,
0000
0000
0000
0000
,
0000
0000
0000
0000
,
1000
0000
0000
0000
,
0100
0000
0000
0000
,
1000
0000
0000
0100
,
0000
0000
0000
0000
,
0010
0000
0000
0010
,
0000
0000
0000
0001
,
0000
0000
0000
0001
,
0000
0000
0000
0100
,
0000
0000
0000
0000
,
0000
0000
0000
1001
,
0000
0000
0000
0001
,
0000
0000
0000
1000
,
0000
0000
0000
0100
,
0000
0000
0000
1000
,
0000
0000
0000
0001
,
0000
0000
0000
0100
,
0000
0000
0000
0110
,
0000
0000
0000
0010
,
0000
0000
0000
0010
,
0000
0000
0000
0010
,
0000
0000
0000
0000
,
0000
0000
0000
1001
,
0000
0000
0000
1000
,
0000
0000
0000
0001
,
0000
0000
0000
1000
,
0000
0000
0000
0100
,
0000
0000
0000
0010
,
0000
0000
0000
0100
,
0000
0000
0000
0010
,
0000
0000
0000
0001
,
0000
0000
0000
0100
,
0000
0000
0000
0001
,
0000
0000
0000
1000
,
0000
0000
0000
0100
,
0000
0000
0100
0000
,
0000
0000
1000
0000
,
0000
0000
1000
0000
,
0000
0000
0010
0000
,
0000
0000
0010
0000
,
0000
0000
0100
0000
,
0000
0000
0000
0000
,
0000
0000
1001
0000
,
0000
0000
0001
0000
,
0000
0000
1000
0000
,
0000
0000
0001
0000
,
0000
0000
0010
0000
,
0000
0000
0100
0000
,
0000
0000
0010
0000
,
0000
0000
0100
0000
,
0000
0000
1000
0000
,
0000
0000
0001
0000
,
0000
0000
0100
0000
,
0000
0000
0000
0000
,
0000
0000
1001
0000
,
0000
0000
0001
0000
,
0000
0000
1000
0000
,
0000
0000
0100
0000
,
0000
0000
1000
0000
,
0000
0000
0010
0000
,
0000
0000
0100
0000
,
0000
0000
0110
0000
,
0000
0000
1000
0000
,
0000
0000
0001
0000
,
0000
0000
0100
0000
,
0000
0000
0000
0000
,
0000
0000
1001
0000
,
0000
0000
1001
0000
,
0000
0000
0110
0000
,
0000
0000
0110
0000
,
0000
0000
1001
0000
,
0000
0000
1001
0000
,
0000
0000
0110
0000
,
0000
0000
0110
0000
,
0000
0000
1001
0000
,
0000
0000
1001
0000
,
0000
0000
0110
0000
,
0000
0000
0110
0000
,
0000
0000
1001
0000
,
0000
1000
0000
0000
,
0000
0100
0000
0000
,
0000
0010
0000
0000
,
0000
0001
0000
0000
,
0000
0100
0000
0000
,
0000
0000
0000
0000
,
0000
0010
0000
0000
;
