#TITLE:SWEETEST SAVAGE;
#SUBTITLE:;
#ARTIST:ASLETICS;
#TITLETRANSLIT:;
#SUBTITLETRANSLIT:;
#ARTISTTRANSLIT:;
#GENRE:;
#CREDIT:DigiMindAxel;
#BANNER:SWEETEST SAVAGE.png;
#BACKGROUND:SWEETEST SAVAGE-bg.png;
#LYRICSPATH:SWEETEST SAVAGE.lrc;
#CDTITLE:beatmania IIDX.png;
#MUSIC:SWEETEST SAVAGE.ogg;
#OFFSET:-0.415000;
#SAMPLESTART:38.311996;
#SAMPLELENGTH:12.000000;
#SELECTABLE:YES;
#BPMS:0.000000=114.000000
;
#STOPS:
;
#BGCHANGES:-4.000=SWEETEST SAVAGE.avi=1.000=1=0=1===CrossFade==,
99999=-nosongbg-=1.000=0=0=0 // don't automatically add -songbackground-
;
#KEYSOUNDS:;
#ATTACKS:;

//---------------dance-single - ----------------
#NOTES:
     dance-single:
     :
     Hard:
     13:
     0.654550,0.674399,0.713937,0.063260,0.497045,507.000000,428.000000,79.000000,7.000000,0.000000,0.000000,0.654550,0.674399,0.713937,0.063260,0.497045,507.000000,428.000000,79.000000,7.000000,0.000000,0.000000:
0000
0000
0000
0000
,
0000
0000
0000
0000
,
0001
0000
0001
0000
0001
0010
0000
0000
0100
1000
0100
1000
0010
1000
0100
0000
,
0000
0000
1000
0000
0000
0100
0000
0000
0010
0001
0010
0001
0100
0001
0010
0000
,
0001
0000
0001
0000
0100
0010
0000
0010
1000
0100
1000
0100
0010
0000
0100
0000
,
2000
0000
0000
0000
0000
0000
0000
0000
0001
0001
0000
0001
0000
3001
0010
0100
,
1001
0000
0001
0000
1000
0000
0100
0010
0000
0001
0000
0010
0001
0000
0101
0000
,
0110
0000
0100
0000
0001
0000
0010
0100
0000
1000
0000
0100
1000
0000
1010
0000
,
0110
0000
1000
0001
1000
0000
0010
0100
0000
0001
0000
0100
0001
0000
0011
0000
,
1001
0000
0001
0000
1000
0000
1000
0000
0001
0000
0001
0000
0001
1000
0001
0000
,
0110
0000
1000
0000
0100
0010
0000
0001
0000
0100
0000
0001
0100
0000
0110
0000
,
1001
0000
0010
0000
0100
1000
0000
0010
0000
1000
0000
0010
1000
0000
0110
0000
,
1001
0000
0100
0000
0010
0001
0000
0100
0000
0001
0000
0010
0001
0000
0110
0000
,
1001
0000
1000
0000
0001
0000
0001
1000
0010
0000
0010
0000
0010
0000
0000
0000
,
1000
0000
0100
0000
0001
0000
0100
0000
1000
0000
1000
0000
1000
0000
1000
0001
,
0100
0000
0010
0000
0100
0000
0000
0000
0100
0000
0001
0010
0001
0010
0001
0000
,
1000
0000
0010
0000
0001
0000
0010
0000
1000
0000
1000
0001
0100
0000
0100
0010
,
0100
0000
0100
0001
0100
0000
0100
0010
1000
0100
1000
0000
1001
0000
0000
0000
,
0011
0011
1001
1001
0100
0001
0100
1000
,
1100
1100
1001
1001
0010
1000
0010
0001
,
0011
0000
0011
0000
1001
0000
1001
0000
0010
0000
1000
0100
1000
0000
0100
0010
,
0001
0000
0010
0000
0100
1000
0100
1000
0100
0000
1000
0000
0001
0000
0010
0001
,
1010
1010
1001
1001
0010
0001
0010
1000
,
0101
0101
1001
1001
0100
1000
0100
0001
,
1010
0000
1010
0000
1001
0000
1001
0000
0100
0000
0001
0000
0010
0100
1000
0100
,
1000
0000
0001
1000
0001
0000
1000
0000
0010
0100
0010
1000
0100
0010
0100
0000
,
2002
0000
0000
3003
,
0220
0000
0000
0330
,
0011
0000
0100
0000
1000
0100
0010
0000
0001
0100
0000
0100
0010
0000
0101
0000
,
1100
0000
0010
0000
0001
0010
0100
0000
1000
0010
0000
0010
0100
0000
1010
0000
,
0011
0000
0100
0000
1000
0010
0100
0000
0001
0010
0000
0010
0100
0000
1010
0000
,
1001
1000
0001
0001
1000
1000
0001
0001
,
0100
0001
0100
0001
0100
0001
0010
0000
0100
1000
0100
1000
0100
1000
0010
0000
,
0100
0001
0010
0001
0000
0010
0000
0100
0000
0000
0000
1000
0010
0000
0110
0000
,
1001
0000
0100
0000
0010
0001
0000
0001
0100
0000
0000
0010
1000
0000
1100
0000
,
1001
0000
0010
0100
0000
1000
0000
1000
0010
0000
0000
0010
0100
0000
0101
0000
,
1001
0000
0100
1000
0100
0000
0100
1000
0200
0000
0000
0000
0000
0000
0000
0000
,
1300
0100
0001
0100
1000
1000
1000
0000
,
0010
0000
0100
0000
0010
0000
0000
0000
0100
0001
0100
0001
0100
0001
0100
0000
,
0001
0000
0010
0000
1000
0000
0010
0100
0010
0000
1000
0000
0001
0100
0001
0000
,
1000
0000
0010
0100
0010
0000
0010
1000
0010
1000
0010
0100
0001
0010
0001
0010
,
1100
1100
1001
1001
0100
0001
0100
1000
,
0011
0000
0011
0000
1001
0000
1001
0000
0010
0000
1000
0000
0010
0000
0001
0010
,
1100
1100
1001
1001
0010
0001
0010
1000
,
0100
0000
0100
0000
0010
0000
0001
0000
0010
0000
0010
0000
1001
0000
0010
0001
,
1010
1010
1001
1001
0100
0001
0100
1000
,
0101
0000
0101
0000
1001
0000
1001
0000
0010
0000
1000
0000
0010
0000
0001
0100
,
1010
0000
1010
0000
1001
0000
1001
0000
0100
0000
0001
0000
0010
0100
1000
0000
,
1000
0010
1000
0010
1000
0100
1000
0100
0010
0001
0010
0001
0100
0010
0100
0000
,
0002
0000
0000
0003
;

//---------------dance-single - ----------------
#NOTES:
     dance-single:
     :
     Easy:
     7:
     0.321465,0.337200,0.469933,0.144595,0.000000,249.000000,197.000000,52.000000,16.000000,0.000000,0.000000,0.321465,0.337200,0.469933,0.144595,0.000000,249.000000,197.000000,52.000000,16.000000,0.000000,0.000000:
0000
0000
0000
0000
,
0000
0000
0000
0000
,
1000
0000
1000
0000
0001
1000
0001
0000
,
0100
0000
0100
0000
0010
0100
0010
0000
,
1000
0000
0001
0000
1000
0001
1000
0000
,
2002
0000
0000
3003
,
0110
0010
1000
1001
,
0110
0100
0001
1001
,
0110
0001
0100
0010
,
0110
0110
1001
0000
,
1001
0010
0001
0100
,
1001
0010
1000
0010
,
1001
0010
0100
1000
,
0001
0110
1001
1001
,
1002
1000
1000
1003
,
2001
0001
0001
3001
,
1002
1000
1000
1003
,
2001
0001
3001
0000
,
1000
0001
1000
0000
0100
0000
0110
0000
,
0001
1000
0001
0000
0010
0000
0110
0000
,
1000
0001
1000
0000
0010
0000
0100
0000
,
0001
0110
1001
1001
,
0100
0010
0100
0000
0001
0000
1001
0000
,
0010
0100
0010
0000
1000
0000
1001
0000
,
0100
0010
0100
0000
0001
0000
1001
0000
,
0010
0000
0010
0000
0010
0100
0010
0000
,
2002
0000
0000
3003
,
1001
0000
0000
0000
0010
0010
0010
0000
,
0110
0000
1000
0000
0002
0000
0000
1000
,
1003
0000
0010
0000
2000
0000
0000
0001
,
3001
0000
0100
0000
0002
0000
0000
1000
,
1003
1000
0010
0010
,
0100
0100
0010
0010
,
1001
0001
0010
1000
,
0110
1001
1000
0010
,
0001
0000
1001
0000
0100
0010
0100
0000
,
1001
1001
1001
0000
,
1002
0010
1000
0013
,
2001
0100
0001
3100
,
1002
0010
1000
0013
,
2001
0100
3001
0000
,
1001
0000
1000
0000
0010
0100
0010
0000
,
1001
0000
0001
0000
0100
0010
0100
0000
,
1001
0000
1000
0000
0100
0010
0100
0000
,
0110
0110
1001
0000
,
1001
0000
1000
0000
0100
0010
0100
0000
,
1001
0000
0001
0000
0010
0100
0010
0000
,
1001
0000
1000
0000
0100
0010
0100
0000
,
1001
0000
1001
0000
1000
0001
0100
0001
,
2000
0000
0000
3000
;

//---------------dance-single - ----------------
#NOTES:
     dance-single:
     :
     Beginner:
     5:
     0.215601,0.287834,0.506082,0.000000,0.000000,167.000000,111.000000,56.000000,0.000000,0.000000,0.000000,0.215601,0.287834,0.506082,0.000000,0.000000,167.000000,111.000000,56.000000,0.000000,0.000000,0.000000:
0000
0000
0000
0000
,
0000
0000
0000
0000
,
1000
0000
0000
0000
,
0001
0000
0000
0000
,
1000
0000
0000
0000
,
0001
0000
0000
0000
,
1001
1000
0001
1000
,
1001
0010
0100
0010
,
1001
0100
0010
0100
,
1001
1001
1001
0000
,
1001
0100
0001
0100
,
1001
0010
1000
0010
,
1001
0100
0001
0100
,
1001
1001
1001
0000
,
0010
0000
0000
0000
,
0001
0000
0000
0000
,
1000
0000
0000
0000
,
0100
0000
0000
0000
,
1001
1001
0000
0000
,
1001
1001
0000
0000
,
1001
1001
0000
0000
,
0110
0001
1000
1000
,
1001
1001
0000
0000
,
1001
1001
0000
0000
,
1001
1001
0000
0000
,
0110
1000
0001
0001
,
1001
0000
0000
0000
,
0110
0000
0000
0000
,
1001
0001
0010
0000
,
1001
1000
0100
0000
,
1001
0001
0100
0000
,
1001
1001
1001
0000
,
0010
0010
0010
0010
,
0110
0000
0000
1000
,
1001
0000
0000
0000
,
0001
0010
0001
1000
,
1001
1001
1001
0000
,
1000
0000
0000
0000
,
0100
0000
0000
0000
,
1000
0000
0000
0000
,
0001
0000
0000
0000
,
1001
1001
0000
0000
,
1001
1001
0000
0000
,
1001
1001
0000
0000
,
0110
1000
0001
0001
,
1001
1001
0000
0000
,
1001
1001
0000
0000
,
1001
1001
0000
0000
,
0110
0110
1001
1001
,
0001
0000
0000
0000
;

//---------------dance-single - ----------------
#NOTES:
     dance-single:
     :
     Medium:
     11:
     0.471224,0.517040,0.515119,0.063260,0.112965,365.000000,308.000000,57.000000,7.000000,0.000000,0.000000,0.471224,0.517040,0.515119,0.063260,0.112965,365.000000,308.000000,57.000000,7.000000,0.000000,0.000000:
0000
0000
0000
0000
,
0000
0000
0000
0000
,
1000
0000
1000
0000
1000
0000
0000
0000
0010
0000
0000
1000
0000
0000
0010
0000
,
0000
0000
0100
0000
0000
0100
0000
0000
0001
0000
0010
0000
0001
0000
0000
0000
,
0010
0000
0100
0000
0100
0000
0000
0000
1000
0000
0000
0010
0000
0000
0100
0000
,
2002
0000
0000
3003
,
0110
0000
0100
0000
0001
0000
0000
0000
0000
0000
0000
1000
0100
0000
1000
0000
,
0010
0000
0010
0000
1000
0000
0000
0000
0000
0000
0000
0001
0010
0000
0001
0000
,
0100
0000
0100
0000
0001
0000
0000
0000
0000
0000
0000
1000
0100
0000
1000
0000
,
0010
0000
1010
0000
0001
0001
0101
0000
,
1100
0000
0010
0000
0001
0000
0010
0000
0001
0000
0000
1000
0000
0000
1000
0000
,
0011
0000
0100
0000
1000
0000
0100
0000
1000
0000
0000
0001
0000
0000
0001
0000
,
1010
0000
0100
0000
0001
0000
0100
0000
0001
0000
0000
1000
0000
0000
1000
0000
,
0101
0010
1000
0000
0100
0100
0110
0000
,
1000
0000
0100
0000
0010
0010
0010
0000
,
0001
1000
0001
0000
0100
0010
0100
0000
,
0001
0000
0010
0000
0100
0100
0100
0000
,
1000
0010
0100
0010
1000
0000
0000
0000
,
1000
1000
0010
0110
0001
0010
0100
1000
,
0001
0001
0010
0110
1000
0100
0010
0001
,
1000
1000
0100
0110
0001
0010
0100
1000
,
1010
0000
0011
0000
0100
1000
0100
0000
,
0001
0001
0010
0110
1000
0100
0010
0001
,
1000
1000
0010
0110
0001
0010
0100
1000
,
0001
0000
0001
0000
0010
0000
0110
0000
0001
0000
0010
0000
0100
1000
0100
0000
,
1000
0010
1000
0001
0100
1000
0100
0010
,
2002
0000
0000
3003
,
0220
0000
0000
0330
,
1100
0000
1000
0000
1000
0000
0000
0000
1010
0000
0000
1010
0000
0000
1001
0000
,
1001
0000
0001
0000
0001
0000
0000
0000
0101
0000
0000
0101
0000
0000
1001
0000
,
1001
0000
1000
0000
1000
0000
0000
0000
1100
0000
0000
1100
0000
0000
1001
0000
,
1001
0001
1000
1000
0001
0001
1000
1000
,
0010
1000
0010
0000
0010
1000
0010
0000
0100
0001
0100
0000
0100
0001
0100
0000
,
0001
0000
0010
0000
0100
0000
1000
0000
0001
0000
0000
0101
0000
0000
1001
0000
,
1001
0000
0100
0000
0010
0000
0001
0000
1000
0000
0000
1010
0000
0000
1001
0000
,
1001
0000
0010
0000
0100
0000
1000
0000
0001
0000
0000
0011
0000
0000
1001
0000
,
1001
0000
1000
0000
0010
0000
1000
0010
1000
0000
0000
0000
0000
0000
0000
0000
,
1000
0000
0100
0000
0010
0010
0010
0000
,
0001
1000
0001
0000
0100
0100
0100
0100
,
0001
1000
0001
0010
0100
1000
0100
0000
,
1001
0000
0001
0000
0100
0000
0001
0100
0001
0000
0000
0000
0000
0000
0000
0000
,
1000
1000
0110
0110
0001
0010
0100
1000
,
0001
0001
0110
0110
1000
0100
0010
0001
,
1000
1000
0110
0110
0001
0010
0100
1000
,
0101
0000
1100
0000
0001
0001
1001
0000
,
0001
0001
0110
0110
1000
0100
0010
0001
,
1000
1000
0110
0110
0001
0010
0100
1000
,
0001
0000
0001
0000
0110
0000
0110
0000
1000
0000
0100
0000
0010
0000
0001
0010
,
0001
0000
0100
0001
0010
0000
0100
1000
0100
0000
1000
0000
0100
0000
0010
0000
,
0002
0000
0000
0003
;

//---------------dance-double - ----------------
#NOTES:
     dance-double:
     :
     Easy:
     6:
     0.256914,0.361487,0.451859,0.090372,0.000000,199.000000,149.000000,50.000000,10.000000,0.000000,0.000000,0.256914,0.361487,0.451859,0.090372,0.000000,199.000000,149.000000,50.000000,10.000000,0.000000,0.000000:
// measure 0
00000000
00000000
00000000
00000000
,  // measure 1
00000000
00000000
00000000
00000000
,  // measure 2
00001000
00000000
00001000
00000000
,  // measure 3
00000001
00000000
00000001
00000000
,  // measure 4
00001000
00000000
00001000
00000000
,  // measure 5
00022000
00000000
00000000
00033000
,  // measure 6
00001001
00000010
00000010
00000001
,  // measure 7
00000010
00000010
00000100
00001000
,  // measure 8
00010000
00010000
00100000
00010000
,  // measure 9
00011000
00011000
00011000
00000000
,  // measure 10
10010000
01000000
01000000
10000000
,  // measure 11
00100000
00100000
10000000
01000000
,  // measure 12
00100000
00010000
00001000
00000100
,  // measure 13
00011000
00011000
00011000
00000000
,  // measure 14
00002000
00000000
00000000
00000000
,  // measure 15
00003002
00000000
00000000
00000000
,  // measure 16
00002003
00000000
00000000
00000000
,  // measure 17
00003002
00000000
00001003
00000000
,  // measure 18
00001001
00001001
00001000
00010000
,  // measure 19
10010000
10010000
00010000
00001000
,  // measure 20
00001001
00001001
00001000
00010000
,  // measure 21
00100000
01000000
10000000
00100000
,  // measure 22
10010000
10010000
00010000
00001000
,  // measure 23
00001001
00001001
00001000
00010000
,  // measure 24
10010000
10010000
00010000
00001000
,  // measure 25
00000100
00000010
00000001
00000001
,  // measure 26
00001001
00000000
00000000
00000000
,  // measure 27
00000022
00000000
00000000
00000033
,  // measure 28
00001001
00000000
00000010
00000001
,  // measure 29
00001001
00000000
00000100
00001000
,  // measure 30
00001001
00000000
00001000
00010000
,  // measure 31
10010000
10010000
10010000
00000000
,  // measure 32
10000000
10000000
10000000
10000000
,  // measure 33
01100000
00010000
00100000
00010000
,  // measure 34
00010000
00001000
00010000
00001000
,  // measure 35
00001000
00000100
00000010
00000001
,  // measure 36
00001001
00001001
00001001
00000000
,  // measure 37
00000001
00000000
00000001
00000000
,  // measure 38
00000010
00000000
00000010
00000000
,  // measure 39
00000100
00000000
00000100
00000000
,  // measure 40
00001000
00001000
00001000
00000000
,  // measure 41
10010000
10010000
00010000
00001000
,  // measure 42
00001001
00001001
00001000
00010000
,  // measure 43
10010000
10010000
00010000
00001000
,  // measure 44
00000100
00000010
00000001
00000001
,  // measure 45
00001001
00001001
00001000
00010000
,  // measure 46
10010000
10010000
00010000
00001000
,  // measure 47
00001001
00001001
00001000
00010000
,  // measure 48
01100000
01100000
11000000
01010000
,  // measure 49
20020000
00000000
00000000
00000000
,  // measure 50
30030000
00000000
00000000
00000000
;

//---------------dance-single - ----------------
#NOTES:
     dance-single:
     :
     Challenge:
     16:
     0.846913,0.809279,1.012164,0.108446,0.953422,656.000000,544.000000,112.000000,12.000000,0.000000,0.000000,0.846913,0.809279,1.012164,0.108446,0.953422,656.000000,544.000000,112.000000,12.000000,0.000000,0.000000:
0000
0000
0000
0000
,
0000
0000
0000
0000
,
1100
0000
0010
0000
0001
0001
0100
0000
0001
0001
0100
0010
1000
0100
0010
0000
,
0011
0000
0100
0000
1000
1000
0000
0001
0001
1000
0010
0100
0010
1000
0100
0000
,
0011
0000
0100
0000
1000
1000
0010
0000
1000
1000
0010
1000
0100
0010
0100
1000
,
0002
0000
0000
0000
0000
0000
0000
0000
0100
0100
0000
0100
0000
0103
0010
1000
,
0110
0000
0001
0000
0011
0000
0100
1000
0000
0100
1000
0010
0101
0000
1010
0000
,
0110
0000
1000
0000
1100
0000
0010
0001
0000
0010
0001
0010
1100
0000
0011
0000
,
0110
0000
1000
1000
0001
0000
0100
0001
0000
0100
0001
0010
1100
0000
0011
0000
,
0110
0000
1000
0100
0011
0000
1000
0100
0011
0000
0011
0000
0011
0000
0000
0000
,
0001
0100
0010
1000
0001
0100
0010
1000
0100
0001
0100
1000
1001
0000
0110
0000
,
1000
0100
0010
0001
1000
0100
0010
0001
0100
1000
0100
0001
1001
0000
0110
0000
,
0001
0100
0010
1000
0001
0100
0010
1000
0100
0001
0100
1000
0110
0000
1001
0000
,
0011
0000
1000
0100
0011
0000
1000
0100
0011
0000
0011
0000
0011
0000
0000
0000
,
1000
0000
0001
0100
1000
0000
0100
0000
0001
0100
1000
0000
1000
0000
0001
0001
,
1000
0000
0010
0000
0100
0000
0010
0000
1000
0000
0100
0010
0100
0010
0100
0000
,
1000
0000
0001
0000
0010
0000
1000
0000
0010
0000
0001
0001
0000
1000
1000
0010
,
1000
0000
1000
0001
0010
0000
0010
0001
1000
0100
0010
0001
1000
0010
1000
0001
,
0011
0000
0110
0000
1100
0000
0011
1000
0001
0010
1000
0010
0001
0010
0100
1000
,
1010
0000
0110
0000
0101
0000
1010
0001
1000
0010
0001
0010
1000
0100
0010
0100
,
1010
0000
0110
0000
0101
0000
1010
0001
1000
0100
0001
0100
1000
0010
0100
0001
,
0011
0000
0100
1000
1010
0000
0100
0001
0011
0000
0100
1000
1001
0010
0100
0010
,
0101
0000
1001
0000
1010
0000
0101
1000
0001
0010
1000
0010
0001
1000
0100
0010
,
0011
0000
1001
0000
1100
0000
0011
1000
0001
0100
1000
0100
0001
0010
0100
0010
,
1001
0000
1100
0000
0110
0000
0011
1000
0001
0100
1000
0100
0001
0010
0100
0100
,
0010
0001
0100
0100
0010
1000
0001
0001
0010
0100
0010
0001
0100
0010
0100
0010
,
2002
0000
0000
0000
,
3003
0000
0000
0000
0000
0000
0000
0000
0100
0000
0100
0010
1000
0000
1000
0100
,
0011
0000
0001
0001
0100
0010
0100
0001
1100
1000
0000
0110
0010
0000
0101
0000
,
1100
0000
1000
1000
0001
0010
0100
0010
0101
0001
0000
0110
0100
0000
1010
0000
,
0011
0000
0001
0001
1000
0010
0100
0010
1100
1000
0000
0110
0010
0000
1010
0000
,
1001
1001
1001
1001
1001
1001
1001
1001
,
1000
0010
1000
0010
0100
0001
0100
0001
1000
0100
1000
0100
0001
0100
0001
0100
,
1000
0010
0100
0002
0000
0203
0000
2300
0000
3000
0000
0100
1100
0000
0110
0000
,
0011
0100
1000
0020
0000
0100
0000
0130
0000
0000
0000
0001
0101
0000
0110
0000
,
1010
0100
0010
0002
0000
0203
0000
2300
0000
3000
0000
0001
0101
0000
1010
0000
,
1001
0010
0100
0010
0001
0010
0100
0010
0002
0000
0000
0000
0000
0000
0000
0000
,
1003
0000
0001
0100
1000
0000
0100
0000
0001
0010
1000
0000
0010
0000
0000
0000
,
0001
0000
0100
0000
0001
0000
1000
0000
0100
0010
0100
0010
0100
0010
0100
0010
,
0001
0000
0010
0000
0100
0000
1000
1000
0000
0001
0001
0000
1000
1000
0000
0000
,
0100
0000
0010
0010
0100
1000
0010
0010
0100
0001
0010
0100
0010
0001
1000
0010
,
0110
0000
1100
0000
0011
0000
1100
0001
0100
0001
1000
0010
0010
0100
0100
0001
,
0110
0000
1010
0000
0101
0000
1010
0001
1000
0100
1000
0010
0010
0100
0100
0001
,
0110
0000
1100
0000
0011
0000
1100
0001
0100
0001
1000
0100
0100
0010
0010
0001
,
0100
0000
0100
0001
0010
0000
0010
0100
0010
0100
1000
0001
0100
0001
1000
0100
,
0011
0000
1100
0000
1001
0000
0011
1000
0010
1000
0001
0010
0010
0100
0100
1000
,
0101
0000
1001
0000
1010
0000
0101
1000
0001
0010
0001
0100
0100
0010
0010
1000
,
1100
0000
1001
0000
0011
0000
1100
0001
0100
0001
1000
0100
0100
0010
0010
0100
,
1000
0100
0001
1000
0010
0001
1000
0100
0010
0001
1000
0001
0010
0001
1000
0001
,
0200
0000
0000
0300
;
