#VERSION:0.83;
#TITLE:サンシャイン☆ダンス;
#SUBTITLE:;
#ARTIST:Togo Project feat.Megu;
#TITLETRANSLIT:SUNSHINE DANCE;
#SUBTITLETRANSLIT:;
#ARTISTTRANSLIT:;
#GENRE:;
#ORIGIN:;
#CREDIT:DigiMindAxel;
#BANNER:SUNSHINE DANCE.png;
#BACKGROUND:SUNSHINE DANCE-bg.png;
#PREVIEWVID:;
#JACKET:SUNSHINE DANCE-jacket.png;
#CDIMAGE:;
#DISCIMAGE:;
#LYRICSPATH:;
#CDTITLE:DANCE 86.4.png;
#MUSIC:SUNSHINE DANCE.ogg;
#OFFSET:-10.109000;
#SAMPLESTART:78.315964;
#SAMPLELENGTH:12.000000;
#SELECTABLE:YES;
#BPMS:0.000=130.000;
#STOPS:;
#DELAYS:;
#WARPS:;
#TIMESIGNATURES:0.000=4=4;
#TICKCOUNTS:0.000=4;
#COMBOS:0.000=1;
#SPEEDS:0.000=1.000=0.000=0;
#SCROLLS:0.000=1.000;
#FAKES:;
#LABELS:0.000=Song Start;
#BGCHANGES:;
#KEYSOUNDS:;
#ATTACKS:
;

//---------------dance-single - ----------------
#NOTEDATA:;
#CHARTNAME:;
#STEPSTYPE:dance-single;
#DESCRIPTION:;
#CHARTSTYLE:;
#DIFFICULTY:Beginner;
#METER:3;
#RADARVALUES:0.178923,0.234239,0.124290,0.000000,0.000000,131.000000,118.000000,13.000000,0.000000,0.000000,0.000000,0.000000,0.000000,0.000000,0.178923,0.234239,0.124290,0.000000,0.000000,131.000000,118.000000,13.000000,0.000000,0.000000,0.000000,0.000000,0.000000,0.000000;
#CREDIT:;
#NOTES:
1000
0000
0001
0000
,
1000
0100
0010
0001
,
1000
0000
0001
0000
,
1000
0000
1000
0000
,
1001
0000
0000
0000
,
0001
0100
0001
0000
,
1000
1000
1000
0000
,
1000
0010
1000
0000
,
0001
0001
0001
0000
,
1000
0010
0100
0000
,
0001
0001
0001
0000
,
0001
0100
0010
0000
,
1000
1000
0001
0001
,
1000
0000
0000
0000
,
1000
0000
0000
0000
,
1000
0000
0001
0000
,
1000
0000
0001
0000
,
0100
0000
0010
0000
,
0100
0000
0010
0000
,
0100
0000
0010
0000
,
1000
0000
0100
0000
,
1000
0000
1000
0000
,
0001
0000
0001
0000
,
1000
0000
0001
0000
,
0100
0010
0100
0000
,
0001
1000
0001
0000
,
0100
0010
0100
0000
,
0001
0000
0001
0000
,
1000
0000
0010
0010
,
1000
0000
0001
0000
,
0001
1000
0001
0000
,
1000
0000
0001
0000
1000
0000
0000
0001
,
0000
0000
0000
0001
0000
0000
0000
0000
,
1000
0100
0010
0001
,
1000
0000
0001
0000
,
1001
0000
0000
0000
,
1001
0000
0000
0000
,
1001
1000
0010
0000
,
0100
0001
0010
0000
,
1001
1000
0010
0000
,
1001
0000
1001
0000
,
1001
0010
0100
0000
,
1000
0010
0100
0000
,
1001
0100
0010
0000
,
1001
0000
1001
0000
,
1001
0000
0010
0000
,
0100
0000
1000
0000
,
0010
0000
0100
0000
,
0001
0000
0000
0000
,
1001
0000
0000
0000
;

//---------------dance-single - ----------------
#NOTEDATA:;
#CHARTNAME:;
#STEPSTYPE:dance-single;
#DESCRIPTION:;
#CHARTSTYLE:;
#DIFFICULTY:Medium;
#METER:9;
#RADARVALUES:0.393358,0.384343,0.411113,0.277263,0.038243,288.000000,245.000000,43.000000,29.000000,0.000000,0.000000,0.000000,0.000000,0.000000,0.393358,0.384343,0.411113,0.277263,0.038243,288.000000,245.000000,43.000000,29.000000,0.000000,0.000000,0.000000,0.000000,0.000000;
#CREDIT:;
#NOTES:
1001
1000
1100
0000
,
0010
0100
0001
0010
0100
0000
1000
0000
,
1001
0001
0011
0000
,
2000
0000
0000
0001
0001
0000
3001
0000
,
0220
0000
0000
0330
,
0001
0100
0010
1000
0100
0000
0010
0100
,
1000
0010
0100
0001
0010
0000
0100
0010
,
0002
0203
0320
2030
,
3002
0000
0000
0000
2003
0000
0000
0000
3000
0000
0000
0001
0000
0000
0001
0000
,
1000
0100
0010
0100
1000
0000
0001
0000
,
0010
0100
1000
0100
0010
0000
0001
0000
,
1000
0010
0100
0010
1000
0000
0010
0000
,
0101
0001
1100
0011
,
2001
0000
3200
0000
,
0320
0000
0032
0000
,
1003
0100
0010
0001
1000
0000
1000
0000
,
0001
0010
0100
1000
0001
0000
0001
0000
,
1001
0001
0110
0100
,
1001
1000
0110
0010
,
0001
0010
0100
1000
0001
0000
0001
0100
,
0001
0000
0010
0000
0100
0000
1000
0000
0001
0000
0000
0100
0000
0000
0100
0000
,
1001
1000
0110
0010
,
1001
0001
0110
0100
,
1000
0100
0010
0001
1000
0000
1000
0000
,
0001
0010
0100
1000
0010
0000
0010
1000
,
0001
0000
0000
0010
0000
0000
0001
0000
1000
0000
0000
0100
0000
0000
1000
0000
,
0001
0010
0100
1000
0001
0100
0001
0100
,
0010
0000
0000
1000
0000
0000
0001
0000
0010
0000
0000
0001
0000
0000
0100
0000
,
0010
0000
0000
1000
0000
0000
0100
0000
1000
0000
0000
0000
1100
0000
0000
0000
,
0001
0000
1001
0000
1000
0100
1000
0001
,
0020
0000
0001
0031
0000
0000
0100
1000
,
0020
0000
0100
0130
0000
0001
0000
1001
,
0000
0100
1000
0001
0000
0010
0001
1000
,
0020
0230
0320
0230
,
0302
0000
1000
1003
,
0101
0100
1100
0100
,
1001
0000
0000
0000
1001
0000
0000
0000
0110
0000
0000
0110
0000
0000
0000
0000
,
0002
0000
0100
0000
1003
0100
0010
0001
,
0100
1000
0100
0010
1000
0000
1001
0000
,
2000
0000
0100
0000
3001
0010
0100
1000
,
1001
1001
0110
0110
,
2000
0000
0100
0000
3001
0100
0010
1000
,
0100
0001
1000
0100
0010
0000
1010
0000
,
0002
0000
0100
0000
1003
0100
0010
0001
,
1001
1001
0110
0110
,
0102
0000
1000
0000
0100
0000
1003
0100
,
2100
0000
0001
0000
0100
0000
3001
0100
,
0102
0000
1000
0000
0100
0000
1003
0100
,
1100
0000
0101
0101
,
2002
0000
0000
0000
,
0000
3003
0000
0000
;

//---------------dance-single - ----------------
#NOTEDATA:;
#CHARTNAME:;
#STEPSTYPE:dance-single;
#DESCRIPTION:;
#CHARTSTYLE:;
#DIFFICULTY:Easy;
#METER:5;
#RADARVALUES:0.284092,0.312279,0.239019,0.095608,0.000000,208.000000,183.000000,25.000000,10.000000,0.000000,0.000000,0.000000,0.000000,0.000000,0.284092,0.312279,0.239019,0.095608,0.000000,208.000000,183.000000,25.000000,10.000000,0.000000,0.000000,0.000000,0.000000,0.000000;
#CREDIT:;
#NOTES:
1000
0010
0100
0001
,
1000
0100
0001
0100
,
1000
0100
0010
0001
,
0100
0000
0100
0000
,
0110
0000
0000
0000
,
1001
1000
0001
0010
,
0010
0001
1000
0100
,
0100
1000
0001
0100
,
0100
0001
1000
0010
,
0010
1000
0001
0010
,
0010
0001
1000
0100
,
0100
1000
0001
0010
,
1001
0001
1001
1001
,
0200
0000
0000
0000
,
2300
0000
0000
0000
,
3001
0010
0001
0000
0001
0000
0001
0000
,
1000
0100
1000
0000
1000
0000
1000
0000
,
0100
0010
0100
0010
,
0001
1000
0001
1000
,
0001
0100
0001
0000
0001
0000
0001
0000
,
1000
0010
1000
0000
1000
0000
1000
0000
,
0010
0100
0010
0100
,
0001
1000
0001
1000
,
0001
0010
0001
0000
0001
0000
0001
0000
,
1000
0100
1000
0000
1000
0000
1000
0000
,
0110
0010
0100
0010
,
1000
0001
0010
0001
,
2000
0000
3002
0000
,
0000
0003
1001
1001
,
1001
0000
0000
0000
0100
1000
0100
0000
,
0010
0000
0000
0000
0010
0001
0010
0000
,
0100
0000
0000
0000
0000
1000
0000
1001
,
0000
0010
0000
0110
0000
0010
0000
0000
,
1001
0010
0100
1000
,
0001
0010
0100
0100
,
0220
0000
0000
0330
,
0110
0110
1001
0000
,
1001
1000
0100
0010
,
1001
0001
0010
0100
,
1001
1000
0010
0100
,
0001
0010
0100
1000
,
1001
0001
0100
0010
,
1001
0010
0100
0001
,
1001
0100
0010
0001
,
1000
0010
1000
0000
0001
0100
0001
0000
,
1002
1000
1000
1000
,
0100
0100
0100
0103
,
0020
0100
0100
0130
,
0110
0000
0100
0100
,
2002
0000
0000
0000
,
0000
3003
0000
0000
;

//---------------dance-single - ----------------
#NOTEDATA:;
#CHARTNAME:;
#STEPSTYPE:dance-single;
#DESCRIPTION:;
#CHARTSTYLE:;
#DIFFICULTY:Hard;
#METER:11;
#RADARVALUES:0.484868,0.432386,0.277263,0.076486,0.305945,355.000000,326.000000,29.000000,8.000000,0.000000,0.000000,0.000000,0.000000,0.000000,0.484868,0.432386,0.277263,0.076486,0.305945,355.000000,326.000000,29.000000,8.000000,0.000000,0.000000,0.000000,0.000000,0.000000;
#CREDIT:;
#NOTES:
1000
0100
0010
0001
1000
0000
1100
0000
,
0001
0100
0001
0000
1000
0000
0100
0000
0010
0000
0000
0001
1000
0000
1000
0000
,
0001
0010
0100
1000
0001
0000
0011
0000
,
1001
0000
0000
1000
2000
0000
0001
0000
,
3001
0000
0000
0000
0000
1000
0010
0100
0001
0100
0000
0000
,
1001
0000
0000
0010
0000
0000
0100
0000
0000
0000
0000
1000
0000
1000
0001
0000
,
1000
0000
0000
0100
0000
0000
0010
0000
0000
0000
0000
0001
0000
0001
1000
0000
,
0001
0000
0000
0100
0000
0000
0010
0000
0000
0000
0000
1000
0000
1000
0001
0000
,
1000
0000
0000
0010
0000
0000
0100
0000
0000
0000
0000
0001
0000
0001
1000
0000
,
0100
0000
0010
0001
0000
0010
0001
0000
0000
0000
0000
0100
0000
0100
0010
0000
,
1000
0000
0100
0010
0000
0100
0010
0000
0000
0000
0000
0001
0000
0001
0100
0000
,
0010
0000
1000
0001
0000
1000
0001
0000
0010
0000
0000
0000
0100
0000
1000
0000
,
1010
0010
1001
1001
,
2000
0000
0000
3010
0200
0000
0000
0301
,
0020
0000
0000
0000
0000
0000
0000
0000
0031
0000
0000
0100
0000
0000
0001
0000
,
1000
0000
0100
0000
1000
0000
0000
0010
0000
0100
0000
0010
1000
0000
0000
0000
,
0001
0000
0010
0000
0001
0000
0000
0100
0000
0010
0000
0100
0001
0000
0000
0000
,
1000
0100
1000
0001
0100
0001
1000
0100
,
1000
0000
0001
0000
0010
0000
0100
0000
1000
0000
0000
0010
0000
0000
1000
0000
,
0001
0000
0010
0000
0001
0000
0000
0100
0000
0010
0000
0100
0001
0000
0000
0000
,
1000
0000
0100
0000
1000
0000
0000
0010
0000
0100
0000
0010
1000
0000
1000
0000
,
0001
0010
0001
1000
0010
1000
0001
0010
,
0001
0000
1000
0000
0100
0000
0010
0000
0001
0000
0000
0100
0000
0000
0001
0000
,
1000
0000
0100
0000
1000
0000
0000
0001
0000
0100
0000
0001
1000
0000
0000
0000
,
0001
0000
0010
0000
0001
0000
0000
1000
0000
0010
0000
1000
0001
0000
0100
0000
,
0101
0000
1000
0000
0100
1000
0001
0000
,
0001
1000
0100
0010
0001
1000
0010
0000
,
0200
0000
0000
0010
0000
0000
0310
0000
1000
0000
0000
0100
0010
0000
0001
0000
,
0001
0000
0000
0100
0010
0000
1000
0000
1100
0000
0000
0000
0101
0000
0000
0000
,
1001
0000
0001
0100
0010
1000
0100
0010
,
0001
0000
1000
0010
0100
0001
0010
0100
,
1000
0000
0001
0010
0100
1000
0010
0110
,
0000
0001
0001
0101
0000
1000
1000
1000
,
1001
0100
1100
0010
,
0011
0100
0110
0110
,
1001
0000
0000
0000
0001
0000
0000
0000
0001
0000
0000
1000
0000
0000
1000
0000
,
0001
0010
0000
0000
0100
1000
0000
0000
0001
1000
0001
2000
0000
0000
3001
0000
,
1000
0010
0100
0001
1000
0010
0100
0001
,
0100
0000
1000
0000
0100
0000
0001
0000
1000
0000
0000
0010
1000
0000
0001
0000
,
0001
0010
0100
0010
0001
1000
0100
1000
,
1100
1100
0101
0110
,
0001
0100
0010
1000
0001
0100
0010
1000
,
0100
0000
0001
0000
0100
0000
1000
0000
0001
0000
0000
0100
0001
0000
1000
0000
,
1000
0100
0010
0100
1000
0001
0010
0001
,
0011
0011
1010
0110
,
1000
0000
0001
0000
0010
0000
0100
0000
1000
0000
0000
0001
0100
0000
0001
0000
,
0001
0000
1000
0000
0100
0000
0010
0000
0001
0000
0000
1000
0010
0000
1000
0000
,
1000
0000
0001
0000
0010
0000
0100
0000
1000
0000
0000
0001
0100
0000
0001
0000
,
1001
0000
0000
0000
0000
0100
0001
1000
0100
1000
0000
0000
,
2002
0000
0000
0000
,
0000
3003
0000
0000
;

//---------------dance-single - ----------------
#NOTEDATA:;
#CHARTNAME:;
#STEPSTYPE:dance-single;
#DESCRIPTION:;
#CHARTSTYLE:;
#DIFFICULTY:Challenge;
#METER:13;
#RADARVALUES:0.656962,0.600536,0.449357,0.143412,0.650133,481.000000,434.000000,47.000000,15.000000,0.000000,0.000000,0.000000,0.000000,0.000000,0.656962,0.600536,0.449357,0.143412,0.650133,481.000000,434.000000,47.000000,15.000000,0.000000,0.000000,0.000000,0.000000,0.000000;
#CREDIT:;
#NOTES:
// measure 0
0001
0100
0001
0100
0000
0010
0000
1000
0000
0100
0000
1000
0001
0000
0001
0000
,  // measure 1
1000
0010
1000
0010
0000
0100
0000
0001
0000
0000
0000
1000
0001
0000
1001
0000
,  // measure 2
1000
0100
1000
0100
0000
0010
0000
0001
0000
0100
0000
0001
1000
0000
1000
0000
,  // measure 3
0220
0000
0330
0001
0002
0000
2003
0000
,  // measure 4
3010
0000
0000
0000
0000
0000
0000
0000
0000
0000
1000
0001
1000
0000
1000
0000
1000
0000
1001
0000
0000
0000
0000
0000
,  // measure 5
1000
0000
0001
0010
0000
0001
1000
0000
0010
0000
1000
0001
0000
0001
0010
0000
,  // measure 6
0100
0000
1000
0010
0000
1000
0001
0000
0010
0000
0001
1000
0000
1000
0010
0000
,  // measure 7
0100
0000
0001
0000
1000
0100
0000
0010
0000
0010
0100
0000
1000
0000
0010
0100
,  // measure 8
0001
0000
1000
0000
0001
0010
0000
0100
0000
0100
0000
0011
0000
0000
1100
0000
,  // measure 9
1001
0000
1000
0001
0000
0100
0001
0000
1000
0000
0100
1000
0000
1000
0001
0010
,  // measure 10
0100
0000
1000
0001
0000
0100
0001
0000
1000
0000
0100
1000
0000
1000
0001
0010
,  // measure 11
0100
0000
1000
0000
0001
0100
0000
0010
0000
0010
0100
0000
0001
0000
0010
0100
,  // measure 12
2000
0001
3002
2003
,  // measure 13
3001
0000
0000
0100
0000
0000
1000
0000
0100
0000
0001
1000
0000
0000
0010
0000
,  // measure 14
0100
0000
1000
0000
0100
0000
0010
0000
2000
0000
0000
0001
0000
0000
3001
0000
,  // measure 15
0100
0000
0001
1000
0100
0000
0010
0001
0000
0001
0000
0001
1000
0000
0010
0000
,  // measure 16
0100
0000
0001
0010
0100
0000
1000
0010
0000
0010
0000
0010
1000
0000
0001
0000
,  // measure 17
1000
0000
0010
0100
0010
0000
1000
0000
0100
0000
0010
0001
1000
0000
0010
0000
,  // measure 18
1000
0000
0001
0010
0001
0000
1000
0100
2000
0000
0000
0001
0000
0000
3001
0000
,  // measure 19
1000
0000
0100
0010
0001
0000
0100
0001
0000
0001
0000
0001
1000
0000
0100
0000
,  // measure 20
1000
0000
0010
0100
0001
0000
0010
0001
0000
0001
0000
0001
1000
0000
0001
0000
,  // measure 21
0100
0001
0100
0001
1000
0000
0010
0000
0100
0001
0100
0001
1000
0000
0100
0000
,  // measure 22
0010
0000
0001
1000
0010
0000
1000
0000
0002
0000
0000
0010
0000
0000
0013
0000
,  // measure 23
0100
0000
1000
0010
0100
0000
0001
0010
0000
1000
0000
0010
0001
0000
0100
0000
,  // measure 24
0001
0000
0010
0100
1000
0000
0001
0100
0000
1000
0000
0100
0001
0000
0010
0000
,  // measure 25
0100
1000
0100
1000
0001
0000
0010
0000
0100
1000
0100
1000
0001
0000
0100
0000
,  // measure 26
0001
0000
0010
0100
0010
0000
0100
1000
0100
0000
1000
0001
1000
0000
0010
0000
,  // measure 27
0200
0000
0000
0001
0000
0000
0301
0000
1000
0000
0100
0010
0001
0000
0100
0000
,  // measure 28
0001
0000
0010
0100
1000
0000
0010
0000
1010
0000
1000
0000
1001
0000
0001
0000
,  // measure 29
1001
0000
0010
0000
0100
0000
1000
0000
0001
0100
0001
0100
0010
0000
0110
0000
,  // measure 30
1000
0000
0010
0000
0001
0000
0010
0000
1000
0100
1000
0100
0010
0000
0110
0000
,  // measure 31
0001
0000
0100
0000
1000
0000
0100
0000
0001
0010
0001
0010
0100
0000
0110
0000
,  // measure 32
0000
1100
1100
1001
0000
0101
0101
0101
,  // measure 33
1001
0100
0010
0001
1000
0010
1000
0001
,  // measure 34
1000
0010
1000
0001
2000
0000
3200
0000
,  // measure 35
1300
1000
0000
0000
0001
0001
0000
0000
1000
1000
0100
0010
0000
0000
1001
0000
,  // measure 36
0001
0001
0000
0000
1000
1000
0000
0000
0001
0001
0010
0100
0000
0000
1001
0000
,  // measure 37
0011
0000
0100
0000
1010
0000
0000
0011
0000
0000
0100
1000
0001
0000
0001
0000
,  // measure 38
1000
0000
0100
0000
0001
0000
0010
0000
1000
0100
0010
0001
1000
0000
1001
0000
,  // measure 39
0101
0000
0010
0000
1100
0000
0000
0101
0000
0000
0010
1000
0001
0000
0001
0000
,  // measure 40
1100
0011
1001
0110
,  // measure 41
0101
0000
0010
1000
0100
0000
0000
1001
0000
0000
0100
0010
0001
0000
0001
0000
,  // measure 42
1000
0000
0100
0000
0001
0000
0010
0000
1000
0100
0010
0001
1000
0000
1000
0000
,  // measure 43
1001
0000
0100
0000
0011
0000
0000
1010
0000
0000
0100
0001
1000
0000
1000
0000
,  // measure 44
0011
1100
0110
1001
,  // measure 45
0001
0000
0100
0001
1000
0000
0100
0000
0010
0000
0001
1000
0010
0000
1010
0000
,  // measure 46
0100
0000
0001
0010
0100
0000
1000
0000
0001
0000
0010
0001
1000
0000
1001
0000
,  // measure 47
0010
0000
0100
0001
1000
0000
0100
0000
0010
0000
0001
1000
0100
0000
1100
0000
,  // measure 48
1001
0000
0000
0000
0000
0000
0000
0000
0000
0000
0001
1000
0001
0000
0001
0000
0001
0000
1001
0000
0000
0000
0000
0000
,  // measure 49
0220
0000
0000
0000
,  // measure 50
0000
0330
0000
0000
;
