#TITLE:SQUEEZE;
#SUBTITLE:;
#ARTIST:Oriental ST8;
#TITLETRANSLIT:;
#SUBTITLETRANSLIT:;
#ARTISTTRANSLIT:;
#CREDIT:DigiMindAxel;
#BANNER:SQUEEZE.png;
#BACKGROUND:SQUEEZE-bg.png;
#LYRICSPATH:SQUEEZE.lrc;
#CDTITLE:DJMAX.png;
#MUSIC:SQUEEZE.ogg;
#METERTYPE:DDR X;
#OFFSET:-0.358;
#SAMPLESTART:55.169;
#SAMPLELENGTH:12.000;
#SELECTABLE:YES;
#BPMS:0.000=147.000;
#STOPS:;
#BGCHANGES:2.500=SQUEEZE.avi=1.000=1=1=0,
99999=-nosongbg-=1.000=0=0=0 // don't automatically add -songbackground-
;

//---------------dance-single - ----------------
#NOTES:
     dance-single:
     :
     Easy:
     5:
     0.260,0.299,0.175,0.058,0.000:
0000
0000
0000
0000
,
0000
0000
0000
0000
,
0000
0000
0000
0000
,
0000
0000
0000
0000
,
0000
0000
0000
0000
,
1000
0000
0100
0000
,
1000
0000
0001
0000
,
0100
0000
0001
0000
,
2002
0000
0000
3003
,
0001
1000
0001
0000
,
0010
0001
0010
0000
,
0100
0010
0100
0000
,
1000
1000
1000
1000
,
0001
1000
0001
0000
,
0100
0010
0100
0000
,
0001
1000
0001
0000
,
1000
0100
0010
0001
,
1000
0000
0100
0000
,
1000
0000
0010
0000
,
0100
0000
0010
0000
,
1000
0100
0010
0000
,
0001
0000
0100
0000
,
0010
0000
0100
0000
,
0001
0000
1000
0000
,
2002
0000
0000
3003
,
0001
0001
0001
0000
,
0010
0100
0010
0000
,
0001
0001
0001
0000
,
0100
0010
0100
0000
,
0001
1000
0100
0000
,
0010
0001
1000
0000
,
0100
1000
0100
1000
,
0010
0000
0010
0000
,
2002
0000
0000
3003
,
1000
0001
1000
0000
,
0010
0100
0010
0000
,
1000
0010
0100
0000
,
0001
1000
0001
1000
,
0100
1000
0100
0000
,
0010
0100
0010
0000
,
0001
0100
0010
0000
,
0100
0010
0100
0001
,
1000
0100
1000
0000
,
0001
0100
0010
0100
,
0001
0000
1000
0000
,
0100
1000
0100
1000
,
0010
0100
0010
0000
,
0100
0001
0010
0100
,
1000
0001
1000
0000
,
0100
1000
0100
0000
,
1001
0000
0010
0000
,
1001
0000
0100
0000
,
0001
1000
0001
1000
,
0001
1000
0100
0000
,
1001
0000
0010
0000
,
1001
0000
0100
0000
,
1000
0001
1000
0001
,
1000
0100
0010
0000
,
1001
0000
0110
0000
,
1001
0000
0110
0000
,
1001
0000
0110
0000
,
1001
0000
1001
0000
,
1001
0000
0110
0000
,
1001
0000
0110
0000
,
1001
0000
1001
0000
,
0220
0000
0000
0330
,
1001
0000
1000
0000
,
0001
0010
0100
1000
,
0010
0100
0010
0000
,
1000
0010
1000
0100
,
0010
0001
1000
0000
,
0100
1000
0100
1000
,
0010
0100
0010
0000
,
0100
0001
0100
0001
,
1000
0100
0010
0000
,
0001
0010
0100
0000
,
1000
0010
0100
0000
,
0010
0100
0010
0100
,
0001
0010
0100
0000
,
0010
0001
0100
0010
,
1000
0100
1000
0000
,
0010
0010
0010
0110
;

//---------------dance-single - ----------------
#NOTES:
     dance-single:
     :
     Medium:
     10:
     0.453,0.449,0.395,0.117,0.011:
0000
0000
0000
0000
,
0000
0000
0000
0000
,
0000
0000
0000
0000
,
0000
0000
0000
0000
,
0000
0000
0000
0000
,
0100
0010
0001
0001
,
0010
0100
1000
1000
,
0100
0010
0001
0001
,
0220
0000
0000
0330
,
1000
0010
0100
0000
0010
0010
0010
0000
,
1000
0100
0010
0000
0100
0100
0100
0000
,
1000
0001
0010
0000
0100
0100
0100
0000
,
1000
0010
1000
0000
0001
0100
0001
0000
,
1000
0100
0010
0000
0001
0001
0001
0000
,
1000
0010
0100
0000
0001
0001
0001
0000
,
0010
0100
1000
0000
0010
0010
0010
0000
,
0202
0000
0000
0303
,
1001
0001
1000
1000
,
0100
0010
0001
0001
,
0100
0000
0110
0000
0100
0010
0000
0000
,
1000
0000
0100
0000
0010
0001
0010
0000
,
1001
1000
0100
1000
,
0010
0100
0001
1000
,
1100
0000
0000
0000
0000
1000
0001
0000
,
1001
0000
0000
1001
0000
0000
0000
0000
,
0011
0000
0011
0000
0001
0010
0001
1000
,
0000
0010
0000
0100
0000
1001
0000
0000
,
1100
0000
0100
1000
0000
0010
0000
0200
,
0000
0001
0000
0301
0000
0000
1000
0100
,
1000
0000
0001
0100
0000
0001
0000
1000
,
0000
0010
0000
0100
0000
0010
0000
0000
,
0200
0000
0001
0000
0301
1000
0100
1000
,
0002
1000
1000
1003
,
0220
0000
0000
0330
,
0001
0000
0010
0001
0000
1000
0000
1010
,
0000
1010
0000
1001
0000
1001
0000
1001
,
0000
0000
0000
1000
0001
1000
0000
0010
,
0000
0110
0000
0110
0000
0100
0010
0100
,
0001
0000
1000
0100
0000
1000
0000
1100
,
0000
1100
0000
1001
0000
1001
0000
0000
,
0001
0010
0001
0000
1000
0100
1000
0000
,
0010
0000
0100
0001
0100
0001
1000
0100
,
0010
0000
0001
1000
0000
0010
0000
0110
,
0000
0110
0000
1001
0000
1001
0000
1001
,
0000
0000
0000
0100
1000
0100
0000
1100
,
0000
1100
0000
1001
0000
1001
0000
0000
,
0001
0000
0100
0001
0000
0100
0000
0110
,
0000
0110
0000
1001
0000
1001
0000
0000
,
1000
0100
1000
0000
0100
0010
0001
1000
,
0000
0010
0000
0010
0000
0010
0100
0000
,
0001
1000
0100
0000
1000
0100
0010
0000
,
0001
0100
0010
0200
0000
0000
0000
0320
,
0000
0000
1030
0100
0010
0000
0100
1000
,
0010
1000
0200
0000
0000
0000
1300
0000
,
0001
0010
0100
0000
0010
0001
1000
0000
,
0010
0100
0001
0000
1000
0100
0010
0000
,
0100
1000
0100
1000
0001
0100
0001
0100
,
0220
0000
0000
0330
,
1000
0100
0010
0000
0100
0100
0100
0000
,
0010
0001
0100
0000
0010
0010
0010
0000
,
0100
0001
1000
0000
0100
0100
0100
0000
,
0010
0000
0000
0001
0000
0000
0010
0000
0100
0000
0000
0000
0110
0000
0000
0000
,
1000
0100
0010
0000
0001
0001
0001
0000
,
0100
0000
0000
0010
0000
0000
0100
0000
0000
0000
0000
0000
0000
0000
0000
0000
,
0010
1000
0100
0000
0010
0010
0010
0000
,
2002
0000
0000
3003
,
1000
0100
1000
0100
0000
0010
0000
0011
,
0000
0011
0000
1001
0000
1001
0000
1001
,
0000
0000
0000
0001
0100
0001
0000
1001
,
0000
1100
0000
1001
0000
0011
0000
0000
,
0100
1000
0100
1000
0000
0010
0000
0110
,
0000
0110
0000
1001
0000
1001
0000
0000
,
0001
0100
0010
0100
0001
0000
1000
0100
,
0010
0001
0101
0100
,
0010
1000
0100
0000
0010
0010
0010
0000
,
0001
0010
0100
0000
1000
1000
1000
0010
,
0100
0001
0010
0000
0001
0001
0001
0000
,
0010
0100
1000
0000
0001
0010
0100
0000
,
0010
0001
1000
0000
0010
0010
0010
0000
,
0100
0001
0010
0000
0100
0100
0100
0010
,
0001
1000
0010
0000
0100
0100
0100
0000
,
0001
0000
0000
1000
0000
0000
0001
0000
0000
0000
1000
0000
0100
0000
1000
0000
;

//---------------dance-single - ----------------
#NOTES:
     dance-single:
     :
     Hard:
     13:
     0.642,0.658,0.526,0.285,0.300: // measure 1
0000
0000
0000
0000
,  // measure 2
0000
0000
0000
0000
,  // measure 3
0000
0000
0000
0000
,  // measure 4
0000
0000
0000
0000
,  // measure 5
0000
0000
0000
0000
,  // measure 6
0001
0000
1000
0100
0000
1000
0100
0000
0010
0000
0001
0000
1000
0000
0100
0000
,  // measure 7
0010
0000
0001
0100
0000
0001
0100
0000
0010
0000
1000
0000
0100
0000
0010
0000
,  // measure 8
0001
0000
1000
0010
0000
1000
0010
0000
0100
0000
0001
0000
1000
0000
0010
0000
,  // measure 9
0220
0000
0000
0330
,  // measure 10
1000
0000
0001
0000
0100
0001
0000
0200
0000
0000
0001
0000
0301
0000
0000
0000
,  // measure 11
1000
0000
0100
0000
0010
0100
0000
0010
0000
0001
0000
1000
0002
0000
0000
0000
,  // measure 12
1003
0000
0100
0000
0010
0100
0000
2000
0000
0000
0001
0000
3001
0000
0000
0000
,  // measure 13
1000
0100
0001
0100
1000
0010
1001
0000
,  // measure 14
1000
0000
0010
0000
1000
0001
0000
0020
0000
0000
0001
0000
0031
0000
0000
0000
,  // measure 15
0100
0000
1000
0000
0001
0100
0000
0010
0000
0100
0000
0001
2000
0000
0000
0000
,  // measure 16
3001
0000
0010
0000
0001
1000
0000
0020
0000
0000
1000
0000
1030
0000
0000
0000
,  // measure 17
1001
0000
0000
1001
0000
0000
1001
0000
0000
1000
0000
0001
1000
0000
0000
0000
,  // measure 18
1100
0000
0100
1000
0001
1000
0100
1000
,  // measure 19
0000
0001
0100
0001
0010
0100
1000
0001
,  // measure 20
0000
0000
0201
0000
0010
0310
0000
1000
,  // measure 21
0100
1000
0010
0100
0001
0010
0000
0001
,  // measure 22
1001
0000
1000
0001
0010
0001
1000
0010
,  // measure 23
0000
1000
0001
1000
0100
0020
0000
0032
,  // measure 24
0000
0000
1003
0000
1000
0100
0010
0001
,  // measure 25
0202
0000
0303
2002
0000
0000
3003
0000
,  // measure 26
1100
0000
1100
0000
0010
0001
0100
1000
,  // measure 27
0000
0101
0000
1001
0000
1000
0100
1000
,  // measure 28
0002
0000
0100
0103
0000
1010
0000
1001
,  // measure 29
0000
1000
0100
0001
0100
0000
1000
0010
,  // measure 30
0200
0000
0001
0301
0000
1010
0000
0020
,  // measure 31
0000
0100
0100
0130
0000
1001
0000
0000
,  // measure 32
0002
0000
0010
0000
0013
0100
1000
0001
,  // measure 33
0200
0001
0001
0301
,  // measure 34
1000
0000
0100
1000
0100
0000
0010
0000
0001
0000
1000
0000
0010
0000
0000
0000
,  // measure 35
1001
0100
0010
0001
0000
0001
1000
1100
,  // measure 36
0000
0110
0000
0011
0000
0110
0000
2002
,  // measure 37
0000
0000
3003
0100
0010
0100
0000
1010
,  // measure 38
0000
1001
0000
0101
0000
0001
1000
0100
,  // measure 39
0001
0100
1000
0010
0000
0100
0001
1001
,  // measure 40
0000
1100
0000
0011
0000
0220
0000
0330
,  // measure 41
0100
1000
0010
0001
0010
1000
0100
0010
,  // measure 42
0000
0000
0001
1000
0001
0000
0100
0000
0010
0000
1000
0000
0100
0000
0001
0000
,  // measure 43
0100
1000
0010
0100
0000
0001
1000
1010
,  // measure 44
0000
0110
0000
0101
0000
0110
0000
2002
,  // measure 45
0000
0000
3003
0010
0100
0010
0000
1001
,  // measure 46
0000
1100
0000
0110
0000
0010
0001
1000
,  // measure 47
0010
0001
0010
1000
0000
0001
1000
1100
,  // measure 48
0000
1001
0000
0011
0000
0220
0000
0330
,  // measure 49
0100
1000
0010
0001
0010
1000
0100
0010
,  // measure 50
0002
0100
0000
0100
0000
0100
0103
0000
,  // measure 51
0010
0000
0100
0000
0001
0100
0000
0002
0000
0000
1003
0000
0100
0000
1000
0000
,  // measure 52
0001
0000
0100
0010
0100
0000
0002
0000
0000
0000
1000
0000
1003
0000
0020
0000
,  // measure 53
0000
0000
0130
0001
0100
0000
0001
1000
0001
0000
1000
0100
1000
0000
0100
0000
,  // measure 54
0010
0001
2000
0000
0000
0000
3010
0000
,  // measure 55
1000
0100
0001
0100
1000
0100
0001
0100
,  // measure 56
1000
0010
0001
0010
1000
0010
0001
0010
,  // measure 57
1000
0010
0001
0010
1000
0100
0000
1000
,  // measure 58
1001
0000
0000
1001
0000
0000
1001
0000
0000
1000
0000
0001
1000
0000
0000
0000
,  // measure 59
0010
1000
0010
1000
0010
1000
0000
0001
1000
0000
0100
0000
0010
0000
0001
0000
,  // measure 60
0101
0000
0000
0100
0000
0000
0001
0000
1000
0000
0100
0000
0001
0000
0100
0000
,  // measure 61
1000
0001
1000
0001
1000
0001
0000
0010
0001
0000
1000
0000
0010
0000
1000
0000
,  // measure 62
1001
0000
0000
0001
0000
0000
1000
0000
0100
0000
0010
0000
1001
0000
0000
0000
,  // measure 63
1000
0100
1000
0100
1000
0100
0000
1000
0001
0000
0010
0000
0100
0000
1000
0000
,  // measure 64
1010
0000
0000
0010
0000
0000
1000
0000
0001
0000
0010
0000
0100
0000
1000
0000
,  // measure 65
0010
0100
0010
0100
0010
0100
0000
0001
1000
0000
0010
0000
0100
0000
0010
0000
,  // measure 66
1000
0000
0001
0010
0001
0000
1000
0000
0010
0100
0010
0100
0010
0000
0000
0000
,  // measure 67
1000
0010
0001
0010
0000
1000
0100
1100
,  // measure 68
0000
0110
0000
0011
0000
0110
0000
2002
,  // measure 69
0000
0000
3003
0010
0100
0010
0000
1010
,  // measure 70
0000
0110
0000
0101
0000
1001
0010
0100
,  // measure 71
1000
0010
0001
0010
0000
1000
0001
1001
,  // measure 72
0000
0101
0000
0110
0000
1010
0000
0000
,  // measure 73
1001
0010
0100
1000
1100
0010
0001
0100
,  // measure 74
0110
0010
1001
0010
,  // measure 75
1001
0000
1000
0010
1000
0000
0000
0002
0000
0000
0010
0000
0013
0000
0000
0000
,  // measure 76
0100
0000
1000
0001
1000
0000
0000
0100
0000
0010
0000
0100
0010
0000
0001
0000
,  // measure 77
1000
0000
0100
1000
0100
0000
0000
0020
0000
0000
0100
0000
0130
0000
0000
0000
,  // measure 78
1000
0000
0001
0100
0000
0001
0000
0100
0000
0010
0000
1000
0100
0000
0000
0000
,  // measure 79
1001
0000
0001
0010
0001
0000
0000
0200
0000
0000
0010
0000
0310
0000
0000
0000
,  // measure 80
1000
0000
0001
0100
0001
0000
0000
0010
0000
0100
0000
0010
0100
0000
1000
0000
,  // measure 81
0001
0000
0100
0010
0100
0000
0000
0002
0000
0000
1000
0000
1003
0000
0000
0000
,  // measure 82
0110
0000
0000
0110
0000
0000
0110
0000
0000
0010
0000
0100
0001
0000
1000
0000
;

//---------------dance-single - ----------------
#NOTES:
     dance-single:
     :
     Challenge:
     16:
     0.863,0.927,0.460,0.285,0.775:
0000
0000
0000
0000
,
0000
0000
0000
0000
,
0000
0000
0000
0000
,
0000
0000
0000
0000
,
0000
0000
0000
0000
,
0101
0000
0100
0010
0000
0010
1000
0000
1001
0000
0001
0000
1001
0000
1000
0000
,
0010
0000
0100
0001
0000
0001
1000
0000
1100
0000
0100
0000
0110
0000
0010
0000
,
0001
0000
0100
0010
0000
0010
1000
0000
1001
0000
0001
0000
0101
0000
0100
0000
,
0001
1000
0001
0000
1000
0001
0000
1000
0001
0000
0000
0000
0110
0000
0000
0000
,
0001
0100
0001
0100
0001
1000
0000
0200
0000
0000
1300
0000
0110
0000
0000
0000
,
0001
0010
0001
0010
0001
1000
0000
0010
0000
0010
0000
0100
0001
0100
0001
1000
,
0100
0010
0100
0010
0100
1000
0000
0020
0000
0000
0130
0000
0101
0000
0000
0000
,
0001
0000
0010
0100
0010
0100
0010
0001
0000
1000
0000
0010
0200
0000
0000
0000
,
0301
1000
0001
1000
0001
0010
0000
0200
0000
0000
0310
0000
0011
0000
0000
0000
,
0100
1000
0100
1000
0100
0010
0000
0001
0000
0001
0000
0100
0010
1000
0010
1000
,
0001
0010
0001
0010
0001
0100
0000
0020
0000
0000
0130
0000
1001
0000
0000
0000
,
1000
0100
0000
1000
0001
0000
1000
0100
0000
1000
0001
0010
0100
1000
0001
0000
,
0100
0001
0100
0001
1000
0100
1000
0100
,
1000
0001
1000
0001
0100
1000
0100
0001
,
1000
0000
0000
0010
0200
0000
0000
0000
0301
0000
0101
0000
0000
0000
1001
0000
,
1000
0010
1000
0010
0100
0002
0000
0103
,
1001
0000
0001
0010
0001
0010
0100
1000
,
0010
1000
0100
0001
0100
2000
0000
3020
,
0000
0130
0001
0100
0001
0010
0100
1000
,
1010
0010
0010
1001
0000
1000
0100
0010
,
1001
0000
0000
0001
0100
0000
0000
0100
0010
0000
1000
0000
0100
0000
0010
0000
,
0000
0000
0011
0000
0000
0000
1100
0000
0010
0001
0200
0000
0010
0000
0310
0000
,
1000
0100
0010
0011
0000
1100
0000
1001
,
0001
0100
1000
0100
0001
0010
0100
1000
,
1001
0001
0100
0110
0000
1100
0000
1001
,
0000
0001
1000
1010
0000
1001
0000
0000
,
0001
0010
1000
0010
0001
1000
0100
0010
,
0001
1000
0010
1000
0001
1000
0010
1000
,
0001
0000
0010
0100
1000
0000
1000
0000
0010
0100
0001
0100
0010
0000
0000
0000
,
1001
0001
1000
0200
0000
0310
0001
2000
,
0000
0000
3100
1000
0100
0000
1000
0001
1000
0000
0001
0010
0001
0000
2002
0000
,
0000
0000
3003
0000
1000
0000
0100
0000
1000
0000
0001
0000
0100
0000
0001
1000
,
0001
0000
1000
0010
1000
0000
0001
0100
0001
0000
0010
0100
1000
0000
0010
0000
,
1001
0000
1000
0000
0010
0000
0200
0000
0000
0000
0301
0000
0010
0000
0100
1000
,
0100
0000
1000
0001
1000
0000
0001
0100
0001
0000
2002
0000
0000
0000
3003
0000
,
0001
0000
0100
0000
1000
0000
0100
0000
0001
0000
0010
0000
0100
0000
1000
0010
,
1000
0000
0010
0100
0010
0000
0100
0001
0100
0000
0001
1000
0100
0000
0010
0000
,
1001
1000
0100
0020
0000
0031
1000
0200
,
0000
0000
1300
0001
1000
0000
0001
0100
0001
0000
1000
0010
1000
0000
2002
0000
,
0000
0000
3003
0000
1000
0000
0001
0000
0010
0000
0100
0000
0000
0000
1000
0010
,
1000
0000
0001
0100
0001
0000
1000
0001
1000
0000
0001
0000
0010
0000
0100
0000
,
1001
0000
0001
0000
0100
0000
0020
0000
0000
0000
1030
0000
0100
0000
0010
0100
,
0010
0000
0001
0100
0001
0000
1000
0010
1000
0000
2002
0000
0000
0000
3003
0000
,
0011
0000
0100
0000
1000
0000
0001
0000
0101
0000
0100
0010
1000
0010
0100
0000
,
1001
1100
0000
1100
0000
1100
0010
0001
,
1000
0010
1000
0010
0100
0001
0000
2000
0000
0000
3100
0000
0010
0000
0002
0000
,
0100
0000
0103
0001
0010
0100
2000
0000
0000
0000
0010
0000
3010
0000
0200
0000
,
0000
0000
0301
1000
0001
1000
0010
0100
0010
0100
0001
0010
0001
0010
0100
1000
,
0100
1000
0010
0100
0002
0000
0100
0000
0100
0000
0103
0000
0110
0000
0000
0000
,
0010
1000
0010
1000
0001
0010
0001
0010
0100
1000
0100
1000
0010
0100
0001
0000
,
0100
0001
0100
0001
1000
0010
1000
0010
1000
0100
0010
0001
1000
0010
1000
0000
,
0100
0010
0100
0010
0001
1000
0001
1000
0100
0010
0200
0000
0000
0000
1300
0000
,
0001
0100
0000
0001
1000
0000
0001
0100
0000
0001
1000
0100
0010
0001
1000
0000
,
0001
0100
0010
0100
0001
0100
0010
0100
0001
0000
1000
0100
0010
0000
0011
0000
,
1001
0000
0000
1001
0000
0000
1100
0000
0010
0000
0001
1000
0010
0000
1000
0000
,
0100
0010
0001
0010
0100
0010
0001
0010
0100
0000
1000
0010
0100
0000
0101
0000
,
1001
0000
0000
1001
0000
0000
0011
0000
0100
0000
1000
0010
0200
0000
0000
0000
,
0301
1000
0100
1000
0001
1000
0100
1000
0001
0000
1000
0010
0100
0000
0101
0000
,
1001
0000
0000
1001
0000
0000
0101
0000
0010
0000
1000
0001
0010
0000
0100
0000
,
1000
0001
0100
0001
1000
0001
0100
0010
1000
0000
0001
0010
0100
0000
1100
0000
,
1000
0000
0100
1000
0001
0000
0001
0000
0100
0010
1000
0010
0100
0010
1000
0000
,
1001
0000
0001
0000
0100
0000
0010
1000
0100
0000
0010
0000
0001
0000
1000
0010
,
1000
0000
0001
1000
0001
0000
0010
0001
0010
0000
0100
0010
0100
0000
2002
0000
,
0000
0000
3003
0000
1000
0000
0010
0000
0100
0000
0001
0000
1000
0000
0100
1000
,
0100
0000
0010
0100
0010
0000
0001
0010
0001
0000
0100
0010
1000
0000
0010
0000
,
1001
0000
1000
0000
0100
0000
0020
0000
0000
0000
0031
0000
0100
0000
0010
1000
,
0010
0000
1000
0001
1000
0000
0001
0010
0001
0000
0100
0010
0100
0000
0010
0000
,
1010
0100
0001
0010
1100
0010
0001
1000
,
1001
0000
0001
0000
1000
0000
1000
0000
0010
0100
0001
0100
0010
0000
0000
0000
,
1000
0100
1000
0001
0100
0001
0000
1000
0200
0000
1000
0000
1300
0000
0010
0000
,
0100
0001
0100
0010
0100
0010
0000
1000
0000
1000
0000
0001
0100
0001
1000
0100
,
0010
0001
0010
0001
1000
0001
0000
0100
0020
0000
1000
0000
1030
0000
0000
0000
,
0001
0000
0100
0001
1000
0100
1000
0001
0000
0100
0000
0100
0020
0000
0000
0000
,
1030
0100
1000
0001
0100
0001
0000
0100
0020
0000
1000
0000
1030
0000
0001
0000
,
0010
0001
0010
0001
1000
0001
0000
0100
0000
0100
0000
0010
1000
0100
0010
0001
,
1000
0100
1000
0001
0100
0001
0000
0100
0020
0000
1000
0000
1030
0000
0000
0000
,
0001
0010
0000
0001
1000
0000
0001
0010
0000
0001
1000
0100
0010
0001
0100
0000
;

//---------------dance-single - ----------------
#NOTES:
     dance-single:
     :
     Beginner:
     2:
     0.132,0.179,0.110,0.000,0.000:
0000
0000
0000
0000
,
0000
0000
0000
0000
,
0000
0000
0000
0000
,
0000
0000
0000
0000
,
0000
0000
0000
0000
,
0001
0000
0100
0000
,
0001
0000
0100
0000
,
0010
0000
0010
0000
,
1001
0000
0000
0000
,
1000
0000
0100
0000
,
1000
0000
0100
0000
,
1000
0000
0100
0000
,
0010
0000
0000
0000
,
0001
0000
0100
0000
,
0001
0000
0100
0000
,
0001
0000
0100
0000
,
0010
0000
0000
0000
,
1001
0000
0000
0000
,
1000
0000
0000
0000
,
1000
0000
0000
0000
,
0001
0000
0000
0000
,
1001
0000
0000
0000
,
0100
0000
0000
0000
,
0010
0000
0000
0000
,
0110
0000
0000
0000
,
1001
0000
0000
0000
,
1000
0000
0000
0000
,
0001
0000
0000
0000
,
1000
0000
0000
0000
,
1001
0000
0000
0000
,
0010
0000
0000
0000
,
0110
0000
0000
0000
,
0100
0000
0000
0000
,
0001
0000
0000
0000
,
1001
0000
0000
0000
,
1000
0000
0000
0000
,
0010
0000
0000
0000
,
0100
0000
0000
0000
,
0010
0000
0000
0000
,
1000
0000
0000
0000
,
0001
0000
0000
0000
,
0100
0000
0000
0000
,
1001
0000
0001
0000
,
1000
0000
0000
0000
,
0100
0000
0000
0000
,
0010
0000
0000
0000
,
1001
0000
0000
0000
,
1000
0000
0000
0000
,
0001
0000
1000
0000
,
0001
0000
0000
0000
,
0010
0000
0100
0000
,
1000
0000
0000
0000
,
0010
0000
0010
0000
,
0010
0000
0000
0000
,
0100
0000
0001
0000
,
0010
0000
0000
0000
,
0001
0000
0001
0000
,
1001
0000
0000
0000
,
1000
0000
0100
0000
,
1000
0000
0100
0000
,
0010
0000
0001
0000
,
0010
0000
0001
0000
,
1000
0000
0010
0000
,
1000
0000
0010
0000
,
0100
0000
0001
0000
,
0100
0000
0000
0000
,
1001
0000
0000
0000
,
1000
0000
0001
0000
,
1000
0000
0000
0000
,
0100
0000
1000
0000
,
0100
0000
0000
0000
,
0010
0000
0001
0000
,
0010
0000
0010
0000
,
0110
0000
0000
0000
,
1001
0000
0001
0000
,
1000
0000
0100
0000
,
1000
0000
0001
0000
,
0100
0000
0010
0000
,
0100
0000
0001
0000
,
0100
0000
0010
0000
,
1000
0000
0100
0000
,
1000
0000
0000
1001
;
