#TITLE:少女アリスと箱庭幻想コンチェルト;
#SUBTITLE:;
#ARTIST:DJ TOTTO;
#TITLETRANSLIT:SHOUJO ALICE TO HAKONIWA GENSOU CONCERTO;
#SUBTITLETRANSLIT:;
#ARTISTTRANSLIT:;
#GENRE:;
#CREDIT:DigiMindAxel;
#BANNER:SHOUJO ALICE TO HAKONIWA GENSOU CONCERTO.png;
#BACKGROUND:SHOUJO ALICE TO HAKONIWA GENSOU CONCERTO-bg.png;
#LYRICSPATH:;
#CDTITLE:beatmania IIDX.png;
#MUSIC:SHOUJO ALICE TO HAKONIWA GENSOU CONCERTO.ogg;
#OFFSET:-1.071000;
#SAMPLESTART:54.796001;
#SAMPLELENGTH:12.000000;
#SELECTABLE:YES;
#BPMS:0.000000=134.000000
;
#STOPS:
;
#BGCHANGES:-4.000=SHOUJO ALICE TO HAKONIWA GENSOU CONCERTO.avi=1.000=0=0=0=StretchNoLoop====,
99999=-nosongbg-=1.000=0=0=0 // don't automatically add -songbackground-
;
#KEYSOUNDS:;
#ATTACKS:;

//---------------dance-single - ----------------
#NOTES:
     dance-single:
     :
     Easy:
     8:
     0.309423,0.387316,0.160442,0.208574,0.000000,270.000000,250.000000,20.000000,26.000000,0.000000,0.000000,0.309423,0.387316,0.160442,0.208574,0.000000,270.000000,250.000000,20.000000,26.000000,0.000000,0.000000:
0000
0000
0000
0000
,
0000
0000
0000
0000
,
0000
0000
0000
0000
,
0002
0000
0000
1000
0000
0000
1000
0000
,
0000
1003
0000
0010
0200
0000
0000
0010
,
0000
0000
0010
0000
0000
0310
0000
0000
,
1000
0000
0000
1000
0000
0000
0100
0000
,
0000
0100
0000
0000
0010
0000
0000
0001
,
0000
0000
1000
0000
0000
1000
0000
0000
,
0001
0000
0000
0100
0000
0000
0010
0000
,
0000
0010
0000
0000
0100
0000
0000
0001
,
0000
0000
1000
0000
0000
1000
0000
0000
,
1001
0000
0000
1000
0000
0100
0010
0000
,
0001
1000
0001
0000
0010
0000
0000
0001
,
0000
0000
0100
0010
0100
0001
1000
0000
,
0110
0000
0000
0100
0000
0000
0001
1000
,
0001
0100
0000
0000
0001
1000
0001
0010
,
0000
0000
0100
1000
0100
1000
0010
0000
,
2002
0000
3003
0220
,
0000
0330
2002
0000
,
3003
0220
0000
0330
,
2002
0000
3003
0220
,
0000
0330
2002
0000
,
3003
0220
0000
0330
,
1001
0000
0000
0001
0100
0001
1000
0000
,
0000
0001
0010
0001
1000
0000
0000
0001
,
0100
0001
1000
0000
0000
0001
0010
0001
,
1000
0000
0000
0001
0100
0001
1000
0000
,
0000
0001
0010
0001
2000
0000
0000
3001
,
0000
0000
1002
0000
0000
1003
0000
0000
,
0001
0000
1000
0100
0000
0010
0001
0000
,
0100
0100
0000
0000
0001
0000
0100
0001
,
0000
1000
0010
0000
0100
0010
0100
0010
,
1000
0000
0010
1000
0000
0001
0100
0000
,
0001
1000
0000
0000
0001
1000
0000
1000
,
0000
1000
0010
0100
0010
0100
0010
0100
,
0001
0000
0001
0010
0000
0100
1000
0000
,
0100
0010
0000
0000
0001
0000
0100
0001
,
0000
1000
0010
0000
0100
0001
0000
0000
,
1001
0000
0100
1000
0000
0100
0010
0000
,
0100
1000
0000
0100
0010
0001
0010
0001
,
0100
0000
0002
0000
0000
1003
0000
0000
,
1001
0000
0000
0100
0000
0000
1001
0000
,
0000
0100
0000
0000
1001
0000
0000
0100
,
0000
0000
1001
0000
0000
0010
0000
0000
,
1001
0000
0000
0010
0000
0000
1001
0000
,
0000
0010
0000
0000
1002
0000
0000
0000
,
0000
0000
1003
0001
1000
0001
1000
0001
,
1000
0000
0100
1000
0000
0100
1000
0000
,
0001
0100
0000
0001
0100
0010
0100
0010
,
0000
0000
1000
0001
1000
0001
1000
0001
,
0010
0000
0100
1000
0000
0010
0100
0000
,
0001
0010
0001
0010
0100
0000
1000
0010
,
0000
0100
0001
0000
0010
0100
0010
0100
,
0010
0000
0001
0100
0000
0010
1000
0001
,
1000
0001
1000
0001
2000
0000
0000
0000
,
0000
0000
0000
3000
,
0000
0000
0000
0000
,
0000
0000
0000
0000
1000
0100
0000
0010
,
0001
0000
1000
0100
0010
0001
1000
0000
,
1000
0010
0000
0100
0001
0000
1000
0010
,
0100
0001
0000
0000
0010
0100
0000
1000
,
0001
0000
0010
0100
1000
0001
1000
0000
,
0002
0000
0000
0203
0000
0000
0320
0000
,
0000
1030
0001
1000
0000
0000
0000
0000
;

//---------------dance-single - ----------------
#NOTES:
     dance-single:
     :
     Medium:
     14:
     0.577590,0.697846,0.312861,0.352971,0.332916,504.000000,465.000000,39.000000,44.000000,0.000000,0.000000,0.577590,0.697846,0.312861,0.352971,0.332916,504.000000,465.000000,39.000000,44.000000,0.000000,0.000000:
0000
0000
0000
0000
,
0000
0000
0000
0000
,
0000
0000
0000
0000
,
1001
0010
0100
1001
0000
0001
1100
0010
,
0001
1100
0000
0001
0011
0100
1000
0011
,
0000
0100
0110
0001
1000
1010
0000
0000
,
1001
0000
0001
0100
0000
0100
0010
0000
,
0001
1000
0000
1000
0100
0000
0010
0100
,
0000
0100
1000
0000
0001
1000
1000
0001
,
0100
0000
0001
0010
0000
0100
1000
0000
,
0010
0100
0000
0100
0001
0001
1000
0010
,
0010
0100
0001
0000
0010
0100
1000
0001
,
1000
0100
1000
0001
0000
0010
0100
1000
,
0001
0100
0110
0000
0001
0100
0001
1000
,
0100
0010
0001
0001
0100
0100
0010
0010
,
1001
0010
0100
1000
0001
0010
1000
0010
,
0001
0100
0001
1000
0010
1000
0100
1000
,
0000
0001
0010
0100
1000
0010
0100
0010
,
1002
0000
0000
1000
0000
0000
0000
0000
0013
0000
0100
0000
2000
0000
0000
0001
,
0000
0000
0000
0000
3100
0000
0010
0000
0002
0000
0000
0100
0000
0000
0000
0000
,
0013
0000
0100
0000
2000
0000
0000
0010
0000
0000
0000
0000
3100
0000
0010
0000
,
0002
0000
0000
1000
0000
0000
0000
0000
0103
0000
0010
0000
2000
0000
0000
0001
,
0000
0000
0000
0000
3010
0000
0100
0000
0002
0000
0000
1000
0000
0000
0000
0000
,
0103
0000
0010
0000
2000
0000
0000
0001
0000
0000
0000
0000
3010
0000
0100
0000
,
0001
0010
0100
0000
1000
0100
0010
0000
0001
0010
0100
0000
1000
0000
0010
0000
,
0001
0000
0010
0000
1000
0000
0001
0000
0100
0010
1000
0000
0010
0100
0001
0000
,
0100
0010
1000
0000
0001
0000
0010
0000
1000
0000
0010
0000
0001
0000
1000
0000
,
0001
0010
0100
0000
1000
0100
0010
0000
0001
0010
0100
0000
1000
0000
0010
0000
,
0001
0010
1000
0100
0011
0000
0000
0010
,
0000
0000
0000
0000
0010
0000
1000
0001
1000
0001
1000
0001
1000
0001
1000
0001
,
1000
0000
0100
0000
0010
0001
0010
0000
0100
1000
0100
1000
0020
0000
0000
0000
,
1030
0001
2000
0000
0000
0000
3001
0000
0010
0000
0100
0000
1000
0001
1000
0000
,
0010
0100
0010
0100
0002
0000
0000
0000
1003
0100
2000
0000
0000
0000
3001
0000
,
0100
0000
0010
0000
1000
0001
1000
0000
0001
0100
0001
0100
0020
0000
0000
0000
,
1030
0001
2000
0000
0000
0000
3001
0000
1000
0000
0010
0000
0010
0000
0100
0000
,
0100
0000
0001
0000
1001
0000
0100
0000
0010
0000
0001
1000
0001
1000
0001
1000
,
0001
1000
0100
0001
0001
0100
1000
1000
,
0010
0100
0001
1000
0200
1000
1300
0002
,
0010
0000
0013
0000
0100
0000
1000
0000
0001
0000
0100
0010
0100
0010
0100
0010
,
0100
0000
0001
0010
0100
0000
1000
0000
0000
0000
1000
0000
0001
0000
0010
0100
,
1000
0000
0010
0100
0001
0000
1000
0000
0010
0000
0100
0001
1000
0000
0100
0000
,
0010
0100
1000
0000
1001
0000
0010
0000
0100
0000
2002
0000
0000
0000
3003
0000
,
2020
0000
3030
0220
0000
0330
0202
0000
,
0303
0220
0000
0330
2002
0000
3003
2200
,
0000
3300
0022
0000
0033
2002
0000
3003
,
0202
0000
0303
2020
0000
3030
0220
0000
,
0330
2002
0000
3003
0020
0000
0000
0000
,
0000
0000
0000
0000
0130
0000
0001
0000
0010
0000
0001
1000
0001
1000
0001
1000
,
0001
1000
0100
0001
0001
0100
1000
1000
,
0001
0000
0010
0000
0100
0000
0010
0000
0001
0000
1000
0100
0010
0000
0100
0000
,
1000
0010
0100
0000
0001
0000
0010
0000
0100
0000
1000
0001
1000
0001
1000
0001
,
1000
0000
0010
0100
0001
0000
1000
0000
0100
0010
0001
0000
1001
0000
0100
0000
,
0010
0000
0001
1000
0001
1000
0001
1000
0001
0000
1000
0000
0100
0010
0001
0000
,
0100
0010
1000
0000
1001
0000
0000
0000
0001
0000
0100
0010
0100
0010
0100
0010
,
1000
0000
0010
0000
0001
0000
0010
0000
1000
0000
0100
0000
0010
0001
1000
0000
,
0100
0000
0010
0100
1000
0000
0001
0000
0200
0000
0000
0000
0000
0000
0000
0000
,
0000
0000
0000
0300
,
0000
0000
0000
0000
,
0000
0000
0000
0000
0000
0000
0000
0000
1001
0000
0010
0100
0010
0000
1001
0000
,
0010
0100
0010
0000
1001
0000
0100
0010
0100
0001
1000
0000
0100
0000
0010
0000
,
1001
0000
0100
0010
0100
0000
1001
0000
0100
0010
0100
0000
1001
0000
0010
0100
,
0010
0100
0001
0000
0010
0000
0100
0000
1001
0000
0100
1000
0100
0000
1001
0000
,
0100
1000
0100
0000
1001
0000
0010
0100
0010
0100
0001
0000
0010
0000
0100
0000
,
1000
0000
0010
0000
0100
0000
0010
0000
1000
0000
0010
0000
0100
0001
0100
0001
,
0100
0001
1000
0100
0010
0001
1000
0100
0000
0000
0000
0000
0000
0000
0000
0000
;

//---------------dance-single - ----------------
#NOTES:
     dance-single:
     :
     Hard:
     16:
     0.867530,0.878768,0.641766,0.152419,1.010782,757.000000,677.000000,80.000000,19.000000,0.000000,0.000000,0.867530,0.878768,0.641766,0.152419,1.010782,757.000000,677.000000,80.000000,19.000000,0.000000,0.000000:
// measure 0
0000
0000
0000
0000
,  // measure 1
0000
0000
0000
0000
,  // measure 2
0000
0000
0000
0000
,  // measure 3
1001
0000
0010
0000
0100
0000
1100
0000
0000
0000
0010
0001
1000
0000
0100
0000
,  // measure 4
0010
0000
0000
0001
0000
0000
0100
0001
0100
0001
0000
0000
1001
0000
0000
0100
0000
0000
0010
0000
0000
0101
0000
0000
,  // measure 5
0000
0010
1000
0010
0100
0000
0001
0000
0010
0000
0200
0000
1000
0000
1300
0000
,  // measure 6
1001
0000
0100
0000
0010
0000
0002
0000
0000
0000
0103
0010
1000
0000
0001
0100
,  // measure 7
0001
0000
0000
0100
0000
0000
0001
0000
0000
0000
0000
0000
0100
0000
0010
0000
0100
0000
0010
0000
0000
0000
0000
0000
1001
0000
0000
0000
0000
0000
0100
0000
0000
0000
0000
0000
0010
0000
0000
0000
0000
0000
0002
0000
0000
0000
0000
0000
,  // measure 8
0000
1003
0010
1000
0001
0010
0100
0010
0001
1000
0100
1000
0010
0100
0001
0000
,  // measure 9
1000
0000
0100
0000
0010
0000
0200
0000
0000
0000
1300
0010
0100
0000
0001
0010
,  // measure 10
0001
0000
0000
0010
0000
0000
0001
0000
0000
0000
0000
0000
0010
0000
0100
0000
0010
0000
0100
0000
0000
0000
0000
0000
1000
0000
0000
0010
0000
0000
0100
0000
0000
0001
0000
0000
0010
0000
0000
0100
0000
0000
0010
0000
0000
0000
0000
0000
,  // measure 11
0000
0001
0100
0001
1000
0000
1000
0000
0100
0000
0010
0001
0010
0001
1000
0000
,  // measure 12
1001
0000
0010
0000
0100
0000
2000
0000
0000
0000
3010
0100
0001
0000
1000
0010
,  // measure 13
1000
0000
0000
0001
0000
0000
0010
0000
0000
0000
0000
0000
0100
0000
1000
0000
0100
0000
1000
0000
0000
0000
0000
0000
1001
0000
0000
0000
0000
0000
0001
0000
0000
0000
0000
0000
0011
0000
0000
0000
0000
0000
1100
0000
0000
0000
0000
0000
,  // measure 14
0000
0001
1000
0010
1000
0001
0010
0001
0010
0100
1000
0000
1010
0000
0101
0000
,  // measure 15
1001
0000
1000
0010
1000
0010
1000
0100
0010
0001
0010
0100
1000
0000
0010
0000
,  // measure 16
0100
0000
0101
0000
0001
0010
0100
1000
0001
0000
0100
0000
0010
0000
1010
0000
,  // measure 17
1000
0001
0100
0010
1000
0000
0010
1000
0100
0010
0001
0000
0010
0000
0100
0000
,  // measure 18
1010
0000
0000
1010
0000
0000
0000
0100
0001
0000
0001
0000
0110
0000
0000
0110
,  // measure 19
0000
0000
0000
1000
0010
0000
0010
0000
1001
0000
0000
1001
0000
0000
0000
0010
,  // measure 20
0100
0000
0100
0000
0011
0000
0000
0011
0000
0000
0000
0100
1000
0000
1000
0000
,  // measure 21
0110
0000
0000
0110
0000
0000
0000
0100
0010
0000
0010
0000
1001
0000
0000
1001
,  // measure 22
0000
0000
0000
0010
0001
0000
0001
0000
0110
0000
0000
0110
0000
0000
0000
1000
,  // measure 23
0010
0000
0010
0000
0101
0000
0000
0101
0000
0000
0000
0010
1000
0000
1000
0000
,  // measure 24
0001
0010
0100
1000
0001
0010
0100
0010
0001
1000
0100
0010
0001
0000
0100
0010
,  // measure 25
1000
0000
1000
0001
0100
0000
0100
0000
0001
0010
0100
1000
0001
0010
0100
0010
,  // measure 26
0001
0000
0000
1000
0000
0000
0100
0000
0000
0010
0000
0000
0001
0000
0000
1000
0000
0000
0010
0000
0000
1000
0000
0000
0002
0000
0000
0000
0000
0000
0000
0000
0000
0000
0000
0000
0103
0000
0010
0000
0100
0000
0010
0000
0000
0000
0000
0000
,  // measure 27
1000
0010
0100
0001
1000
0100
0010
0100
1000
0001
0100
0010
1000
0000
0001
0010
,  // measure 28
0100
0000
0100
1000
0010
0000
0010
0000
2002
0000
0000
0000
0003
0000
0020
0000
,  // measure 29
0000
3030
2002
0000
3000
0200
0000
0303
,  // measure 30
1001
0000
0001
0000
0010
0100
1000
0000
1000
0010
0100
0001
0020
0000
0000
0000
,  // measure 31
0130
1000
0002
0000
0100
0000
0103
0010
1000
0000
0001
0000
0010
0100
1000
0000
,  // measure 32
1000
0001
0100
0001
1000
0000
0010
0100
0010
1000
0010
0100
0010
1000
0010
0100
,  // measure 33
0010
0000
1000
0100
0010
0001
1000
0000
1000
0010
0100
0010
2000
0000
0000
0000
,  // measure 34
3100
0000
0000
0010
0000
0000
0001
0000
0000
0000
0100
0000
0010
0000
0100
0000
0010
0000
1000
0000
0100
0000
0010
0000
0001
0000
0000
0000
0000
0000
1000
0000
0100
0000
1000
0000
0100
0000
0000
0000
0000
0000
0010
0000
0001
0000
0010
0000
,  // measure 35
0001
0000
0000
0000
0000
0000
0100
0000
0010
0000
0100
0000
0010
0000
0000
1000
0000
0000
0001
0000
0000
1000
0000
0000
0010
0000
0000
1000
0000
0000
0001
0000
0000
1000
0000
0000
0010
0000
0000
1000
0000
0000
0001
0000
0000
0000
0000
0000
,  // measure 36
1000
0100
1000
0100
0001
0100
0001
0100
1000
0100
0010
0000
0001
0010
0001
0010
,  // measure 37
1000
0010
1000
0010
0001
0010
0100
0000
1001
0000
0001
0100
0010
1000
0001
0000
,  // measure 38
0001
0010
0100
0010
0001
1000
0010
1000
0001
1000
0010
1000
0001
1000
0010
1000
,  // measure 39
0001
0000
0100
0010
1000
0001
0020
0000
0000
0000
0031
0000
0010
0100
1000
0100
,  // measure 40
0010
0000
0001
0100
0010
0100
0001
0000
1000
0010
1000
0100
0010
0000
0001
0100
,  // measure 41
0001
0000
0000
0010
0000
0000
0100
0000
0000
0000
0000
0000
1000
0000
0000
0010
0000
0000
0100
0000
0000
0010
0000
0000
1000
0000
0000
0010
0000
0000
0100
0000
0001
0000
0100
0000
0001
0000
0100
0000
0001
0000
0100
0000
0000
0000
0000
0000
,  // measure 42
1001
0000
0010
0100
1000
0100
0011
0000
0100
1000
0001
0100
2010
0000
0000
0000
,  // measure 43
3100
0010
1001
0000
0010
0000
0100
0000
1010
0000
0100
0001
0010
0100
1001
0000
,  // measure 44
0001
0100
0010
0100
0001
1000
0001
0010
0001
1000
0001
0010
0001
1000
0001
0010
,  // measure 45
1001
0000
0100
0010
0001
0100
1010
0000
0100
0010
1000
0100
0012
0000
0000
0000
,  // measure 46
0103
0000
0000
0010
0000
0000
1000
0000
0000
0000
0010
0000
0100
0000
0010
0000
0100
0000
0001
0000
0010
0000
0100
0000
2000
0000
0000
0000
0000
0000
0000
0000
0000
0000
0000
0000
0000
0000
0000
0000
0000
0000
0000
0000
0000
0000
0000
0000
,  // measure 47
0000
3000
0011
0110
1100
0110
0011
1001
,  // measure 48
1000
0010
0100
0010
1000
0001
0010
0001
1000
0001
0010
0000
0001
0010
0100
0010
,  // measure 49
0001
1000
0010
1000
0001
0100
0010
1000
0100
0000
1000
0100
0010
0001
1000
0000
,  // measure 50
1000
0010
0100
0010
1000
0001
0010
0001
1000
0001
0010
0001
1000
0001
0010
0001
,  // measure 51
1000
0000
0001
0100
1000
0100
0001
0000
0010
0000
0011
0000
1100
0000
1001
0000
,  // measure 52
0001
0000
1010
0000
0101
0000
1001
0000
1100
0000
0000
1000
0100
0001
0100
0000
,  // measure 53
1000
0010
0100
0001
0010
0000
0000
0001
0010
1000
0010
0001
0100
0010
0100
0001
,  // measure 54
1000
0100
0010
0001
0010
0100
1000
0001
0100
0010
1000
0010
0110
0000
0011
0000
,  // measure 55
1100
1001
0110
1010
0101
0000
0000
0100
,  // measure 56
0000
0000
0100
0000
0000
0100
0000
0000
,  // measure 57
0010
0000
0000
0010
0000
0000
0010
0000
,  // measure 58
0000
0000
0010
0000
1000
0100
0010
0001
1001
0000
0001
0100
0010
0000
1010
0000
,  // measure 59
0100
0010
0001
0000
0110
0000
1000
0010
0100
0001
0010
0000
0011
0000
1100
0000
,  // measure 60
1001
0000
0001
0010
0100
0000
1010
0000
0100
0001
1000
0000
1001
0000
0010
0100
,  // measure 61
1000
0001
0100
0000
1010
0000
0101
0000
1001
0000
1000
0001
0010
0000
0011
0000
,  // measure 62
0100
1000
0010
0000
1010
0000
0100
0001
0010
0100
1000
0000
1100
0000
0011
0000
,  // measure 63
1001
0010
0100
0010
0001
0010
0100
0010
0001
0100
0010
1000
0001
1000
0010
1000
,  // measure 64
0001
1000
0100
0010
0001
0010
0100
1000
0000
0000
0000
0000
0000
0000
0000
0000
;

//---------------dance-single - ----------------
#NOTES:
     dance-single:
     :
     Beginner:
     3:
     0.121477,0.205766,0.096265,0.000000,0.000000,106.000000,94.000000,12.000000,0.000000,0.000000,0.000000,0.121477,0.205766,0.096265,0.000000,0.000000,106.000000,94.000000,12.000000,0.000000,0.000000,0.000000:
0000
0000
0000
0000
,
0000
0000
0000
0000
,
0000
0000
0000
0000
,
0001
0000
0000
0001
0000
0000
0001
0000
,
0000
0000
0000
0000
1000
0000
0000
1000
,
0000
1000
0000
0000
,
0100
0000
0000
0000
,
0000
0000
1000
0000
,
0000
0000
0000
0000
,
0001
0000
0000
0000
,
0000
0000
0100
0000
,
0000
0000
0000
0000
,
0001
0000
0000
1000
0000
0000
0001
0000
,
0000
0000
0000
0000
1000
0000
0000
0001
,
0000
1000
0000
0000
,
0001
0000
0000
1000
0000
0000
0001
0000
,
0000
0000
0000
0000
1000
0000
0000
0001
,
0000
1000
0000
0000
,
0100
0000
0000
0100
,
0000
0000
0010
0000
,
0000
0010
0000
0000
,
0001
0000
0000
0001
,
0000
0000
0100
0000
,
0000
0100
0000
0000
,
0010
0000
0000
0010
,
0000
0000
1000
0000
,
0000
1000
0000
0000
,
0001
0000
0000
0001
,
0000
0000
1001
0000
,
0000
1001
0000
0000
,
1001
0000
0000
1000
,
0000
0000
0100
0000
,
0000
0010
0000
0000
,
0100
0000
0000
1000
,
0000
0000
0000
0000
0010
0000
0000
0010
,
0000
0000
0100
0000
0000
0100
0000
0000
,
0001
0000
0000
1000
,
0000
0000
0001
0000
,
0000
0000
1000
0000
0000
1000
0000
0000
,
0100
0000
0000
0010
,
0000
0000
0001
0000
,
0000
0000
0010
0000
0000
0010
0000
0000
,
0110
0000
0000
0000
,
0000
0000
0110
0000
,
0000
0000
0000
0000
,
0110
0000
0000
0000
,
0000
0000
0110
0000
,
0000
0000
0000
0000
,
1001
0000
0000
0001
0000
0000
0001
0000
,
0000
0000
0000
0000
0100
0000
0000
0100
,
0000
0001
0000
0000
,
1000
0000
0000
1000
0000
0000
0100
0000
,
0000
0000
0000
0000
0010
0000
0000
0010
,
0000
0100
0000
0000
,
1000
0000
0000
1000
0000
0000
0001
0000
,
0000
0001
0000
0000
0100
0000
0000
0000
,
0000
0000
0000
0000
,
0000
0000
0000
0000
,
0000
0000
0000
0000
0110
0000
0000
0010
,
0000
0000
0010
0000
0000
0010
0000
0000
,
1001
0000
0000
1000
0000
0000
1000
0000
,
0000
1000
0000
0000
1000
0000
0000
0000
,
0000
0000
0110
0000
0000
0010
0000
0000
,
0100
0000
0000
0010
0000
0000
0100
0000
,
0000
1001
0000
0000
0000
0000
0000
0000
;
