#TITLE:神人~Guitar Ver.;
#SUBTITLE:;
#ARTIST:神前暁;
#TITLETRANSLIT:SHINJIN~Guitar Ver.;
#SUBTITLETRANSLIT:;
#ARTISTTRANSLIT:SATORU KOUSAKI;
#CREDIT:DigiMindAxel;
#BANNER:SHINJIN~Guitar Ver..png;
#BACKGROUND:SHINJIN~Guitar Ver.-bg.png;
#LYRICSPATH:;
#CDTITLE:DigiMindAxel original simfile.png;
#MUSIC:SHINJIN~Guitar Ver..ogg;
#METERTYPE:DDR X;
#OFFSET:-6.462;
#SAMPLESTART:47.640;
#SAMPLELENGTH:12.000;
#SELECTABLE:YES;
#BPMS:0.000=80.000;
#STOPS:;
#BGCHANGES:;

//---------------dance-single - ----------------
#NOTES:
     dance-single:
     :
     Beginner:
     2:
     0.106,0.166,0.121,0.000,0.000: // measure 1
1001
0000
0000
0000
,  // measure 2
1000
0000
0000
0000
,  // measure 3
1001
0000
0000
0000
,  // measure 4
0001
0000
0000
0000
,  // measure 5
1001
0000
0000
0000
,  // measure 6
1000
0000
0000
0000
,  // measure 7
0110
0000
0000
0000
,  // measure 8
0010
0000
0000
0000
,  // measure 9
0100
0000
0000
0000
,  // measure 10
0010
0000
0000
0000
,  // measure 11
1001
0000
0000
0000
,  // measure 12
1001
0000
0000
0000
,  // measure 13
1001
0000
0000
0000
,  // measure 14
1001
0000
0000
0000
,  // measure 15
1000
0001
1000
0001
,  // measure 16
0010
0000
0000
0001
,  // measure 17
1000
0000
0000
1000
,  // measure 18
0001
0000
0000
1000
,  // measure 19
0010
1000
0100
0010
,  // measure 20
1001
0000
1000
0001
,  // measure 21
1001
0100
0010
0100
,  // measure 22
1000
0001
0100
0010
,  // measure 23
0110
0000
0000
0100
,  // measure 24
0001
0000
0000
0001
,  // measure 25
1000
0100
1000
0000
,  // measure 26
0001
0100
0001
0000
,  // measure 27
0100
0010
0100
0001
,  // measure 28
1000
0000
0000
1000
,  // measure 29
0001
0000
0000
0001
,  // measure 30
0010
0100
1000
0001
,  // measure 31
1001
0000
0000
0000
;

//---------------dance-single - ----------------
#NOTES:
     dance-single:
     :
     Medium:
     8:
     0.349,0.385,0.533,0.342,0.075:
2002
0000
0000
3003
,
2200
0000
0000
3300
,
0220
0030
0001
0301
,
2002
3000
0100
0103
,
0220
0030
0010
0310
,
2010
0000
0001
3001
,
0022
0003
0001
0031
,
2002
0003
0010
3010
,
0220
0030
0001
0301
,
2002
0003
0100
3100
,
1001
0000
0000
0100
1100
0000
0000
0000
,
1001
0000
0000
0100
0100
0000
0000
0000
,
0110
0000
0000
0010
1010
0000
0000
0000
,
1001
0000
0000
1000
1000
0000
0002
0000
,
1003
0000
0010
0000
1001
0000
1000
0000
0001
0010
0001
0000
2100
0000
0001
0000
,
3001
0000
0100
0000
1001
0000
0001
0000
0010
0001
0010
0000
1200
0000
0010
0000
,
0310
0000
0001
0000
1001
0000
1000
0000
0100
0010
0100
0000
1002
0000
0100
0000
,
0103
0000
0010
0000
1001
0000
1000
0000
0010
0100
0010
0000
0102
0000
1000
0000
,
1003
0000
0010
0000
0101
0000
0000
0001
0010
0100
1000
0000
1001
0000
0000
0000
,
1000
0000
0100
0000
0011
0000
0000
0100
1000
0010
0100
0000
1001
0000
0000
0000
,
2001
0000
0001
0000
0001
0000
0000
0000
3100
0010
0001
0000
1001
0000
0000
0000
,
1002
0000
1000
0000
1000
0000
0000
0000
0013
0100
1000
0000
1001
0000
0000
0000
,
0201
0001
0001
0000
0320
1000
1030
0000
,
2001
0001
0001
0000
3200
1000
1300
0000
,
1001
0000
0100
0010
0100
0000
1001
0000
1010
0000
0000
0000
0101
0000
0000
0000
,
1001
0000
0100
0010
0001
0000
1010
0000
0101
0000
0000
0000
1001
0000
0000
0000
,
1100
0000
0010
0100
0010
0000
0011
0000
1001
0000
0000
0000
1100
0000
0000
0000
,
1002
0100
1000
0103
,
2001
0010
0001
3010
,
1001
0000
0001
0000
0110
0000
0000
1000
0100
0010
0001
0000
0101
0000
0110
0000
,
2020
0000
0000
0000
0000
3030
0000
0000
;

//---------------dance-single - ----------------
#NOTES:
     dance-single:
     :
     Hard:
     11:
     0.496,0.554,0.443,0.372,0.402:
2002
0000
0000
0000
0000
0000
0000
3003
,
2200
0000
0000
0000
0000
0000
0000
3300
,
0012
0000
0010
0013
,
2001
0000
0001
3001
,
0102
0000
0100
0103
,
0210
0000
0010
0310
,
1100
0000
0100
1000
0000
0100
1000
0000
0001
0010
0000
0001
0010
0000
0100
0000
,
1001
0000
0001
1000
0000
0001
1000
0000
0010
0100
0000
0010
0100
0000
0001
0000
,
0101
0000
0100
0010
0000
0100
0010
0000
1000
0100
0000
1000
0100
0000
0010
0000
,
0101
0000
0001
0100
0000
0001
0100
0000
0001
1000
0000
0001
1000
0000
0100
0000
,
0012
0000
0010
0010
0000
0000
0013
0000
2200
0000
0000
0000
0000
0000
3300
0000
,
1020
0000
1000
1000
0000
0000
1030
0000
0002
0000
0000
0000
0000
0000
0103
0000
,
1002
0000
1000
1000
0000
0000
1003
0000
0220
0000
0000
0000
0000
0000
0330
0000
,
0210
0000
0010
0010
0000
0000
0310
0000
2000
0000
0000
0000
3002
0000
0000
0000
,
1003
0000
0010
0100
0101
0000
0010
1000
0100
1000
0010
0000
1001
0000
0100
0000
,
1001
0000
0001
1000
1100
0000
0010
0001
0010
0100
0010
0000
1001
0000
0100
0000
,
1001
0000
0001
0100
0110
0000
1000
0100
0010
0100
1000
0000
0110
0000
0001
0000
,
0110
0000
1000
0001
0011
0000
0100
1000
0001
1000
0100
0000
0011
0000
0100
0000
,
1002
0000
0010
0000
0013
0000
0100
1000
0010
0100
0010
0000
1001
0000
0010
0000
,
2001
0000
0100
0000
3100
0000
0010
0100
1000
0010
0100
0000
1001
0000
0100
0000
,
1002
0000
1000
0000
1003
0000
0001
0010
0100
0010
0001
0000
1001
0000
0100
0000
,
1020
0000
1000
0000
1030
0000
0001
0010
0100
0010
0001
0000
2000
0000
0010
0010
,
3020
0000
1000
0000
1030
0001
0010
0100
2000
0000
0010
0010
3010
0000
0000
0000
,
2001
0000
0100
0000
3100
0010
0001
1000
0020
0000
0100
0100
0130
0000
0001
0001
,
1000
0100
0001
0100
2000
0000
3001
0010
0100
0010
0001
0000
0102
0000
1003
1000
,
1000
0010
0001
0010
1000
0000
0001
0100
0010
0100
0001
0000
0201
0000
0301
0001
,
0001
0010
1000
0010
0001
0000
1000
0100
0010
0100
1000
0000
0210
0000
0301
0001
,
0001
0100
1000
0100
0001
0000
0100
0010
0001
0010
0100
0000
1002
0000
0103
0100
,
0100
0001
0010
0100
1001
0000
1000
0001
0010
0100
0010
0001
0201
0000
0310
0010
,
0010
1000
0100
0010
1001
0000
0001
0100
0010
0001
0010
0100
1002
0000
0013
0010
,
2002
0000
0000
0000
0000
3003
0000
0000
;

//---------------dance-single - ----------------
#NOTES:
     dance-single:
     :
     Easy:
     4:
     0.197,0.231,0.372,0.060,0.000:
1001
0000
0000
0000
,
1001
0000
0000
0000
,
1001
0000
0000
0000
,
0110
0000
0000
0000
,
1001
0000
0000
0000
,
0110
0000
0000
0000
,
1001
0000
1000
0000
,
1001
0000
0001
0000
,
1001
0000
1000
0000
,
1001
0000
0001
0000
,
0110
0000
0010
0000
,
0110
0000
0010
0000
,
0110
0000
0100
0000
,
0110
0000
0100
0000
,
1001
1001
0010
0100
,
1001
1001
0100
0010
,
0001
0010
0001
0000
1001
0000
0110
0000
,
1000
0100
1000
0000
1001
0000
0110
0000
,
0001
0010
0001
0000
0110
0000
1001
0000
,
1000
0100
1000
0000
0110
0000
1001
0000
,
2000
0001
3001
1001
,
0002
1000
1003
0110
,
1001
0000
0010
0000
0100
0010
0100
0000
,
1001
0000
1000
0000
0100
0010
0100
0000
,
0010
1001
0001
0110
,
1000
1001
0001
0110
,
0100
0010
1001
0100
,
0020
0100
0100
0130
,
2000
0001
0001
3001
,
0100
0010
0100
0000
0001
0000
0110
0000
,
2002
0000
0000
0000
0000
3003
0000
0000
;
